This file was generated by Ched 2.6.4.0.
#TITLE ""
#ARTIST ""
#DESIGNER ""
#DIFFICULTY 0
#PLAYLEVEL
#SONGID ""
#WAVE ""
#WAVEOFFSET 0
#JACKET ""
#REQUEST "ticks_per_beat 480"
#00002: 4
#BPM01: 134
#00008: 01
#TIL00: ""
#HISPEED 00
#MEASUREHS 00
#01512:00000000000016001400000000000013
#01519:1414140000000000
#01513:1414140000000000
#0151a:0000000000140000
#01518:00000000000000260000000000001300
#01515:00000000000000000000000000130000
#0151b:00000013
#01510:41
#03818:0026162626000000
#03814:00000000000000000000003300001300
#03812:0016261626000000
#0381b:00000013
#03816:0000000000130000
#03819:0000000000130013
#00812:23000000130000000000001300000000
#00817:0000000000000013
#00815:00000013000013001300000000000000
#00818:00001300130000130000000000000000
#0081b:2313
#00816:00000000000000000000001300000000
#00810:41
#00912:1400001300000000
#0091b:0013000013001300
#00916:0000000000130013
#0091a:14
#01619:0013000000130000
#01617:0000000000001313
#0161b:1300000000000013
#01614:0000001300000000
#01717:0013131300000000
#01712:00000000130013000000000000130000
#01716:13
#0171b:0000000000130013
#01715:00000000000000001600001300000000
#01718:00000013
#03515:13000000000000130000000000001300
#03518:13000000130000000000000000000013
#03512:0013000013001400
#0351b:0000001300000000
#0351a:0000000000140000
#03516:00000000000000000000001400000000
#0051b:0000130000001313
#00519:0000000000130000
#00512:00000000000000131300000000000000
#00516:13000013130000000000000000001400
#00517:0013
#00417:0000001300000000
#00416:0013000000000000
#0011b:1300001300130013
#00117:00000000130013000000000013000013
#00116:1300000000130000
#00119:0013000000000000
#00112:00001313
#03912:0013001300130000
#03912:0000000000130000
#03919:00000013
#03919:00000013
#03917:1300130000130000
#03916:0013001300000000
#0391b:23131300
#0391f:21
#03910:0041
#0401b:1300001300000013
#04016:1300001300000013
#04012:00131414
#04017:00130000
#04018:00000000000000000014001400000000
#04015:0000000000140000
#0401a:00000014
#04416:0000140000001313
#04414:0000001800000000
#0441b:00130000000000000000000013001300
#04418:13
#04412:00001400001400000000000000000000
#0441a:00000014000000001300000000000000
#04413:0013
#04517:0013001300000000
#04516:0013
#04514:00140000
#04512:0000001300001300
#04518:0000000000140000
#04519:13
#0451b:00000013
#01112:0013000000001300
#0111b:0000130000130000
#01117:0013130013131300
#0201b:130013130000130013130000
#02018:001300000013001300000013
#02015:001313001313
#02012:130000130013130000130013
#03617:00130000
#0361b:1300001313001300
#03612:13000013130000001300000013000000
#03616:0000001300000000
#03615:0000000000160016
#03212:1313
#03218:131313
#03215:000000000013001300000000
#0321b:00130000
#0321f:11
#04317:00130013
#04319:0000000000130000
#0431b:0000001313000013
#04312:0000130000001313
#04314:0000000000130000
#04315:00000000000000000000000000000013
#02115:00130000001300000000000000000000
#02112:00000013000000000000000000000000
#02117:0000001300000000
#02118:00000000000000000013000000130000
#0211b:00000000000000000000001300000000
#02116:0000000000000013
#02912:13000000140000000000000000140000
#0291a:00000000001400000000000014000000
#02916:0000001400000014
#0291b:00130000000000000000000000000000
#02915:0013000000000000
#02918:00000013000000000000000000000000
#02910:41
#0221b:0013000000000013
#02216:00130013
#02217:0013
#02212:14
#0221a:14
#02210:41
#02319:14
#02313:14
#02312:0014000000000000
#02314:00000000141400141400140000000000
#02316:000000000000000000000000000000000000000000000000000000000000000000000000000000000000000000000000000000000000000000000000000000000000000000000000000000000000000000000000000000000000000000000000000000000000000000000000000000000000000000000000000000000000000000000000000000000000000000000000000000000000000000000000000000000000000000000000000000000000000000000000000000000000000000000000000000000000000000000000000000000000000000000000000000000000000000000000000000000000000000000000000000000000000000000000000000000000000000000000000000000000000000000000000000000000000000000000000000000000000000000000000000000000000000000000000000000000000000000000000000000000000000000000000000000000000000000000000000000000000000000000000000000000000000000000000000000000000000000000000000000000000000000000000000000000000000000000000000000000000000000000000000000000000000000000000000000000000000000000000000000000000000000000000000000000000000000000000000000000000000000000000000000000000000000000000000000000000000000000000000000000000000000000000000000000000000000000000000000000000000000000000000000000000000000000000000000000000000000000000000000000000000000000000000000000000000000000000000000000000000000000000000000000000000000000000000000000000000000000000000000000000000000000000000000000000000000000000000000000000000000000000000000000000000000000000000000000000000000000000000000000000000000000000000000000000000000000000000000000000000000000141400000000000000000000000000000000000000000000000000000000000000000000000000000000000000000000000000000000000000000000000000000000000000000000000000000000000000000000000000000000000000000000000000000000000000000000000000000000000000000000000000000000000000000000000000000000000000000000000000000000000000000000000000000000000000000000000000000000000000000000000000000000000000000000000000000000000000000000000000000000000000000000000000000000000000000000000000000000000000000000000000000000000000000000000000000000000000000000000000000000000000000000000000000000000000000000000000000000000000000000000000000000000000000000000000000000000000000000000000000000000000000000000000000000000000000000000000000000000000000000000000000000000000000000000000000000000000000000000000000000000000000000000000000000000000000000000000000000000000000000000000000000000000000000000000000000000000000000000000000000000000000000000000000000000000000000000000000000000000000000000000000000000000000000000000000000000000000000000000000000000000000000000000000000000000000000000000000000000000000000000000000000000000000000000000000000000000000000000000000000000000000000000000000000000000000000000000000000000000000000000000000000000000000000000000000000000000000000000000000000000000000000000000000000000000000000000000000000000000000000000000000000000000000000000000000000000000000000000000000000000000000000000000000000000000000000000000000000000000000000000000000000000000000000000000000000000000000000000000000000000000000000000000000000000000000000000000000000000000000000000000000000000000000000000000000000000000000000000000000000000000000000000000000000000000000000000000000000000000000000000000000000000000000000000000000000000000000000000000000000000000000000000000000000000000000000000000000000000000000000000000000000000000000000000000000000000000000000000000000000000000000000000000000000000000000000000000000000000000000000000000000000000000000000000000000000000000000000000000000000000000000000000000000000000000000000000000000000000000000000000000000000000000000000000000000000000000000000000000000000000000000000000000000000000000000000000000000000000000000000000000000000000000000000000000000000000000000000000000000000000000000000000000000000000000000000000000000000000000000000000000000000000000000000000000000000000000000000000000000000000000000000000000000000000000000000000000000000000000000000
#0231a:0014000000000000
#02318:00000000141400141400140000000000
#00718:1300000000130000
#00715:0013000000000000
#00712:13000013
#0071b:00000013
#03716:0015000000000000
#03718:00000000130000000013000000130000
#03715:1300001500130013
#03712:00001300130000001300000013000013
#0371b:13000000000013001300001300000013
#0601b:13130000
#06015:0013000000000000
#06012:130013000000002c
#06018:00000013000000000000000000000000
#06016:0000001400000000
#06014:0000000018181800
#00012:0000000000120000
#00014:00000012
#00016:0000000000000012
#00018:0000000000120000
#0001a:00000012
#0001c:0000000000000012
#00217:0013000000000000
#00218:0000001300000000
#0021b:0000000013000013
#00215:0000000000130013
#00212:00000013
#00312:1300001300130013
#00316:00000000130013000000000013000013
#00317:1300000000130000
#00314:0013000000000000
#0031b:00001313
#00616:0014001400140014
#00612:0013000000130000
#0061b:0000001300000013
#00619:00130013
#00614:13121312
#0061a:1212
#0101b:13000000130000000000001300000000
#01016:0000000000000013
#01018:00000013000013001300000000000000
#01015:00001300130000130000000000000000
#01012:1313
#01017:00000000000000000000001300000000
#01215:00001300130000130000000000000000
#01212:1300000013000013
#0121b:13000000130000000000001300000000
#01218:00000013000013001300000000000000
#01217:00000000000000000000001300000000
#0131b:0000001300000000
#01312:1413000013001300
#01317:0000000000130013
#0131a:14
#01418:00001300130000130000000000000000
#0141b:1300000013000013
#01412:13000000130000000000001300000000
#01415:00000013000013001300000000000000
#01416:00000000000000000000001300000000
#01819:0013000000130000
#0181b:00000013
#01817:13
#01814:0000001300000000
#01816:0000000000000013
#01812:0000000000000013
#01916:0013131300000000
#0191b:0000131300000000
#01917:13
#01915:00001613
#01918:00000013
#02418:0013000000130000
#02412:00130000130000001300000013000000
#0241b:13000000001300001300000000001300
#02416:0000130000000013
#02417:13000000000000000000000000000013
#02415:0000001300000000
#02512:0013001313000000
#0251b:00130000000013000000130000000000
#02518:00130000
#02514:13000033
#02515:00000000001300000000003300000000
#02519:13000013
#02517:0000000013000013
#02516:0000000000130000
#02513:00000000000000000000000000330000
#0271b:0013001313000000
#02712:00130000000013000000000000000000
#02715:00130000
#02718:00000000001300000000000014000000
#02714:13000014
#02719:13
#02716:0013
#02812:130013160000130013160000
#02815:001300000013001300000013
#02818:161313161313
#0281b:000000130013000000130013
#03014:00000012
#0301a:00000012
#03012:0012001200120000
#03016:0014141414140000
#0301c:00121200
#03118:0012000012000000
#0311c:00120000
#0311a:0000001200000000
#03112:0012000012000000
#03116:00120000
#03114:0000001200000000
#03315:130000130000000013000000
#03312:001300
#03318:000000000013001300000000
#0331b:1313
#03415:000000000013001300000000
#0341b:00130000
#03418:001313
#03412:1313
#03417:13
#03414:000000000033
#0341a:000000000033
#0411b:0013001300130000
#0411b:0000000000130000
#04114:00000013
#04114:00000013
#04116:1300130000130000
#04117:0013001300000000
#04112:13131300
#04119:00000000000000330000000000000000
#04212:1300001300001400
#04217:1300001300140000
#04216:00130000
#0421b:00130000
#0421a:00001414
#04214:00000000000000000014001400000000
#04612:0000000000001c260000000000000000
#04613:1414140000000000
#04619:1414140000000013
#04614:00000000000000000000003300001300
#04617:00000013
#04616:0000000000130000
#0461b:0000000000130000
#04618:00000000000000260000000000000000
#04712:0013001300130000
#04712:0000000000130000
#0471b:1300000013000013
#04716:2313001300000000
#04717:00130000
#0481b:0000001300130013
#04812:13000000130013000013000013001300
#04817:13130000
#04818:00001313
#04815:00000000000000130000001300000000
#0491b:0013001300130000
#0491b:0000000000130000
#04912:1300000013000013
#04917:1313001300000000
#04916:00130000
#0501b:13000000130013000013000013000000
#05016:13130000
#05015:00001313
#05012:0000001300130013
#05018:00000000000000130000001300000000
#05017:0000000000000013
#05213:000000000000001a
#05214:00000000000014000000141400000000
#05218:00001300000014140000140000000000
#05212:13001300001300001400000000140000
#05215:00000013000000000000000000000000
#0521b:00130000130000000000000000000000
#0521a:00000000000000000014000014000000
#05115:0000000000000013
#05118:00000000000000000000000000000013
#0511b:13000000000000131300000000001300
#05112:00130013
#05114:0000000000130000
#05117:13000013130000000000000000000000
#05116:0013
#05317:0013000013000013
#05312:0013000013000013
#05316:00130000
#0531b:00130000
#0531a:14000000003300000000003300000000
#05314:14000000003300000000330000000000
#05313:00000000000033330033000000000000
#05315:00000000000000000000003300000000
#05318:00000000000000330033000000000000
#05319:0000003300330000
#05818:0013000000001300
#05815:0000130000130000
#05812:00000013000013001300000000000000
#0581b:00000000000000000000001300001300
#05916:0000001313000000
#05912:0000130000130000
#05917:0013000000001300
#0591b:1300000000000013
#05915:00000013000000000000000000000000
#05919:00000000000000000000001300000000
#05418:00000000160000130000000000000000
#05412:24000000130013001600001300000000
#0541b:0013000013000013
#05415:00000013000000000000000000000000
#05417:0000000000000000000000000000000000000000000000000013000000000000
#0541a:24
#05410:41
#05512:1400001313130000
#0551b:0013000000000013
#0551a:14000000000000000000003300000000
#05516:0013
#05517:00000013
#05518:00000000000000000033000000000000
#05519:0000000000330000
#05515:00000000000000000000000000330000
#05514:0000000000000033
#05513:00000000000000000000000000000033
#0561b:13000000130013000000001300000000
#05612:0013160013000013
#05618:00000013000000001600000000000000
#05615:00000000000000130000000000000000
#05616:0000000000000000000000000000000000000000000000000013000000000000
#0571b:0000001313130000
#05712:1413000000000013
#0571a:14000000000000000000000000000033
#05717:0013
#05716:00000013
#05715:00000000000000000033000000000000
#05714:0000000000330000
#05713:00000000000000000000003300000000
#05718:00000000000000000000000000330000
#05719:0000000000000033
#02615:0013000000130000
#0261b:00130000130000001300000013000000
#02612:13000000001300001300000000001300
#02617:0000130000000013
#02616:13000000000000000000000000000013
#02618:0000001300000000
#03957:63630000
#03952:0023002300000000
#0395b:0043
#02157:0000001300000000
#02156:0000000000000013
#0435b:0000000000000013
#04357:00130000
#04352:00630000
#0085b:0053
#00856:00000000000000000000005300000000
#00857:0000000000000013
#0165b:0000000000000053
#04456:0000000000000053
#04454:0000001800000000
#04452:0014000000000000
#0235a:0064000000004400
#02352:0054000000003400
#02354:00000000545400545400240000000000
#02356:000000000000000000000000000000000000000000000000000000000000000000000000000000000000000000000000000000000000000000000000000000000000000000000000000000000000000000000000000000000000000000000000000000000000000000000000000000000000000000000000000000000000000000000000000000000000000000000000000000000000000000000000000000000000000000000000000000000000000000000000000000000000000000000000000000000000000000000000000000000000000000000000000000000000000000000000000000000000000000000000000000000000000000000000000000000000000000000000000000000000000000000000000000000000000000000000000000000000000000000000000000000000000000000000000000000000000000000000000000000000000000000000000000000000000000000000000000000000000000000000000000000000000000000000000000000000000000000000000000000000000000000000000000000000000000000000000000000000000000000000000000000000000000000000000000000000000000000000000000000000000000000000000000000000000000000000000000000000000000000000000000000000000000000000000000000000000000000000000000000000000000000000000000000000000000000000000000000000000000000000000000000000000000000000000000000000000000000000000000000000000000000000000000000000000000000000000000000000000000000000000000000000000000000000000000000000000000000000000000000000000000000000000000000000000000000000000000000000000000000000000000000000000000000000000000000000000000000000000000000000000000000000000000000000000000000000000000000000000000000000545400000000000000000000000000000000000000000000000000000000000000000000000000000000000000000000000000000000000000000000000000000000000000000000000000000000000000000000000000000000000000000000000000000000000000000000000000000000000000000000000000000000000000000000000000000000000000000000000000000000000000000000000000000000000000000000000000000000000000000000000000000000000000000000000000000000000000000000000000000000000000000000000000000000000000000000000000000000000000000000000000000000000000000000000000000000000000000000000000000000000000000000000000000000000000000000000000000000000000000000000000000000000000000000000000000000000000000000000000000000000000000000000000000000000000000000000000000000000000000000000000000000000000000000000000000000000000000000000000000000000000000000000000000000000000000000000000000000000000000000000000000000000000000000000000000000000000000000000000000000000000000000000000000000000000000000000000000000000000000000000000000000000000000000000000000000000000000000000000000000000000000000000000000000000000000000000000000000000000000000000000000000000000000000000000000000000000000000000000000000000000000000000000000000000000000000000000000000000000000000000000000000000000000000000000000000000000000000000000000000000000000000000000000000000000000000000000000000000000000000000000000000000000000000000000000000000000000000000000000000000000000000000000000000000000000000000000000000000000000000000000000000000000000000000000000000000000000000000000000000000000000000000000000000000000000000000000000000000000000000000000000000000000000000000000000000000000000000000000000000000000000000000000000000000000000000000000000000000000000000000000000000000000000000000000000000000000000000000000000000000000000000000000000000000000000000000000000000000000000000000000000000000000000000000000000000000000000000000000000000000000000000000000000000000000000000000000000000000000000000000000000000000000000000000000000000000000000000000000000000000000000000000000000000000000000000000000000000000000000000000000000000000000000000000000000000000000000000000000000000000000000000000000000000000000000000000000000000000000000000000000000000000000000000000000000000000000000000000000000000000000000000000000000000000000000000000000000000000000000000000000000000000000000000000000000000000000000000000000000000000000000000000000000000000000000000000000000000000000000000
#02358:00000000646400646400240000000000
#03856:0000000000630000
#03852:0036003600000000
#03858:00464600
#01152:0013000000001300
#0115b:00130000
#01157:00530000
#04557:0000005300000000
#06052:000000000000001c
#00156:53
#00157:00000000530000000000000000000023
#00152:00000053
#0015b:0000002300000000
#00252:0033000000000000
#00357:63
#00356:00000000630000000000000000000023
#0035b:00000063
#00352:0000002300000000
#0045b:0043000000000000
#00552:0063
#00556:6300000000000034
#00656:0044003400440034
#00752:00000063
#0075b:00000053
#01056:0000000000000013
#01052:0063
#01057:00000000000000000000006300000000
#01252:0000000000000013
#01258:0053
#0125b:00000000000000000000005300000000
#0145b:0000000000000013
#01455:0063
#01452:00000000000000000000006300000000
#01558:00000000000000160000000000000000
#01552:0054
#01756:23
#01757:0000001300000000
#01852:0000000000000063
#01957:23
#01956:0000001300000000
#01958:00000043
#01955:00000033
#0255b:00230000000013000000000000000000
#02559:53
#02556:0000000000530000
#02457:53000000000000000000000000000023
#02456:00630000
#02452:00230000000000005300000000000000
#02458:0000000000230000
#0245b:00000000002300000000000000005300
#02752:00230000000013000000000000000000
#02758:00000044
#02754:63000034
#03054:00000062
#0305a:00000052
#03158:0062000022000000
#0315a:0000006200000000
#0315c:00220032
#03152:0062000022000000
#03156:00220032
#03154:0000006200000000
#0355b:0000002300000000
#03552:0023000033000000
#03555:63
#03558:00533300
#0365b:53
#03755:13
#03758:00130000
#04056:23
#0405b:23
#04052:0033000000000000
#04057:0033000000000000
#04156:53530000
#0415b:0023002300000000
#04152:0033
#04252:23
#04257:23
#04256:0043000000000000
#0425b:0043000000000000
#04652:00000000000000160000000000000000
#04656:0000000000630000
#04658:00000000000000160000000000000000
#0475b:6300000043000053
#04756:0023000000000000
#04757:00630000
#04752:0000002300000000
#04857:23
#04852:23
#0485b:0043000000000000
#04856:0043000000000000
#05056:23
#0505b:23
#05052:0033000000000000
#05057:0033000000000000
#04952:5300330033000063
#04957:4323000000000000
#04956:00530000
#0495b:0000002300000000
#05253:000000000000001a
#05254:0000001400000000
#05258:0013000000140000
#05155:0000000000000013
#0515b:0053
#05157:53
#03252:000000000000000000000033
#0335b:000000000000000000000043
#03458:000000000000000000000013
#05356:00530000
#0535b:00530000
#05357:0023
#05352:0023
#05852:0013
#0585b:13
#0595b:13
#05956:0013
#02052:1313
#0205b:00130013
#02858:1616
#02852:00160016
#0545b:0000000053000043
#05452:00000000000000000000005300003300
#05457:0000000000000000000000000000000000000000000000000023000000000000
#05557:00000053
#05556:0053
#05652:0000000063000033
#0565b:00000000000000000000006300004300
#05656:0000000000000000000000000000000000000000000000000023000000000000
#05757:0063
#05756:00000063
#0225b:0013000000000000
#02255:0000004300000043
#02258:0000000000330000
#02655:0000000000230000
#0265b:00230000000000006300000000000000
#02656:63000000000000000000000000000023
#02657:00530000
#02652:00000000002300000000000000006300
#02956:0000001400000014
#001360:13
#001320:00230000
#001371:00132300
#0013b1:0000005300000000
#001321:00000013
#001371:00000000000000000000000000000053
#002321:0023000000000000
#002351:0000001300000000
#002321:0023
#002381:0000000000130000
#0023b1:00000023
#003371:13
#0033b1:00230000
#003360:00132300
#003320:0000005300000000
#0033b0:00000013
#003360:00000000000000000000000000000053
#0043b0:0023000000000000
#004320:0000001300000000
#004350:0023
#004381:0013
#0043b1:0000000000230000
#004320:0000000000130000
#004350:00000023
#004381:00000013
#0043b1:0000000000000023
#004320:0000000000000013
#005320:23
#005361:13
#0053b1:00000023000000000000000000000000
#005321:0013
#005371:00000023
#0073b1:0013000000000000
#007381:00230000
#007350:00130000
#007320:0000002300000000
#0073b1:0000001300000000
#007381:0023
#007350:0013
#007320:0000000000230000
#007320:00000013
#007350:0000000000000023
#0073b1:00000013
#007381:0000000000000023
#0083b1:0000000013000023
#008361:00000000000000000000003300000000
#009371:0013000000000000
#009321:00230000
#0093b0:00130000
#009360:0000002300000000
#009360:00001333
#009320:0000000000330023
#010320:0000000013000023
#010370:00000000000000000000003300000000
#011370:00130000
#011320:0023
#012380:0013
#0123b0:00000000000000000000003300000000
#012360:0000000000000023
#013360:0013000000000000
#0133b0:00230000
#013321:00130000
#013371:0000002300000000
#013371:00001333
#0133b1:0000000000330023
#014351:0013
#014321:00000000000000000000003300000000
#014371:0000000000000023
#015321:0014
#015361:0000000000240000
#016361:13
#016321:00230000
#016370:00130000
#0163b0:0023
#016361:0013
#016321:00000023
#0163b1:0000000000000013
#017361:53
#0173b1:0023000000000000
#018321:13
#018361:00230000
#0183b0:00130000
#018370:0023
#018321:0013
#018361:00000023
#018321:0000000000000013
#019371:53
#019321:0023000000000000
#0213b1:13230000000000000000000000000000
#021361:00001323000000000000000000000000
#0213b1:00000000132300000000000000000000
#021321:00000000000000001323000000000000
#021371:00000000000000000000132300000000
#021321:00000000000000000000000013230000
#022351:0013002300000000
#022321:00330000
#022380:0000001300230000
#0223b0:0033
#022351:0000000000130023
#022321:00000033
#023321:0014000000000000
#023381:00545400
#023341:00000000005400540000340000000000
#023361:0000003400000000
#0233a1:00000024
#0233a0:0014000000000000
#023340:00545400
#023380:00000000005400540000340000000000
#023360:000000000000000000000000000000000000000000000000000000000000000000000000000000000000000000000000000000000000000000000000000000000000000000000000000000000000000000000000000000000000000000000000000000000000000000000000000000000000000000000000000000000000000000000000000000000000000000000000000000000000000000000000000000000000000000000000000000000000000000000000000000000000000000000000000000000000000000000000000000000000000000000000000000000000000000000000000000000000000000000000000000000000000000000000000000000000000000000000000000000000000000000000000000000000000000000000000000000000000000000000000000000000000000000000000000000000000000000000000000000000000000000000000000000000000000000000000000000000000000000000000000000000000000000000000000000000000000000000000000000000000000000000000000000000000000000000000000000000000000000000000000000000000000000000000000000000000000000000000000000000000000000000000000000000000000000000000000000000000000000000000000000000000000000000000000000000000000000000000000000000000000000000000000000000000000000000000000000000000000000000000000000000000000000000000000000000000000000000000000000000000000000000000000000000000000000000000000000000000000000000000000000000000000000000000000000000000000000000000000000000000000000000000000000000000000000000000000000000000000000000000000000000000000000000000000000000000000000000000000000000000000000000000000000000000000000000000000000000000000000000003400000000000000000000000000000000000000000000000000000000000000000000000000000000000000000000000000000000000000000000000000000000000000000000000000000000000000000000000000000000000000000000000000000000000000000000000000000000000000000000000000000000000000000000000000000000000000000000000000000000000000000000000000000000000000000000000000000000000000000000000000000000000000000000000000000000000000000000000000000000000000000000000000000000000000000000000000000000000000000000000000000000000000000000000000000000000000000000000000000000000000000000000000000000000000000000000000000000000000000000000000000000000000000000000000000000000000000000000000000000000000000000000000000000000000000000000000000000000000000000000000000000000000000000000000000000000000000000000000000000000000000000000000000000000000000000000000000000000000000000000000000000000000000000000000000000000000000000000000000000000000000000000000000000000000000000000000000000000000000000000000000000000000000000000000000000000000000000000000000000000000000000000000000000000000000000000000000000000000000000000000000000000000000000000000000000000000000000000000000000000000000000000000000000000000000000000000000000000000000000000000000000000000000000000000000000000000000000000000000000000000000000000000000000000000000000000000000000000000000000000000000000000000000000000000000000000000000000000000000000000000000000000000000000000000000000000000000000000000000000000000000000000000000000000000000000000000000000000000000000000000000000000000000000000000000000000000000000000000000000000000000000000000000000000000000000000000000000000000000000000000000000000000000000000000000000000000000000000000000000000000000000000000000000000000000000000000000000000000000000000000000000000000000000000000000000000000000000000000000000000000000000000000000000000000000000000000000000000000000000000000000000000000000000000000000000000000000000000000000000000000000000000000000000000000000000000000000000000000000000000000000000000000000000000000000000000000000000000000000000000000000000000000000000000000000000000000000000000000000000000000000000000000000000000000000000000000000000000000000000000000000000000000000000000000000000000000000000000000000000000000000000000000000000000000000000000000000000000000000000000000000000000000000000000000000000000000000000000000000000000000000000000000000000000000000000000000000000000000000000
#023320:00000024
#024370:13
#024320:00530000000000000000000000000000
#024350:0023000000000000
#024360:00130000
#0243b0:00000000005300000000000000000000
#024380:0000002300000000
#024320:0013
#024350:0000000000230000
#024381:0000000000130000
#0243b1:00000023
#0243b1:0000000000000013
#024371:00000000000000000000000000000053
#025391:53
#0253b1:00530000000000000000000000000000
#025371:0023000000000000
#025361:0000000000130000
#025351:00000000000000000000003300000000
#025341:00000033
#025331:00000000000000000000000000330000
#025321:0000000000000023
#026361:13
#0263b1:00530000000000000000000000000000
#026381:0023000000000000
#026371:00130000
#026321:00000000005300000000000000000000
#026351:0000002300000000
#0263b1:0013
#026381:0000000000230000
#026350:0000000000130000
#026320:00000023
#026320:0000000000000013
#026360:00000000000000000000000000000053
#027340:53
#027320:00530000000000000000000000000000
#027360:0023000000000000
#029380:00000000000000001424000000000000
#029341:00000000000000000014240000000000
#029380:00000000000000000000142400000000
#030340:00000012
#030320:0000000000000026
#0303a1:00000012
#030381:0000000000000026
#031381:0012000052000000
#0313c1:0000520000322200
#0313a1:0000003200000000
#031320:0012000052000000
#031360:0000520000322200
#031340:0000003200000000
#032350:000000132300000000000000
#032380:000000000000132300000000
#0323b0:00000013
#032390:000000000033
#032370:000000000000000000000023
#032361:00000013
#032341:000000000033
#032321:000000000000000000000023
#0333b1:000000132300000000000000
#033321:000000000000132300000000
#033321:00000013
#033341:000000000033
#033361:000000000000000000000023
#033370:00000013
#033390:000000000033
#0333b0:000000000000000000000023
#034320:00130000
#034350:002300
#0343b0:0013
#034380:000000000000002300000000
#0343b0:00000013
#0343a0:000000000033
#034380:000000000000000000000023
#034321:00000013
#034341:000000000033
#034351:000000000000000000000023
#035351:13230000
#035321:0053000000000000
#035380:00132300
#0353b0:0000005300000000
#0363b0:13
#036370:00000023000000000000000000000000
#038360:0000000000130000
#038340:00000000000000000000003300000000
#038320:00000023
#039370:13332300
#039320:0053005300000000
#039340:00000013
#039360:0000000000000023
#0393b1:0000000000000013
#0403b1:33
#040371:0023000000000000
#040360:13
#040320:0023000000000000
#041360:13332300
#0413b0:0053005300000000
#041390:00000000000000330000000000000000
#041390:00000013
#041370:0000000000000023
#041321:0000000000000013
#042321:33
#042361:0023000000000000
#042370:13
#0423b0:0023000000000000
#042320:0000000000000013
#043360:23
#042371:0000000000000013
#0433b1:23
#043321:00130000
#043371:0023
#044361:0000000000000013
#045321:0023000000000000
#045371:0000001300000000
#0453b1:0023
#046361:0000000000130000
#046341:00000000000000000000003300000000
#046321:00000023
#0473b1:13230000
#047361:0053000000000000
#047370:00132300
#047320:0000005300000000
#047360:0000000000130000
#0473b0:00000023
#047321:00000013
#047371:0000000000000023
#0473b0:0000000000000013
#048370:33
#0483b0:0023000000000000
#048321:13
#048361:0023000000000000
#049321:13230000
#049371:0053000000000000
#049360:00132300
#0493b0:0000005300000000
#049370:0000000000130000
#049320:00000023
#0493b1:00000013
#049361:0000000000000023
#049320:0000000000000013
#050360:33
#050320:0023000000000000
#0503b1:13
#050371:0023000000000000
#051371:13
#051321:00000023000000000000000000000000
#0513b1:0013
#051361:00000023
#053361:00130023
#053341:00000000003300000000330000000000
#053331:00000000000033330033000000000000
#053321:0033
#053351:00000000000000000000003300000000
#0533b0:00130023
#0533a0:00000000003300000000003300000000
#053390:0000003300330000
#053380:00000000000000330033000000000000
#053370:0033
#0543b0:0013
#054360:00000000000000000000002300000000
#054321:00000000000000000000001300002300
#054371:0000000000000000000000000000000000000000000000000053000000000000
#055371:0013230000000000
#0553b0:00130000
#055360:0000002300000000
#055360:0013
#055380:00000000000000000033000000000000
#055390:0000000000330000
#0553a0:00000000000000000000003300000000
#0553b0:00000023
#055371:00000013
#055351:00000000000000000000000000330000
#055341:0000000000000033
#055331:00000000000000000000000000000033
#056321:23
#056321:0013
#056371:00000000000000000000002300000000
#0563b0:00000000000000000000001300002300
#056360:0000000000000000000000000000000000000000000000000053000000000000
#057360:0013230000000000
#057321:00130000
#057371:0000002300000000
#057371:0013
#057351:00000000000000000033000000000000
#057341:0000000000330000
#057331:00000000000000000000003300000000
#057321:00000023
#057360:00000013
#057380:00000000000000000000000000330000
#057390:0000000000000033
#0573a0:00000000000000000000000000000033
#0583b0:23
#058351:1323000000000000
#0583b1:0000132300000000
#058381:0000000013230000
#058321:0000000000001323
#059361:13
#059321:0023000000000000
#059371:00130000
#0593b1:0000002300000000
#0593b1:0013
#059361:0000000000230000
#059321:00000013
#059371:0000000000000023
