This file was generated by Ched 2.6.4.0.
#TITLE ""
#ARTIST ""
#DESIGNER ""
#DIFFICULTY 0
#PLAYLEVEL
#SONGID ""
#WAVE ""
#WAVEOFFSET 0
#JACKET ""
#REQUEST "ticks_per_beat 480"
#00002: 4
#BPM01: 134
#00008: 01
#TIL00: ""
#HISPEED 00
#MEASUREHS 00
#00112:1414
#00118:00140014
#00518:1414
#00512:00140014
#00212:14
#00218:0014
#0061a:1414
#00614:00140014
#0071a:14
#00713:0014
#00719:0014
#0081a:1414
#00814:00140014
#00810:41
#01614:00140014
#0161a:1414
#06014:14
#06018:0000140000160026
#06012:00001616
#05714:0014
#05718:00000014
#0571a:00140000
#05712:14
#05812:14
#05814:0000140000140000
#0581a:0014
#05818:0014000000001400
#05914:1400000000140000
#05912:00140000
#05918:0014000014000000
#0591a:00000014
#0451a:00140000
#04512:00001414
#04514:14
#04518:0000000000140000
#05318:00141400
#05312:0014001400000000
#0531a:00000014
#05314:0000000000140014
#05612:14
#0561a:00140000
#05614:0014
#05618:00000014
#0441a:00000014
#05112:14
#05118:00140000
#05114:00001414
#0511a:0000000000140014
#02218:00141414
#02214:0014001400140014
#02210:41
#0361a:1414
#03616:00140014
#03612:1414
#0421a:0014
#04214:00000014
#04314:00140000
#04318:00001414
#0431a:14
#04312:0000000000140000
#0031a:1414
#00314:00140014
#0041a:14
#00414:0014
#0121a:14
#01214:00140000
#01218:0014
#01212:00000014
#01818:00140014
#01812:1414
#01718:1414
#01712:00140000
#01914:1414
#0191a:00140000
#02416:00140014
#0241a:0014
#02412:14
#02512:14
#02516:00140000
#0251a:0014
#0321a:14
#03214:00000014
#0321f:11
#03219:00340000
#03418:16
#03415:0000000000003616
#03416:00363600
#02812:14
#02814:00343400
#0291a:14
#02918:00343400
#02910:41
#03914:0014000014001400
#0391a:2400140000140000
#0391f:21
#03910:0041
#04118:0014000014001400
#04112:1400140000140000
#04012:0016
#04018:00000016
#04718:0014000000001400
#04714:0000140000140000
#0471a:0014
#04712:24
#04914:0014000000001400
#04918:0000140000140000
#04912:0014
#0491a:14
#04818:0016
#04812:00000016
#05012:0014
#05018:00000014
#05218:0000001400000000
#05219:0034000000340000
#01012:1414
#01018:00140014
#0141a:1414
#01412:00140014
#02318:1434000000340000
#0231a:0000001400000000
#02616:00140014
#02612:0014
#0261a:14
#0271a:14
#02716:00140000
#02712:0014
#03014:00141414
#03018:0014001400140014
#03114:1434000000340000
#03112:0000001400000000
#03312:14
#03318:00000014
#03313:00340000
#03712:16000036
#03715:00000000000036160000000000000000
#03713:0036000000360000
#03714:00363600
#0541a:24
#05410:41
#03818:0026002600000000
#03812:00262600
#03516:00360000
#03515:36
#02018:00343400
#02114:00343400
#01510:41
#0325a:64
#03455:0000000000000026
#03458:66
#0295a:64
#02852:54
#0515a:0000000000000064
#01556:00000000000000140000000000000000
#02358:64
#0235a:0000002400000000
#03154:54
#03152:0000002400000000
#03352:54
#03755:00000000000000260000000000000000
#03752:56
#04658:00000000000000140000000000000000
#04852:0014000000000000
#0505a:0014000000000000
#06058:0000000000000016
#05258:0000005400000000
#0525a:0000000000000014
#009380:14240000
#009320:00001424
#011340:14240000
#0113a0:00001424
#013380:14240000
#013340:00001424
#015360:14003400340034240000000000000000
#0203a0:14
#020380:00343424
#021320:14
#021340:00343424
#023380:1434000000342400
#0233a0:0000003400000000
#028320:14
#028340:00343424
#0293a0:14
#029380:00343424
#031340:1434000000342400
#031320:0000003400000000
#0323a0:14
#032390:00340000
#032370:0024
#033320:14
#033330:00340000
#033350:0024
#034380:16
#034360:00363600
#034350:0000000000003656
#035350:36
#035360:00360000
#035380:0026
#037320:1600000000003626
#037330:0036000000360000
#037340:00363600
#037350:00000000000036560000000000000000
#0393a0:0000000000000014
#0403a0:0024000000000000
#041320:0000000000000014
#042320:0024000000000000
#043320:0000000000000014
#044320:0034002400000000
#046380:14003400340034240000000000000000
#047320:0000000000000014
#048320:0024000000000000
#0493a0:0000000000000014
#0503a0:0024000000000000
#0513a0:0000000000000014
#052390:0034000000340000
#052380:0000003400000000
#0523a0:0000000000000024
#0543a0:14343434
#0553a0:34343424
