This file was generated by Ched 2.6.2.0.
#TITLE ""
#ARTIST ""
#DESIGNER ""
#DIFFICULTY 0
#PLAYLEVEL
#SONGID ""
#WAVE ""
#WAVEOFFSET 0
#JACKET ""
#REQUEST "ticks_per_beat 480"
#00002: 4
#BPM01: 190
#00008: 01
#TIL00: ""
#HISPEED 00
#MEASUREHS 00
#00419:14
#00613:14
#02114:14
#0221a:14
#02412:14
#02518:14
#02612:14
#0281a:14
#0291a:14
#03218:14
#03210:41
#0441a:14
#0441f:11
#04514:14
#04618:14
#04712:14
#04919:14
#04913:0014
#05218:0016
#05212:26
#0521f:21
#05312:16
#05318:0016
#05310:41
#06118:1616
#06212:16
#06218:0016
#07014:14
#07118:14
#07212:14
#0731a:14
#07414:14
#07410:41
#07518:14
#07613:1414
#07819:1414
#08013:14
#08019:0014
#08213:14
#00019:14
#00213:14
#03014:14
#03318:14
#03512:14
#04819:14
#04813:0014
#06318:0016
#06312:16
#07713:14
#07919:14
#08113:14
#08119:0014
#0121a:14
#0201a:14
#02010:41
#03114:14
#03412:14
#0691a:14
#05412:16
#05518:16
#06012:2616
#06812:24
#00810:41
#06610:41
#008380:16
#009380:26
#010320:16
#011320:26
#013340:14
#015340:24
#016380:14
#017380:24
#018320:1400340034003424
#036390:14
#039390:24
#040330:14
#043330:24
#050390:14
#051390:24
#056320:1636
#057320:26
#058380:1636
#059380:26
#064320:16
#065320:26
#066380:16
#067380:26
#083390:14
#084390:34
#088390:0024000000000000
