This file was generated by Ched 2.6.2.0.
#TITLE ""
#ARTIST ""
#DESIGNER ""
#DIFFICULTY 0
#PLAYLEVEL
#SONGID ""
#WAVE ""
#WAVEOFFSET 0
#JACKET ""
#REQUEST "ticks_per_beat 480"
#00002: 4
#BPM01: 190
#00008: 01
#TIL00: ""
#HISPEED 00
#MEASUREHS 00
#00112:0000000000130000
#00118:0000001300001300
#00115:3333330000000013
#0081a:14
#00818:0000000000131300
#00815:00000000000000000000001300000000
#0081b:0013
#00812:0033333300000000
#00810:41
#00912:0000000000130000
#00915:3333330000001300
#00918:0000001300000013
#0091b:0000000000130000
#01118:0013000000000013
#01115:0000130000130000
#01112:2300002300002300
#0111b:2300002300002300
#01312:0000000000140000
#01316:00000014
#01318:0000001300000000
#01315:3333330000000000
#01414:0013000000000000
#01413:00130000
#01412:0000001313001300
#01415:0000000000000013
#0141a:0014343400003400
#01416:0014
#0151b:0000130013001313
#01618:13001313
#0161b:0000130000130000
#01612:0000000000000013
#01818:0000130000130000
#01815:00001313
#01812:0000000000130000
#0181b:13001313
#0191b:0013
#01918:00000013
#02015:00130013
#02018:0013
#0201b:00000013
#02012:23
#02010:41
#02112:13000013
#02118:00130000
#0211b:0013
#02218:13
#02212:00130000
#02217:0000001300000000
#0221b:0000000000130000
#02216:00000013
#02318:0013
#02315:00000013
#02415:00130000
#02418:0013
#0241b:00000013
#02412:23000013
#02518:00130000
#02514:00000013
#02519:00000013
#0261b:1313
#02615:0000001300000000
#02618:0000000000131300
#02612:1300000000130000
#0331b:00000013
#03315:00130000
#03312:00000013
#03418:13000013
#03415:13
#0351b:13
#03518:0000001300130000
#03515:00131300
#03615:13
#03618:0000001300000000
#0361b:13
#03612:0000001300000000
#03915:00000013
#0391b:0000001300001300
#03912:0033330000000000
#04012:13
#0401b:0000001300000000
#04018:13
#04015:0000001300000000
#04315:00130013
#04318:0013
#0431b:13
#0441b:13
#04412:13
#04418:0000001300000000
#04415:0000001300000000
#0441f:11
#0471b:00000013
#04712:00000013
#04812:13130013
#04818:00130000
#0481b:1300001300000000
#04817:00000000000000000013000000000000
#04815:0000001300000000
#04918:0013
#0491b:00000013
#04916:0013000000000000
#04915:00000013
#05015:0013000000130000
#05018:00131300
#05012:2300002300002300
#0501b:2300002300002300
#05218:13
#05212:0000001300001313
#05217:0000000000001313
#0521f:21
#05318:0000001300000013
#0531b:00001313
#05315:0000001333003300
#05312:0000000000130000
#05310:41
#05519:0013000000000000
#0551b:0000001300000000
#05518:0000000000000013
#05512:0000001300000000
#05514:0013000000000000
#05618:1313
#05612:0000001300000000
#0561b:0000000000000013
#05615:1313
#05718:1313
#05712:0000001300001300
#05715:1313
#0581b:0000001300130000
#05816:0013
#05817:0000000000000013
#05818:13
#05917:0013000000000000
#05916:0000001300130000
#05915:0000000000000013
#0591b:0000000000000013
#06112:0000001300000013
#0611b:0000001300000013
#06118:1300000000130000
#06115:0013000013000000
#0621b:0000001300000013
#06216:13
#0621a:0013000000000000
#06215:0000000000000013
#06212:0000001300000000
#06217:0013
#06213:0000000000130000
#06418:13
#0641b:0000001313000000
#06415:0000001313000000
#06412:13
#06615:0013001300001300
#06618:1300130000130013
#0661b:0013
#06612:0013
#06610:41
#0671b:13130000
#0671a:0014
#06719:00000015
#06712:13131415
#06815:0000130000130013
#06818:0013001300001300
#06812:2313
#0681b:2313
#06912:13
#06918:0013001333333333
#06915:00130000
#0691b:13000000000000000000001300000000
#07012:0013
#0701b:0013
#07015:1300001300001300
#07018:0000230000000013
#0771b:0000001300000013
#07715:0013
#07718:1300000000130000
#07712:00130013
#07815:1300001300001300
#0781b:0000001300000000
#07818:0000230013000013
#07812:0000000000000013
#08019:0000001300000000
#08017:0013
#08012:1300003300001300
#08014:0000000000000013
#0801b:0000230000000033
#0821b:0000001300000000
#08219:0013
#08216:0000000000140000
#08214:00000013
#08212:0000000000000013
#08512:0000000000130000
#08515:0000001300001300
#08518:3333330000000013
#0861b:13
#08612:00000000000000000012000000000000000000000000000000000000000000000000000000000000000000000000000000000000000000000000000000000000
#08614:00000000000000000000000000000000000000120000000000000000000000000000000000000000000000000000000000000000000000000000000000000000
#08616:00000000000000000000000000000000000000000000000000000000001200000000000000000000000000000000000000000000000000000000000000000000
#08618:00000000000000000000001200000000
#0881c:0012000000000000
#0871a:12
#0871c:00000000000000000000000000000000000000000000000000120000000000000000000000000000000000000000000000000000000000000000000000000000
#00315:0000001300001300
#00318:3333330000000013
#0031b:0000000000130000
#0041b:1313
#00418:0000000000131300
#00412:00003300330033000000001300000000
#0051b:0000001300130000
#00515:3333330000001300
#00518:0000000000000013
#00712:14
#00714:00140000
#00716:0014
#00718:00000014
#01715:0013001300130013
#01712:00131313
#0271b:13131300
#02715:00000013
#02718:0000000000130013
#02818:00130013
#02815:0013
#02812:23000013
#0281b:23
#0291b:13001313
#02912:1313
#02915:00130000
#03015:13
#0301b:00130000
#03016:0000001300000000
#03012:0000000000130000
#03017:00000013
#03112:13131300
#03118:00000013
#03115:0000000000130013
#03218:00130000
#03215:0013
#03212:23000013
#0321b:23000013
#03210:41
#0371b:00000000000000000000001300000000
#03712:0033330000000000
#03715:0000000000003333
#04112:00000000000000000000001300000000
#0411b:0033330000000000
#04118:0000000000003333
#0451b:00000000000000000000000000000013
#04512:00000000000000000000000000000013
#05116:13
#06018:1300001300130000
#06012:0000001300000013
#06015:0013000013000000
#0601b:0000000000000013
#06512:0013000000000000
#06518:0013000000000000
#07112:13000000000000000000001300000000
#07115:0000001333333333
#07218:1300001300001300
#07215:0000000013000013
#0721b:00230000
#07312:13131313
#07318:1300133333003333
#0731b:0000000000130000
#07412:13230000
#07418:0000000013000013
#07415:0000001300001300
#07410:41
#07515:1300133333003333
#07512:0000000000130000
#0751b:13131313
#0761b:1300000000000013
#07612:0000001300000000
#07615:0000230013000013
#07618:0000001300001300
#07912:0013
#0791b:0000001300000013
#07918:0000000000130000
#07915:13000013
#08116:13
#0811b:0000133333003333
#08112:0000133333003333
#08115:0000000000130000
#08118:0000000000130000
#03815:00130013
#03812:0013
#04218:00130013
#0421b:0013
#05415:0000001300000013
#05412:00001313
#05418:0000001333003300
#0541b:0000000000130000
#0001b:0000000000131300
#00016:00000000000000000000001300000000
#00018:0013
#00012:0033333300000000
#00212:0000000000131300
#00217:00000000000000000000001300000000
#00215:0013
#0021b:0033333300000000
#00612:1313
#00615:0000000000131300
#0061b:00003300330033000000001300000000
#00618:0000000000000013
#01015:0000000000131300
#01018:00000000000000000000001300001300
#01012:1313
#0101b:0033333300000000
#0121b:0000000000131300
#01216:00000000000000000000001300000000
#01218:0013
#0121a:24
#01212:0033333300000000
#08412:0000000000131300
#08417:00000000000000000000001300000000
#08415:0013
#0841b:0033333300000000
#06312:23
#06318:23
#06313:00230000
#06314:0023
#06315:00000023
#06319:00230000
#0631a:0023
#0631b:00000023
#05952:0013000000000000
#0595b:0000000000130000
#0145a:0054000000000000
#01456:0024
#01455:0000000000000053
#01658:53005353
#0165b:0000530000530000
#01652:0000000000000053
#01755:0053005300530053
#01752:00535353
#0185b:53005353
#01858:0000530000530013
#01855:00005353
#01852:0000000000530013
#02256:00000053
#02452:00000053
#03057:00000063
#0325b:00000063
#03455:53
#03458:00000053
#0355b:23
#0375b:00000000000000000000002300000000
#03755:0000001300000000
#03658:0000005300000000
#04055:0000005300000000
#04152:00000000000000000000002300000000
#04158:0000001300000000
#04458:0000005300000000
#04455:0000006300000000
#0455b:00000000000000000000000000000023
#04552:00000000000000000000000000000023
#04852:00000053
#0485b:0000005300000000
#04857:00000000000000000023000000000000
#04956:0023000000000000
#05258:53
#0525b:0000001300000000
#0555b:0000001300000000
#05552:0000001300000000
#05559:0013000000000000
#05658:53
#05655:0053
#05758:53
#05755:0053
#05752:00000023
#06058:0000000000130000
#06055:0013000000000000
#0625a:0013000000000000
#06253:0000000000130000
#06455:0053
#0645b:0053
#06558:0023000000000000
#06552:0023000000000000
#0675b:00130000
#0675a:0014
#06759:00000015
#06752:00131415
#06958:0000005300000000
#0695b:00000000000000000000002300000000
#07155:0000006300000000
#07152:00000000000000000000002300000000
#07358:00530000
#0735b:0000000000230000
#07555:00630000
#07552:0000000000230000
#07855:13
#08052:13
#08252:0000000000000053
#0885c:0012000000000000
#02055:00000053
#02158:00530000
#02152:23
#0215b:0023
#02955:00530000
#0295b:23
#02952:0023
#02858:00000053
#05355:0000005300000000
#05352:0000000000230000
#05458:0000006300000000
#0545b:0000000000230000
#05455:0000000000000013
#06155:0013000000000000
#06158:0000000000130000
#08152:00530000
#0815b:00530000
#08155:0000000000230000
#08158:0000000000230000
#0265b:13
#02652:13
#02658:00000013
#03852:13
#03955:0000001300000000
#0425b:13
#0505b:00000013
#05052:00000013
#000320:1333333300000000
#000350:0023
#000350:0000000000000013
#001350:3333330000000000
#001320:0000002300000000
#0023b0:1333333300000000
#002380:0023
#002380:0000000000000013
#003380:3333330000000000
#0033b0:0000002300000000
#004320:1333333300000000
#004350:0023
#004350:0000000000000013
#005350:3333330000000000
#005320:0000002300000000
#0063b0:1333333300000000
#006380:0023
#008320:1333333300000000
#008350:0023
#008350:0000000000000013
#009350:3333330000000000
#009320:0000002300000000
#0103b0:1333333300000000
#010380:0023
#012320:1333333300000000
#012350:0023
#012350:0000000000000013
#013350:3333330000000000
#013320:0000002300000000
#0133a0:0000000000000014
#0143a0:0034343400003424
#014360:0034
#014351:0000000000000013
#015321:0000000000000023
#016381:13003333
#0163b1:0000330000330023
#016320:0000000000000013
#017350:0033003300330033
#017320:00333333
#018320:23
#0183b1:13003333
#018381:0000330000330023
#018350:00001333
#018320:0000000000330023
#020350:00000013
#021320:53
#021350:00230000
#021381:00130023
#0213b1:0053
#022361:00000013
#023321:0023
#024321:00000013
#025351:00230000
#026321:00000013
#027321:0023
#028381:00000013
#0293b1:53
#029381:00230000
#029350:00130023
#029320:0053
#030370:00000013
#0313b0:0023
#0323b0:00000013
#033380:00230000
#034350:13
#034320:00000023
#034381:00000013
#0353b1:53
#035381:00230000
#036381:0000001300000000
#0373b1:00000000000000000000005300000000
#039381:23
#037320:1333330000000000
#037350:0000002300000000
#037350:0000000000133333
#038320:23
#039320:1333330000000000
#039350:0000002300000000
#040350:0000001300000000
#041320:00000000000000000000005300000000
#043350:23
#0413b1:1333330000000000
#041381:0000002300000000
#041381:0000000000133333
#0423b1:23
#044380:0000001300000000
#0453b0:00000000000000000000000000000053
#047380:0023
#044351:0000001300000000
#045321:00000000000000000000000000000053
#047351:0023
#0483b1:0000001300002300
#048371:00000000000000000053000000000000
#048320:00000013
#049360:0053000000000000
#049320:0023
#0513b0:13
#051390:00230000
#051351:00130000
#051331:0023
#0513a0:0013
#051380:00000023
#051341:00000013
#052321:23
#052380:13
#0523b0:0000002300000000
#053350:0000001333003323
#053320:0000000000530000
#054380:0000001333003323
#0543b0:0000000000530000
#056380:13
#0563b0:0000002300000000
#056350:0013
#056320:0000000000000023
#057380:13
#0573b0:0000002300000000
#057350:0013
#057320:00000053
#058350:23
#058320:0000000000000013
#059320:0023000000000000
#0593b0:0000001300230000
#0643b0:0013
#065380:0053000000000000
#0653b0:00000023
#064351:0013
#065321:0053000000000000
#065351:00000023
#069381:0000001333333333
#0693b1:00000000000000000000005300000000
#070381:23
#0713b1:1300002300000000
#071350:0000001333333333
#071320:00000000000000000000005300000000
#072350:23
#073380:0000133333003333
#0733b0:0000000000330000
#074380:23
#075350:0000133333003333
#075320:0000000000330000
#076350:23
#080360:00130000
#080320:0000003323000000
#080370:00000013
#0803b0:0000000000000033
#0813b0:23
#081320:0000133333003333
#081350:0000000000330000
#082320:23
#0813b1:0000133333003333
#081381:0000000000330000
#0823b1:23
#082321:0000000000000013
#084351:23
#0843b0:1333333300000000
#084380:0023
#084380:0000000000000013
#085380:3333330000000000
#0853b0:0000002300000000
