This file was generated by Ched 2.6.2.0.
#TITLE ""
#ARTIST ""
#DESIGNER ""
#DIFFICULTY 0
#PLAYLEVEL
#SONGID ""
#WAVE ""
#WAVEOFFSET 0
#JACKET ""
#REQUEST "ticks_per_beat 480"
#00002: 4
#BPM01: 190
#00008: 01
#TIL00: ""
#HISPEED 00
#MEASUREHS 00
#0521b:0000001300000000
#05215:0000001300001300
#05212:13
#05218:13
#0521f:21
#07615:1300001300000000
#07612:00000013
#07618:0000000013000013
#0761b:00230000
#04818:00130000
#04812:13
#07715:1300001300000013
#07718:00001313
#0771b:00130000
#07712:0000000000130000
#01215:0000130013000013
#01218:2300001300001300
#01318:13
#01312:0013001300001300
#0131b:0000130000130000
#02218:0000001300130000
#0221b:13
#02215:00130013
#04315:00130013
#04318:1313
#04312:1313
#0431b:00130013
#04918:13
#04915:00130000
#04912:00001323
#0491b:00001323
#05818:0000001300130000
#05815:0000000013000013
#0581b:0000000000000013
#05918:0013000000130000
#05915:0000001300000013
#0591b:0000001300000000
#05912:0013000000130000
#06618:13130000
#06615:0013001300000000
#06619:0013
#06614:0000000000130000
#0661a:00000013
#06613:0000000000000013
#06610:41
#0671b:13
#06719:00141414
#06713:00141414
#01412:00131300
#0141b:0000001300000013
#0161b:00131300
#01612:1300000000130013
#01618:00000013
#01615:0000001300000000
#01715:0013001300000000
#01718:0000000000130013
#0171b:13130000
#01712:00000013
#0181b:00131300
#01812:0000000000130013
#01818:00000013
#01815:1300001300000000
#02018:00130000
#02015:0013
#02012:23
#02010:41
#02615:0000001300001300
#02618:1300000000130000
#02415:00130000
#02418:0013
#0241b:23
#0231b:13
#02315:00130000
#02318:0013
#02312:00000013
#0271b:00130000
#02715:0000001300000000
#0271a:0013
#02714:0000000000130000
#02719:00000013
#02713:0000000000000013
#02815:00130000
#0281b:0013
#02818:23
#03018:1300001300130000
#03015:00130013
#03118:13
#03115:00130000
#0311b:0013
#03112:00000013
#03218:00130000
#03212:0013
#03215:23
#03210:41
#0351b:00130000
#03515:0000001300000000
#03512:0000000000130000
#03518:0013
#05415:0000000000000013
#05418:00001313
#0551b:0000001300000000
#05512:0000001300000000
#05518:0013000000000000
#05515:0000000000000013
#05315:0013
#0531b:00000013
#05310:41
#0601b:13
#06015:0013000000000013
#06018:0000001300130000
#06012:0013
#06118:1300001300000000
#06112:0013000000000000
#06115:0000000013000013
#0611b:0000000000130000
#06218:13
#06215:0013000000000000
#0621b:0000001300130000
#06212:0000000013000013
#06419:13
#0641b:0013
#06414:13
#06412:0013
#07018:0000001300000000
#07012:00231300
#0701b:13000013
#07015:1300000000000013
#0711b:13
#07112:0000133333003333
#07115:0000000000130000
#07215:0000001300000000
#0721b:00231300
#07212:00000013
#07218:0000000000000013
#07312:13
#0731b:0000133333003333
#07318:0000000000130000
#07418:0000001300000000
#07412:00231300
#0741b:00000013
#07415:0000000000000013
#07410:41
#0751b:1300000000000013
#07512:00131300
#07518:0000001300130000
#07515:00000013
#0781b:13000013
#07818:0000001300000000
#07815:0000000013000013
#07812:00230000
#08015:0000001300001300
#08018:0000230000000013
#0801b:0013
#08012:1313
#08115:0000001300000013
#0811b:1313
#08118:00130013
#08112:1300000000130000
#08215:0000001300000000
#0821b:1313
#08212:1300000000130000
#08218:00000013
#03618:16
#03615:0000001600000000
#00812:13
#00818:13
#00810:41
#01015:13
#0101b:13
#02112:00000013
#02118:00000013
#02515:00000013
#0251b:00000013
#04012:16
#04015:0000001600000000
#0471b:1300003300000000
#04715:1300003300000000
#04618:13
#04612:13
#0461b:0000003300003300
#04615:0000003300003300
#0451b:1300003300003300
#04515:1300003300003300
#04418:13
#04412:13
#0441f:11
#0441b:0000003300000000
#04415:0000003300000000
#0501b:1333333333330000
#05012:1333333333330000
#07918:1300001300000013
#07915:00001313
#07912:00130000
#0791b:0000000000130000
#03312:00000013
#03318:00000013
#02915:00000013
#0291b:00000013
#06812:23
#06818:23
#01112:2400002400002400
#0111a:2400002400002400
#0631b:23
#0631a:00230000
#06319:0023
#06318:00000023
#06314:00230000
#06313:0023
#06312:00000023
#0071b:00333300
#00715:00333300
#08519:00340000
#08518:0034000000000000
#08517:0000000000003434
#00758:00000013
#00752:00000013
#0145b:0000000000000063
#06459:53
#0645b:0063
#06454:63
#06452:0053
#06753:00141414
#06759:00141414
#08856:0014000000000000
#03658:66
#03655:0000005600000000
#00852:53
#00858:53
#01055:63
#0105b:63
#04052:56
#04055:0000005600000000
#04658:23
#04652:23
#04458:63
#04452:53
#04555:63
#0455b:63
#04755:63
#0475b:63
#05058:00000013
#0505b:63
#05052:53
#05055:00000013
#07152:00530000
#07155:0000000000230000
#0735b:00630000
#07358:0000000000230000
#01852:0000000000000013
#02658:13
#02655:00000013
#05455:0000000000000013
#05558:0013000000000000
#0555b:0000001300000000
#05552:0000001300000000
#0525b:0000001300000000
#05255:0000001300000000
#0003b0:13
#000380:0033
#0013b0:33000023
#002320:13
#002350:0033
#003320:33000023
#004380:13
#0043b0:0033
#005380:33000023
#006350:13
#006320:0033
#007350:33333300
#007320:00000023
#0073b1:13333300
#007381:00000023
#008321:13
#009351:3300003300002300
#008380:13
#0093b0:3300003300002300
#0103b0:13
#010380:00000023
#010351:13
#010321:00000023
#0133b1:0000000000000013
#0143b1:0023000000000000
#0143b1:0000000000000013
#015381:00000023
#0203b1:00000013
#021381:00230000
#024321:00000013
#025351:00230000
#028321:00000013
#029351:00230000
#0323b1:00000013
#033381:00230000
#034351:13000023
#036381:16
#036351:0000003600000000
#037381:00000036
#038381:36
#039351:00000026
#040321:16
#040351:0000003600000000
#041321:00000036
#042321:36
#042351:00000026
#044381:13
#0443b1:0000003300003300
#0453b1:3300003300003300
#046381:33
#0463b1:0000003300003300
#0473b1:3300003300000000
#047381:00000023
#044320:13
#044350:0000003300003300
#045350:3300003300003300
#046320:33
#046350:0000003300003300
#047350:3300003300000000
#047320:00000023
#048350:0000001300002300
#0493b0:00000013
#0503b0:3333333333330000
#050380:00000023
#049321:00000013
#050321:3333333333330000
#050351:00000023
#052381:0000000000000013
#0533b1:0000002300000000
#053351:0000000000000013
#054321:0000002300000000
#056381:1300002300000000
#056351:0000000013000023
#0573b1:1300002300000000
#057321:0013
#058321:23
#064391:13
#0643b1:0000003333000000
#065381:00000023
#064340:13
#064320:0000003333000000
#065350:00000023
#068320:13
#068350:0000003300000000
#069320:00000023
#068381:13
#0683b1:0000003300000000
#069381:00000023
#071321:0000133333003333
#071351:0000000000330000
#072321:23
#0733b1:0000133333003333
#073381:0000000000330000
#0743b1:23
#082321:0000000000000013
#083351:00000023
#084381:14
#0843a1:0034
#085371:3400000000003434
#085381:0034000000000000
#085391:00340000
#0853a1:0000003400340000
#086371:34
#0863a1:00000034
#088361:0024000000000000
