This file was generated by Ched 2.6.2.0.
#TITLE ""
#ARTIST ""
#DESIGNER ""
#DIFFICULTY 0
#PLAYLEVEL
#SONGID ""
#WAVE ""
#WAVEOFFSET 0
#JACKET ""
#REQUEST "ticks_per_beat 480"
#00002: 4
#BPM01: 190
#00008: 01
#TIL00: ""
#HISPEED 00
#MEASUREHS 00
#0001c:1200000000000012
#00015:00000000120000000000003200000000
#00012:0012000000000000
#00018:0000001200000000
#0001b:0012
#00016:12
#00112:12
#00115:0012000000000000
#00118:00120000
#0011b:0000001200000000
#00113:0000000000120000
#00116:00000012
#00119:0000000000000012
#0081a:14
#0081b:0000130013000013
#00816:0013000000000000
#00817:0000001300000000
#00812:1313
#00815:0000000000131300
#00818:00000000000000000000001300000000
#00810:41
#00912:1300000000130000
#00915:0013000000001300
#00918:0000130000000013
#0091b:0000001300000000
#01115:0013130000000013
#01118:00000013000000000000130000000000
#01112:23000023
#0111b:2300002300002300
#01219:0000001300000000
#01214:0013000000000000
#0121b:0000000013000013
#01215:0000000000131300
#01218:00000000000000000000001300000000
#01212:2413
#01216:00140000
#0121a:24
#01312:1300000000140000
#01315:0013000000000000
#01318:00130000
#0131b:0000001300000000
#01316:00000014
#0131a:0000000000000014
#01417:0013000000000000
#01419:00130000
#0141b:0000001313000013
#01415:00000000000000000000000000130000
#01412:0013333300000000
#01418:00000013
#01512:0000130013001313
#0151a:00000000000000000000000000000013
#01616:1400000014001414
#01612:0000140000140000
#01816:0000140000140000
#01812:14001414
#0181b:0000000013131313
#0191b:0013
#01915:00000000130000130000000013000000
#01918:0013001300130000
#02015:00130000
#02018:0013000013000000
#0201b:23000013
#02016:00000013
#02014:0000000000000013
#02012:2300001313000000
#02010:41
#02215:13
#02212:0000131300000000
#02217:0000001300000000
#0221b:1300000000131300
#02216:00000013
#02317:0013
#02318:00000013
#0231b:1300000000000013
#02319:00130000
#02315:0000000000130000
#02415:0000130000130000
#0241b:2313
#02418:0013001300000000
#02412:23001313
#02417:00000013
#02419:0000000000000013
#0261b:13131313
#02616:0000001300000000
#02617:0013000000130000
#02612:13131300
#03418:1300000000131300
#03412:13
#03415:00130000
#0351b:1300000000130000
#03518:0000001300001300
#03515:1313000013000013
#03512:0000130000130000
#05015:00001300130000000013000000000000
#05018:00000013000000001300130000000000
#05012:2300002300002300
#0501b:2300002300002300
#05218:13
#05215:0000131300000000
#05217:0000000000001313
#05212:0000000000001313
#0521b:0013000000000000
#0521f:21
#05318:0000001300130013
#0531b:00001313
#05312:0000000000130000
#05310:41
#0551b:0013001300000000
#05518:1300000000000013
#05512:0013001300000000
#05515:00000000000000000000000000000013
#05516:00140000
#05618:13000000000000130000000000000000
#05612:1300001300000000
#0561b:0000000000000013
#05615:00000000000000001300000000000013
#05718:13000000000000130000000000000000
#05712:0000001300001300
#05715:0013
#0571b:0000000000001313
#0581b:0000001300130000
#05818:13001313
#05817:0000000000000013
#05815:0013001300130000
#05812:0000130000000013
#05917:0013000013000013
#05912:0000000013000013
#0591b:1300001300000000
#05916:1300001300130000
#06112:0013001300000013
#06117:0000000000000013
#06114:1313
#06119:1313
#06116:0000000000130000
#0611b:0000000000130000
#0621b:0013001300000013
#06216:1414
#06217:0000000000130000
#06212:0000000000130000
#06215:0000000000000013
#0641b:0000001313000000
#06412:13000013
#06416:0013
#06615:0013001300001300
#06618:0000130000130013
#0661b:00001313
#06612:13131300
#06610:41
#0671b:13
#0671a:00140000
#06719:0015
#06718:00000016
#06712:13141516
#06716:0014000000000000
#06818:0000001300000000
#06812:2313000000000000
#06815:0000000000000013
#0681b:2300000013130000
#06912:1300001313130000
#06918:0013001300130013
#06915:0000130000001313
#0691b:13001313
#0761b:0000001300001300
#07618:00231300
#07612:0000230013000013
#07615:1300000000161300
#0771b:1300001300000000
#07716:0013
#07719:0000000000130000
#07714:00000013
#07717:0000000000000013
#07712:00130000
#07715:1316000000000000
#07718:00130000
#07812:1300001300001300
#07815:0000230013160000
#0781b:0000230013000013
#07818:00000013
#08019:0000001300000000
#08017:0013
#08012:0000003300001300
#08014:0000000000000013
#0801b:1300230000000033
#08015:0000000000130000
#0811b:0000131300130013
#08112:0000130000131300
#08116:13
#08118:0013000013000000
#08115:0000001300000013
#08218:13000000000000130000000000000000
#08212:0000001300000013
#08213:0013
#0821a:00000000000000000000001300000000
#08219:00000000000000000013000000000000
#08214:0000000000130000
#08215:00000013
#0821b:00000000000000000000000000130000
#0841c:12
#08415:00120000
#08412:0012000000000012
#08418:00000000000012000000001200000000
#0841b:0012
#08414:0000000000121200
#08514:12
#08516:0012000000000000
#08518:00120000
#0851a:0000001200000000
#08517:0000000000120012
#08513:00000012
#08612:12000000000000000000000000000000000000000000000000000000001200000000000000000000000000000000000000000000000000000000000000000000
#0861a:00000000000000000012000000000000000000000000000000000000000000000000000000000000000000000000000000000000000000000000000000000000
#0861c:12000000000000000000000000000000000000120000000000000000000000000000000000000000000000000000000000000000000000000000000000000000
#08614:00000000000000000000001200000000
#08615:00000000000000000012000000000000000000000000000000000000000000000000000000000000000000000000000000000000000000000000000000000000
#08617:00000000000000000000000000000000000000120000000000000000001200000000000000000000000000000000000000000000000000000000000000000000
#08619:00000000000000000000001200000000
#08817:0012000000000000
#0881c:0012000000000000
#08715:12
#08716:00000000000000000000000000000000000000000000000000120000000000000000000000000000000000000000000000000000000000000000000000000000
#0871a:12
#0871b:00000000000000000000000000000000000000000000000000120000000000000000000000000000000000000000000000000000000000000000000000000000
#00216:1200001200000000
#0021c:1212000000000000
#00219:00000000120000000000003200000000
#00213:0012
#00212:0000000000000012
#00615:0000000000000013
#00618:00000000000000000000000000000013
#00616:1200001200000000
#00619:00000000120000000000003200000000
#0061c:1212000000000000
#00613:0012
#00712:1400000000130000
#00714:00140000
#00716:0014
#00718:00000014
#0071b:0013000000000000
#01012:1300130013000013
#01017:0013000000000000
#01016:0000001300000000
#01018:0000000000131300
#01015:00000000000000000000001300000000
#0101b:1313
#0171a:0014001400140014
#01716:00141414
#01712:0000000000130013
#0271b:13130000
#02719:00001313
#02718:0000000000130000
#0271a:0000001300000013
#02715:0000133333003333
#02712:0000000000130000
#02818:00130000
#02816:0013000000000013
#02814:0000001300000000
#02812:0000000000130000
#0281b:23
#03012:0000130000130000
#03015:1300001300000000
#03016:00000013
#0301b:13
#03018:00130000
#0311b:13131300
#03118:0013001300001300
#03115:0000000000130013
#0321b:2313130000000000
#03218:0000000013131300
#03215:00130000
#03212:23
#03210:41
#0331b:0000000013001313
#03315:1300000000000013
#03312:00130000
#03318:0000000000130000
#0481b:13000013
#04812:0000001300000000
#04818:0013000000130013
#04815:00131300
#06019:1313
#0601b:0013001300000013
#06014:1313
#06017:0000000000130000
#06012:0000000000130000
#06016:0000000000000013
#06517:0013000000000000
#06518:00000000000000000000000000130013
#06515:0000000000000013
#06512:1313130013001300
#07015:1300001300000000
#07018:0000230000000013
#07012:0000000013130000
#07215:0000230013131300
#07212:0000001300000013
#07218:13130013
#0721b:0000001300000013
#07315:0000133333003333
#07312:0000000000130000
#07318:1313000000000000
#05415:0000001300130013
#05412:00001313
#0541b:0000000000130000
#0031c:12
#00319:0012000000000000
#00316:00120000
#00313:0000001200000000
#0031b:0000000000120000
#00315:00000012
#00318:0000000000000012
#00418:1200001200000000
#00415:00000000120000000000003200000000
#00412:1212000000000000
#0041b:0012
#0041c:0000000000000012
#00512:12
#00515:0012000000000000
#00518:00120000
#0051b:0000001200000000
#00513:0000000000120000
#00516:00000012
#00519:0000000000000012
#03612:13131313
#03615:0000000000130000
#03618:00000000000000000000001300001300
#03619:0033003300000000
#02112:1313
#02114:0013001300130000
#02116:00130000
#02118:1300000013000013
#0211b:00130013
#02918:13
#0291b:0000130000000013
#02916:0013000000000000
#02914:0000001300000000
#02912:0000000000130000
#0371b:1300001300000000
#03712:1300000000130000
#03715:0013000000001300
#03718:0000130000000013
#04312:1c
#04317:0012
#04418:0000130000130000
#0441b:0000001300001300
#0441f:11
#04512:1c00001300001300
#04515:0000130000130000
#04612:1c
#0461b:0000131300000000
#04618:0000000000131300
#04712:1c00131300000000
#04715:0000000000131300
#04915:13000000130000000000000000000013
#04918:0000001300000013
#04914:00000000000000000000000000130000
#04919:00000013
#04913:00000000000000000000001300000000
#0491a:0000000000130000
#04912:00001300000000000013000000000000
#0491b:0013
#04012:1313
#04015:00000000130013000000001300000000
#04018:0033003300130013
#0401b:00000013
#0411b:13
#04112:1300000000130000
#04118:0013001300001300
#04115:0000130000000013
#0251b:1313
#02519:0013001300130000
#02517:00130000
#02515:1313
#02512:00130013
#06312:0016000000160000
#06318:0000001600000016
#06314:2222
#0631a:00220022
#0711b:1300001313130000
#07115:0013001300130013
#07118:0000130000001313
#07112:13001313
#07418:1300230013131300
#0741b:0000001300000013
#07415:00130013
#07412:0000001300000013
#07410:41
#07518:0000133333003333
#0751b:0000000000130000
#07515:1313000000000000
#07912:1300001300000000
#07917:0013
#07914:0000000000130000
#07919:00000013
#07916:0000000000000013
#0791b:00130000
#07918:13
#07915:0016130000000000
#08318:16
#08319:00150000
#0831a:0014
#0831b:00000013
#0381b:13131313
#03818:0000000000130000
#03815:00000000000000000000001300001300
#03814:0033003300000000
#03912:1300001300000000
#0391b:1300000000130000
#03918:0013000000001300
#03915:0000130000000013
#0421b:1313
#04218:00000000130013000000001300000000
#04215:0033003300130013
#04212:00000013
#0511b:13
#05118:0013000000000000
#05116:0000001300000000
#05113:00130000
#0511a:0013
#05117:0000000000130000
#05112:00000013
#05115:0000000000000013
#0145b:0000000000000053
#01452:0053000000000000
#01656:6400000064006454
#01652:0000640000640000
#0175a:0054005400540054
#01756:00545454
#01752:0000000000330033
#01852:64006464
#01856:0000640000640014
#0185b:0000000000000013
#02256:00000053
#03056:00000053
#03458:63000053
#0355b:23
#05258:5300001300000000
#0525b:0023000000000000
#0555b:0013001300000000
#05552:0000001300000000
#05658:53
#05655:0053
#05758:53
#05755:0053
#05752:00000023
#0605b:0013000000000000
#06052:0000000000130000
#0625b:0013000000000000
#06252:0000000000130000
#0645b:0053
#06452:53
#06557:0023000000000000
#0675a:00140000
#06759:0015
#06758:00000016
#06752:00141516
#06958:0000005300530053
#0695b:00005353
#07355:00630000
#07352:0000000000230000
#07852:13
#08252:0000000000000053
#08857:0012000000000000
#0885c:0012000000000000
#00752:14
#00754:00140000
#00756:0014
#00758:00000014
#0085a:14
#0095b:0000005300000000
#0135b:0000005300000000
#01552:00131313
#02755:00530000
#02752:0000000000230000
#04352:5c
#04357:0022
#04452:1c
#0445b:0000001300001300
#04455:00000013
#04552:1c00001300001300
#04558:00000013
#04652:1c000013
#0465b:0000001300000000
#04658:00000013
#04752:1c00001300000000
#04755:00000013
#0475b:00000013
#0505b:13000013
#05052:0000001300001300
#05852:0000000000000053
#05956:23
#05952:0033000000000000
#05957:0023
#0595b:0000006300430000
#02056:00000023
#02054:0000000000000053
#02152:2323
#02156:00230000
#02154:0053005300530000
#02457:00000023
#02459:0000000000000063
#0255b:2323
#02559:0063006300630000
#02557:00230000
#07155:0000006300630063
#07152:00006363
#07258:00530000
#0725b:0000002300000000
#07255:00000063
#07252:0000000000000023
#07558:00530000
#0755b:0000000000230000
#07455:00630000
#07452:0000002300000000
#07458:00000053
#0745b:0000000000000023
#0805b:13
#08152:00530053
#08158:0053
#08155:0000002300000023
#0815b:0000000000230000
#06354:2222
#0635a:00220022
#06352:0056000000560000
#06358:0000005600000056
#0375b:0000005300000000
#03952:0000005300000000
#04158:0000005300000000
#0515b:53
#05153:00530000
#0515a:0053
#05152:00000053
#05158:0023000000000000
#05156:0000002300000000
#05157:0000000000230000
#05155:0000000000000023
#0265b:00000013
#02652:13
#03258:00000053
#05455:0000000000000013
#06152:0013000000000000
#0615b:0000000000130000
#000350:00000000000000000000123200000000
#000320:00000022
#002390:00000000000000000000123200000000
#0023c0:00000022
#004350:00000000000000000000123200000000
#004320:00000022
#006390:00000000000000000000123200000000
#0063c0:00000022
#0093b0:0000001300000000
#009380:0000000000230000
#011320:0000001300230000
#0133b0:0000001300000000
#013370:0000000000230000
#013320:0000000000000013
#014320:0033333300000000
#014360:0023
#0143b0:0000000000000013
#015370:0000000000000023
#016360:14003434
#016320:0000340000340024
#016361:0000000000000014
#0173a1:0034003400340034
#017361:00343434
#018361:24
#018320:14003434
#018360:0000340000340024
#020360:00000013
#020340:0000000000000053
#021320:5353
#021340:0053005300530000
#021360:00530023
#022360:00000013
#023320:0023
#024370:00000013
#024390:0000000000000053
#0253b0:5353
#025390:0053005300530000
#025370:00530023
#026350:00000013
#027350:0000333333003333
#027320:0000000000330000
#028350:23
#0283b0:00001323
#028380:0000000000530000
#029380:00001323
#0293b0:0000000000530000
#0303b0:00001323
#030380:0000000000530000
#030361:00000013
#031321:0023
#032321:00001323
#032351:0000000000530000
#032380:00000013
#0333b0:00230000
#033350:00001323
#033320:0000000000530000
#034380:13
#0343b0:0023
#034321:00001323
#034351:0000000000530000
#034380:00000013
#0353b0:53
#035380:00230000
#0363b0:1323
#036390:0033003300000000
#036370:00330000
#0373b0:0000001300000000
#037380:0000000000230000
#038320:1323
#038340:0033003300000000
#038360:00330000
#039320:0000001300000000
#039350:0000000000230000
#040380:1333003323000000
#0403b0:00330000
#041380:0000001300000000
#0413b0:0000000000230000
#042350:1333003323000000
#042320:00330000
#043320:1c
#043370:0052
#044320:2c
#044350:00133323
#044320:0000003300330000
#045380:00133323
#0453b0:0000003300330000
#046320:00133323
#046350:0000003300330000
#0473b0:00133323
#047380:0000003300330000
#048320:1323000000000000
#0483b0:0000001323000000
#048350:0000000000001323
#049380:0013230000000000
#0513b0:13230000
#051380:0053000000000000
#051331:00132300
#051361:0000005300000000
#0513a0:00001323
#051370:0000000000530000
#051321:00000013
#051351:0000000000000053
#052321:23
#052380:1300532300000000
#0523b0:0053000000000000
#053350:0000001323000000
#053350:0000000000001323
#054380:0000001323000000
#054380:0000000000001323
#056380:13
#0563b0:0000002300000000
#056350:0013
#056320:0000000000000023
#057380:13
#0573b0:0000002300000000
#057350:0013
#057320:00000053
#058350:23
#058320:0000000000000013
#059360:53
#059320:0023000000000000
#0593b0:0000001300230000
#059370:0053
#060360:0013002300000000
#061370:0013002300000000
#062360:0013002300000000
#063340:12220000
#063320:0056000000000000
#0633a1:00122200
#063381:0000005600000000
#063340:00001222
#063320:0000000000560000
#0633a1:00000012
#063381:0000000000000056
#0643a1:22
#064320:13
#064360:0000002300000000
#0643b0:0013
#065370:0053000000000000
#0653b0:00000023
#0683b0:1323000000000000
#068350:0000132300000000
#068320:0000000013230000
#068380:0000000000001323
#069380:0000001300330033
#0693b0:00003333
#0703b0:23
#070380:0000132300000000
#0703b0:0000000013230000
#070350:0000000000001323
#071350:0000001300330033
#071320:00003333
#072320:23
#072380:00132300
#0723b0:0000005300000000
#072350:00000013
#072320:0000000000000053
#073350:23
#073350:0000133333003333
#073320:0000000000330000
#074350:23
#073381:0000132300000000
#0733b1:0000000013230000
#073381:0000000000001323
#074350:00132300
#074320:0000005300000000
#074380:00000013
#0743b0:0000000000000053
#075380:23
#075380:0000133333003333
#0753b0:0000000000330000
#076380:23
#075351:0000132300000000
#075321:0000000013230000
#075351:0000000000001323
#080360:00130000
#080320:0000003323000000
#080370:00000013
#0803b0:0000000000000033
#0813b0:23
#081320:00132300
#081350:0000003300000000
#081381:00001323
#0813b1:0000000000330000
#081320:00000013
#081350:0000000000000033
#082320:23
#082320:0000000000000013
#084360:23
