This file was generated by Ched 2.6.2.0.
#TITLE ""
#ARTIST ""
#DESIGNER ""
#DIFFICULTY 0
#PLAYLEVEL
#SONGID ""
#WAVE ""
#WAVEOFFSET 0
#JACKET ""
#REQUEST "ticks_per_beat 480"
#00002: 4
#BPM01: 190
#00008: 01
#TIL00: ""
#HISPEED 00
#MEASUREHS 00
#02012:0014
#02018:14
#02010:41
#02112:0014
#02118:14
#02414:14
#0241a:0014
#02514:14
#0251a:0014
#02818:14
#02812:00140000
#0281a:0014
#04818:1414
#04814:00140014
#05214:00140014
#0521a:2414
#0521f:21
#07318:14
#07312:0014
#0731a:0014
#0761a:00140000
#07614:1414
#07618:00000014
#08018:00140000
#08014:1414
#0801a:00000014
#0771a:00140000
#07714:0014
#07712:14
#07718:00000014
#08112:1414
#0811a:00140000
#08118:00000014
#0121a:1414
#01214:00140014
#05412:1414
#05418:00140014
#05514:14
#0551a:00140000
#0001a:14
#00014:0014
#00418:14
#00414:0014
#00612:14
#0061a:0014
#01318:14
#01312:00140000
#01614:14
#01618:0014
#0181a:14
#01712:14
#02312:0014
#02318:00000014
#0271a:0014
#02714:00000014
#04319:1414
#04313:00140014
#04919:1414
#04913:00140014
#05318:14
#05312:00140000
#05310:41
#05818:1414
#05814:00140014
#05919:1414
#05913:00140000
#06318:14
#06312:00140000
#0631a:0014
#06314:00000014
#0661a:14
#06612:0014
#06618:00000014
#06614:0000000000000014
#06610:41
#06718:14
#06719:00141414
#06713:00141414
#0721a:0014
#07214:14000014
#0011a:14
#00212:14
#00218:0014
#00312:14
#00518:14
#00712:14
#03018:00140014
#03012:1414
#03314:00000014
#03418:14
#07018:14000014
#07012:0014
#07114:14
#07112:0014
#0711a:0014
#08214:14
#08218:0014
#03214:14
#0321a:00140000
#03212:0014
#03210:41
#03112:0014
#03118:00000014
#07512:0014
#0751a:0014
#07514:14
#07418:14000014
#07412:0014
#07410:41
#07812:1414
#0781a:00140000
#07818:00000014
#07914:14
#0791a:00140000
#07912:0014
#07918:00000014
#0441f:11
#06012:24
#06812:24
#05012:00000024
#0501a:00000024
#08516:34
#06418:0000003434000000
#06514:0000003434000000
#05713:00340000
#05619:00340000
#00810:41
#0185a:24
#01752:24
#0145a:0000000000000014
#05959:0014
#0505a:00000014
#05052:00000014
#0083a0:14
#009380:24
#010320:14
#011340:3400003400002400
#013380:0014
#0133a0:0000000000000034
#0143a0:0000000000000024
#017320:14
#017340:0024
#0183a0:14
#018380:0000000000000024
#022380:14
#0223a0:0034
#023380:24
#026340:14
#026320:0034
#027340:24
#028340:00000014
#029340:00240000
#032380:00000014
#033380:00240000
#034320:00000014
#035340:0024
#0363a0:14
#036380:00000024
#037320:14
#037340:00000024
#038380:14
#0383a0:00000024
#039340:14
#039320:00000024
#040320:14
#040340:00000024
#040381:14
#0403a1:00000024
#0413a1:14
#041381:00000024
#041340:14
#041320:00000024
#042320:14
#042340:00000024
#042381:14
#0423a1:00000024
#044381:14
#0443a1:0000003400002400
#045341:14
#045321:0000003400002400
#0463a1:14
#046381:0000003400002400
#047321:14
#047341:0000003400002400
#050321:1434343434342400
#0503a0:1434343434342400
#053380:00001424
#055340:00001424
#0563a0:14
#056390:00340000
#056380:0024
#057320:14
#057330:00340000
#057340:0024
#060320:14340000
#060340:00003424
#0613a0:14340000
#061380:00003424
#062340:14340000
#062320:00003424
#064380:1400003434000000
#0643a0:00000024
#065340:1400003434000000
#065320:00000024
#068320:14
#069340:0024
#083320:14
#084320:34
#085360:34
#088360:0024000000000000
