This file was generated by Ched 2.7.0.0.
#TITLE ""
#ARTIST ""
#DESIGNER ""
#DIFFICULTY 0
#PLAYLEVEL
#SONGID ""
#WAVE ""
#WAVEOFFSET 0
#JACKET ""
#REQUEST "ticks_per_beat 480"
#00002: 4
#BPM01: 140
#00008: 01
#TIL00: ""
#HISPEED 00
#MEASUREHS 00
#01114:14
#01214:14
#01612:14
#0171a:14
#01710:41
#01812:14
#01918:14
#02014:14
#0211a:14
#02212:14
#02414:14
#03318:2616
#03310:41
#03512:1616
#03712:0016
#03718:16
#03912:16
#03918:0016
#00519:14
#00713:14
#00813:14
#0091a:14
#00910:41
#0101a:14
#01318:14
#01512:14
#00619:14
#0261a:0014
#02814:0014
#03018:0014
#0581a:0014
#06012:0014
#06218:0014
#05318:16
#05312:0016
#04918:2616
#0491f:21
#05118:1616
#05518:16
#05512:0016
#01418:14
#02318:14
#03212:0014
#06414:00001414
#05012:1616
#05010:41
#05212:1616
#05418:16
#05412:0016
#05618:16
#05612:0016
#0411f:11
#02510:41
#04010:41
#001390:14
#002390:24
#003330:14
#004330:24
#0253a0:14
#0263a0:24
#027340:14
#028340:24
#029380:14
#030380:24
#031320:14
#032320:24
#034380:1626
#036320:1626
#038380:1626
#040320:1626
#041390:14
#042390:24
#043330:14
#044330:24
#0453a0:1424
#046340:1424
#047380:1424
#048320:1424
#0573a0:14
#0583a0:24
#059320:14
#060320:24
#061380:14
#062380:24
#063340:14
#064340:24
