This file was generated by Ched 2.7.0.0.
#TITLE ""
#ARTIST ""
#DESIGNER ""
#DIFFICULTY 0
#PLAYLEVEL
#SONGID ""
#WAVE ""
#WAVEOFFSET 0
#JACKET ""
#REQUEST "ticks_per_beat 480"
#00002: 4
#BPM01: 140
#00008: 01
#TIL00: ""
#HISPEED 00
#MEASUREHS 00
#0051a:14001414
#00512:00000000000000140000140000000000
#00516:00140000
#00612:14001414
#0061a:00000000000000140000140000000000
#00616:00140000
#0071b:1313230000000000
#00712:0000000013132300
#00716:00130013000000000000000000000000
#00717:00000000000000000013001300000000
#0081b:13
#00815:1313000000000000
#00812:00130000
#00818:0000131300000000
#00819:0000000024242400
#00813:00000000000000000024002400000000
#0011b:13
#00119:0013000000000000
#00212:13
#00214:0013000000000000
#0031b:13
#00318:0013000000000000
#00412:13
#00415:0013000000000000
#0091b:00000000130000001333003300000000
#00912:1300000000130000
#00916:00001313
#00917:0000000000130000
#00910:41
#01012:13
#01015:0013000000000000
#01013:00130000
#01019:00000000001300000000000000000000
#01016:0000001300000000
#01014:0000000013132300
#0101b:00000000000000000013001300000000
#01018:00130000000000000000000000000000
#0111b:00131313
#01118:0000001300130000
#01115:00000000000000130013000000000000
#01112:00000000000000000000001300000000
#0121b:1313000000000000
#01215:00130000000000000000000000000000
#01212:0000131300000000
#01218:00000000001300000000000000000000
#0121a:0000000012122200
#01214:00000000000000000012001200000000
#01712:1313131300000000
#01718:00000013000000000000130000000000
#01713:0013
#01717:0013
#01714:0000000000130000
#01715:00000013
#01719:00000013
#01710:41
#02118:0013000000000000
#02113:00000013000000000000000000000000
#02114:0000001300000000
#0211a:00000000000000130000000000000000
#0211b:0000000000132300
#02112:23000023
#02119:00230000
#02115:0023
#02312:1514131200000000
#0231a:0000000000140000
#0231b:00000013
#0231c:0000000000000012
#02319:0015
#02412:1313000000000000
#02418:00130000000000000000000000000000
#0241b:0000131300000000
#02415:00000000001300000000000000000000
#03112:12
#0311c:0012000000000000
#03114:00120000
#0311a:0000001200000000
#03116:0000000014140000
#03315:0000000013130000
#03318:00000000000000000013001300000000
#03312:00000023
#03310:41
#03418:13001300001300000000000000000000
#03415:00130000130013000000000000000000
#0341b:0000000013132300
#03412:00000000000000000013001300000000
#04814:1212000000000000
#0481a:00120000000000000000000000000000
#04819:0000141400000000
#04813:00000000001400000000000000000000
#04812:0000000016161626
#04818:00000000000000000016001600160000
#06112:13
#06113:0013000000000000
#06119:00000013000000000000000023000000
#0611b:0013
#0611a:0000000000130000
#06114:00000000230000000000001300000000
#06115:00000000000000000013000000000000
#06118:00130000000000000000000000000000
#06212:1313000000000000
#0621b:00130000000000000000000000000000
#06218:0000131300000000
#06215:00000000001300000000000000000000
#06213:0000000013131300
#0621a:00000000000000000013001300000000
#0631c:1212120000000000
#06316:00120012000000000000000000000000
#06312:0000000012121200
#06318:00000000000000000012001200000000
#0641c:1212000000000000
#0641a:00000000001200000000000000000000
#06418:0000000012122200
#06416:00120000000000000000000000000000
#06414:0000121200000000
#06412:00000000000000000012001200000000
#01313:1414000000000000
#01314:00140000000000000000000000000000
#01312:00000014000000001333003300000000
#01317:00001313
#0131b:0000000000130000
#01316:0000000000130000
#01319:1414000000000000
#0131a:00140000000000000000000000000000
#01318:00000014000000000000000000000000
#01614:1212000000000000
#01618:00120000000000000000000000000000
#0161a:0000121200000000
#01616:00000000001200000000000000000000
#01613:0000000014142400
#01619:00000000000000000014001400000000
#0181b:1313131300000000
#01815:00130000001300000000130000000000
#01816:0013
#0181a:0013
#01819:0000000000130000
#01814:00000013
#01818:00000013
#01912:13
#0191b:0013
#01918:1313000000000000
#01919:00130000
#0191a:0000001300000000
#01915:0000000000130000
#01914:00000013
#01913:0000000000000013
#02012:1414000012120000
#02018:00140000000000000012000000000000
#0201a:0000141400000000
#02014:00000000001400000000000000000000
#0201c:0000000000001212
#02016:00000000000000000000000000120000
#0251a:12120000
#0251c:0012000000000000
#02518:0000001200000000
#02514:00001212
#02516:1200000000120000
#02512:0000000000000012
#02510:41
#02714:12120000
#02712:0012000000000000
#02716:0000001200000000
#0271a:00001212
#02718:1200000000120000
#0271c:0000000000000012
#0351a:0012001200000000
#0351c:00120000
#03514:0000000000120012
#03512:00000012
#03518:12
#03914:0012001200000000
#03912:00120000
#0391a:0000000000120012
#0391c:00000012
#03916:12
#04912:13
#04918:13000012
#0491c:0012
#0491a:0000000000120000
#04916:00000000000000000012000000000000
#04914:00000000000000000000001200000000
#0491f:21
#05012:1212000000000000
#05018:00120000000000000000000000000000
#0501a:0000121200000000
#05014:00000000001200000000000000000000
#05016:0000000012121200
#0501c:00000000000000000012001200000000
#05010:41
#0511b:0000130000000013
#05115:0000130000000013
#05112:0000001300001300
#05118:0000001300001300
#05216:0012000000120000
#05218:2400001224000012
#05212:2424
#0521a:00240024
#05214:00240024
#0531b:13
#05315:13
#05312:0012
#05314:0000000000120000
#05316:00000012
#05318:00000000000000000012000000000000
#0531a:00000000000000000000001200000000
#0541c:1212000000000000
#05416:00120000000000000000000000000000
#05414:0000121200000000
#0541a:00000000001200000000000000000000
#05418:0000000012121200
#05412:00000000000000000012001200000000
#05512:0000130000000013
#05518:0000130000000013
#0551b:0000001300001300
#05515:0000001300001300
#05612:0012240000122400
#0561c:0000001200000012
#0561a:2424
#05614:2424
#05618:00240024
#05712:1313
#05715:00130013
#05718:0013000000130000
#0571a:0000002400000000
#0571c:0000000000000022
#05812:1313
#05815:00130013
#05818:0013000000130000
#0581a:0000002400000022
#0591b:1313
#05918:00130013
#05915:0013000000130000
#05912:0000002400000022
#0601b:1313
#06018:00130013
#06015:0013000000130000
#06012:0000002400000000
#06014:0000000000000022
#02918:13
#0361b:0000001300000000
#03612:0000000000000023
#04012:0000001300330000
#0401b:0033000000000023
#04010:41
#04118:0014000000140000
#0411f:11
#04116:0000002400000000
#0411a:0000000000000024
#04219:0013000000000000
#0421a:0000000000130000
#04218:0000002300000000
#0421b:0000000000000023
#0431a:0012000000120000
#04318:0000002200000000
#0431c:0000000000000022
#0441a:0013000000000000
#04419:0000000000130000
#04418:0000002300000000
#0441b:0000000000000023
#04513:0014000000140000
#04514:0000002400000000
#04512:0000000000000024
#04613:0013000000000000
#04614:0000000000130000
#04615:0000002300000000
#04612:0000000000000023
#04714:0012000000000000
#04713:0000000000120000
#04715:0000002200000000
#04712:0000000000000022
#0141b:13
#01418:0013000000000000
#0141a:00130000
#01414:00000000001300000000000000000000
#01417:0000001300000000
#01419:0000000013132300
#01412:00000000000000000013001300000000
#01415:00130000000000000000000000000000
#03718:0000000013130000
#03715:00000000000000000013001300000000
#0371b:00000023
#03815:13001300001300000000000000000000
#03818:00130000130013000000000000000000
#03812:0000000013132300
#0381b:00000000000000000013001300000000
#01512:00131323
#01515:0000001300130000
#01518:00000000000000130013000000000000
#0151b:00000000000000000000001300000000
#02215:0013000000000000
#0221a:00000013000000000000000000000000
#02219:0000001300000000
#02213:00000000000000130000000000000000
#02212:0000000000132300
#0221b:23000023
#02214:00230000
#02218:0023
#0261b:2323
#02615:00230000000023000023000000002300
#02618:00002300002300000000230000230000
#02612:00230023
#03212:00000023
#0321b:00000023
#02812:23002300000000000000000000230000
#02818:00230000000000000000000023002300
#02815:00000000230023000023000000000000
#0281b:00000000002300002300230000000000
#03012:2323000000000000
#03018:00230000000000002300000000000000
#0301b:0000232300000000
#03015:00000000002300002300000000000000
#0015b:53
#00159:0023000000000000
#0035b:53
#00358:0023000000000000
#00452:63
#00455:0023000000000000
#00252:63
#00254:0023000000000000
#02952:00130014
#0295b:0013
#0305a:14
#03058:0053
#03055:0053
#00952:23
#00957:0000000000230000
#0095b:0053
#01354:00240000000000000000000000000000
#01352:00000024000000006300000000000000
#01353:6454000000000000
#01356:0000000000230000
#01359:6454000000000000
#0135a:00240000000000000000000000000000
#01358:00000024000000000000000000000000
#01952:23
#0195b:0023
#0215b:00000013
#02152:00000013
#0255c:0022000000000000
#02558:0000002200000000
#0255a:62520000
#02554:00006252
#02556:0000000000220000
#02552:0000000000000022
#02754:52620000
#02752:0022000000000000
#02756:0000002200000000
#0275a:00005262
#02758:0000000000220000
#0275c:0000000000000022
#03655:00160016
#04952:23
#04958:23000012
#0535b:23
#05355:23
#05356:00000012
#05952:0000001400000000
#0595b:2323
#05958:00230023
#06052:0000001400000000
#0605b:2323
#06058:00230023
#0575a:0000001400000000
#05752:2323
#05755:00230023
#0585a:0000001400000000
#05852:2323
#05855:00230023
#04055:00160016
#00859:00000014
#02252:00000013
#0225b:00000013
#03852:00000013
#0345b:00000013
#0013b0:130000000000000000000000000000000000000000000000330000000000000000000000000000000000000000000000335300000000000000000000000000000000000000000000335300000000000000000000000000000000000000000000
#001390:0033000000000000
#0013a0:000000000000000000000000000000000000000000000000000000000000000000000000000000000000000000000000000000000000000000000000000000000000000000000000000000000000000000000000000000000000000000000000005400000000000000000000000000000000000000000000000000000000000000000000000000000000000000000000005400000000000000000000000000000000000000000000000000000000000000000000000000000000000000000000
#0023b0:33333333
#0033b0:330000000000000000000000000000000000000000000000330000000000000000000000000000000000000000000000335300000000000000000000000000000000000000000000335300000000000000000000000000000000000000000000
#003380:000000000000000000000000000000000000000000000000330000000000000000000000000000000000000000000000000000000000000000000000000000000000000000000000000000000000000000000000000000000000000000000000005600000000000000000000000000000000000000000000000000000000000000000000000000000000000000000000005600000000000000000000000000000000000000000000000000000000000000000000000000000000000000000000
#0043b0:33333323
#002321:130000000000000000000000000000000000000000000000000000000000000000000000000000000000000000000000330000000000000000000000000000000000000000000000000000000000000000000000000000000000000000000000335453000000000000000000000000000000000000000000000000000000000000000000000000000000000000000000335453000000000000000000000000000000000000000000000000000000000000000000000000000000000000000000
#002341:0033000000000000
#003321:33333333
#004321:330000000000000000000000000000000000000000000000000000000000000000000000000000000000000000000000330000000000000000000000000000000000000000000000000000000000000000000000000000000000000000000000335653000000000000000000000000000000000000000000000000000000000000000000000000000000000000000000335653000000000000000000000000000000000000000000000000000000000000000000000000000000000000000000
#004351:0033000000000000
#005321:23
#009321:13
#009351:00230000
#0093b1:00000000000000001333003323000000
#009371:0000000000330000
#011321:13
#011351:00230000
#013331:1434240000000000
#013341:00340000000000000000000000000000
#013321:00000034000000000000000000000000
#013390:1434240000000000
#0133a0:00340000000000000000000000000000
#013380:00000034000000000000000000000000
#013320:00000000000000001333003323000000
#013360:0000000000330000
#0153b0:13
#015380:00230000
#019320:13
#019350:0023
#0193b1:0013
#020381:23
#023381:13
#0233b1:0023000000000000
#023351:0013
#023321:0000000000230000
#0243a1:00000000000000001353535353532300
#024391:0000000000000000000000000000000000550055005500550055005500000000
#024330:00000000000000001353535353532300
#024320:0000000000000000000000000000000000550055005500550055005500000000
#0253a0:12322200
#0253c0:0032000000000000
#025380:0000003200000000
#025341:00001232
#025361:0000000000320000
#025321:0000000000000032
#026341:22
#027341:12322200
#027321:0032000000000000
#027361:0000003200000000
#0273a0:00001232
#027380:0000000000320000
#0273c0:0000000000000032
#0283a0:22
#029350:13
#029320:00230000
#029381:00130000
#0293b1:0023
#029340:0014
#029320:00000024
#029381:00000014
#0303a1:24
#030351:0013
#030321:00000023
#030380:0013
#0303b0:00000023
#031360:000000000000000000000000000000000000000000000000000000000000000000000000000000000000000000000000000000000000000000000000000000000000000000000000000000000000000000000000000000000000000000000000000000000000000000000000000000000000000000000000000000000000000000000000000000000000000000000000000000000000000000000000000000000000000000000000000000000000000000000000140000000000000000000000000000000000000000000000000000000000000000000000000000000000000000000000000000000000000000000054
#032340:380000000000000000000000000000000000000000000000000000000000000000000000000000000000000000000000000000000000000000000000000000000000000000000000000000000000000000000000000000000000000000000000000000000000000000000000000000000000000000000058000000000000000000000000000000000000000000000000000000000000000000000000000000000000000000000000000000000000000000000000000000000000000000000000000000000000000000000000000000000000000000000000000000000000000000000000000000000000000000000000
#032320:000000003c2c0000
#033320:1c
#033360:00240000
#035320:12
#035360:0022
#0353c1:0012
#036381:22
#036320:13
#036350:00260000
#0363b0:0013
#036350:00000026
#037360:14
#037320:002c0000
#039380:12
#0393c0:0022
#039361:0012
#040321:22
#0403b0:1333000000000000
#040350:00260000
#040320:0000000013330000
#040350:00000026
#041320:130000000000000000000000000000000000000000000000000000000000000000000000000000000000000000000000000000000000000000000000000000000000000000000000000000000000000000000000000000000000000000000000000000000000000000000000000000000000000000000000000000000000000000000000000000000000000000000000000000000000000000000000000000000000000000000000000000000000000000000000000000000000000000000053
#042320:340000000000000000000000000000000000000000000000000000000000000000000000000000000000000000000000000000000000000000000000000000000000000000000000000000000000000000000000000000000000000000000000000000000000000000000000000000000000000000000000000000000000000000000000000000000000000000000000000000000000000000000000000000000000000000000000000000000000000000000000000000000000000000000054
#043320:350000000000000000000000000000000000000000000000000000000000000000000000000000000000000000000000000000000000000000000000000000000000000000000000000000000000000000000000000000000000000000000000000000000000000000000000000000000000000000000000000000000000000000000000000000000000000000000000000000000000000000000000000000000000000000000000000000000000000000000000000000000000000000000055
#044320:36
#045320:26
#0453a1:140000000000000000000000000000000000000000000000000000000000000000000000000000000000000000000000000000000000000000000000000000000000000000000000000000000000000000000000000000000000000000000000000000000000000000000000000000000000000000000000000000000000000000000000000000000000000000000000000000000000000000000000000000000000000000000000000000000000000000000000000000000000000000000054
#046391:350000000000000000000000000000000000000000000000000000000000000000000000000000000000000000000000000000000000000000000000000000000000000000000000000000000000000000000000000000000000000000000000000000000000000000000000000000000000000000000000000000000000000000000000000000000000000000000000000000000000000000000000000000000000000000000000000000000000000000000000000000000000000000000055
#047381:36
#048381:26
#049321:13
#049351:00230000
#049380:13
#0493b0:00230000
#0513b0:13
#051380:0023000000000000
#051351:13
#051321:0023000000000000
#051321:0013
#051351:0000000000230000
#051380:0013
#0513b0:0000000000230000
#0533b0:13
#053380:00230000
#053351:13
#053321:00230000
#055321:13
#055351:0023000000000000
#055380:13
#0553b0:0023000000000000
#0553b0:0013
#055380:0000000000230000
#055351:0013
#055321:0000000000230000
#057321:1333
#057351:00330033
#058321:3333
#058351:00330033
#059321:23
#0593b0:1333
#059380:00330033
#0603b0:3333
#060380:00330033
#0613b0:23
