This file was generated by Ched 2.7.0.0.
#TITLE ""
#ARTIST ""
#DESIGNER ""
#DIFFICULTY 0
#PLAYLEVEL
#SONGID ""
#WAVE ""
#WAVEOFFSET 0
#JACKET ""
#REQUEST "ticks_per_beat 480"
#00002: 4
#BPM01: 140
#00008: 01
#TIL00: ""
#HISPEED 00
#MEASUREHS 00
#0051a:1400000000140000
#00512:00001414
#00516:00140000
#00612:1400000000140000
#0061a:00001414
#00616:00140000
#0071a:14000024
#00712:00241400
#00716:0014000000140000
#00915:0000000013131300
#00918:00000000000000000013001300000000
#0091b:13
#00910:41
#01012:13000023
#01018:00131300
#0101b:0000001300000000
#01015:0013000000130000
#01712:1313000000000000
#01718:0000131300000000
#01715:00001313
#0171b:0000000000130000
#01710:41
#02315:0000001300000000
#02318:0000000000000013
#02412:13
#02415:0013000000000000
#02418:00130000
#0241b:0000001300000000
#03312:0000000014142400
#03318:00000000000000000014001400000000
#03310:41
#0181b:1313000000000000
#01815:0000131300000000
#01818:00001313
#01812:0000000000130000
#01918:0000001300000000
#01915:0000000000000013
#0351a:1400140014141400
#03515:00000000000000000013001300000000
#03512:14140000
#03516:0014001400000000
#00812:14000024
#00816:0000140000240000
#0081a:0024
#0121b:13000023
#01215:00131300
#01212:0000001300000000
#01218:0013000000130000
#01314:13
#01312:0013000013131300
#01319:13
#0131b:0013000000000000
#01318:00000000000000000013001300000000
#02018:13141515
#02015:0013000000000000
#02014:0000001400000000
#02013:0000000000150015
#02115:0013000000000000
#02113:0000001300000000
#0211b:23000023
#02119:00230000
#03112:14140014
#03116:0014000014000014
#0311a:0000001400140000
#0341b:13
#03415:0013000000000000
#03418:00130000
#03412:0000001300000000
#0341a:0000000014142400
#03416:00000000000000000014001400000000
#04512:1414
#04516:00140000
#0481b:13
#04816:0013000000000000
#04819:00130000
#04814:0000001300000000
#04818:0000000013131323
#04812:00000000000000000013001300130000
#0611b:1313230000000000
#06112:0000000013132300
#06115:00130013000000000000000000000000
#06118:00000000000000000013001300000000
#0621b:1313000000000000
#06212:0000131300000000
#06218:0000000013131300
#06215:00000000000000000013001300000000
#06314:1212120000000000
#06318:00120012000000000000000000000000
#0631a:0000000012121200
#06316:00000000000000000012001200000000
#06414:1212000000000000
#0641a:0000121200000000
#06416:0000000012122200
#06418:00000000000000000012001200000000
#04115:00130000
#04112:1313
#0411f:11
#0421b:00130000
#04218:1313
#01118:0000001313131300
#01115:00000000000000000013001300000000
#01112:13
#0141b:13
#01415:0013000000000000
#0141a:00130000
#01414:0000001300000000
#01419:0013
#01413:0000000000130000
#01418:00000023
#01519:13
#0151b:0013001313132300
#01514:13
#01512:0013000000000000
#01515:00000000000000000013001300000000
#01612:13
#01618:0013000000000000
#01613:00130000
#01619:0000001300000000
#01614:0013
#0161a:0000000000130000
#01615:00000023
#02218:0013000000000000
#0221a:0000001300000000
#02212:23000023
#02214:00230000
#03618:13
#03615:0013
#03912:1400140014141400
#03918:00000000000000000013001300000000
#0391a:14140000
#03916:0014001400000000
#04312:00130000
#04315:1313
#04418:00130000
#0441b:1313
#0461a:1414
#04616:00140000
#04718:1313
#0471b:00130000
#04712:1313
#04715:00130000
#04912:13
#04918:1300000000130000
#0491b:00001313
#04915:00000000000000000013001300000000
#0491f:21
#05012:1313000013131300
#05018:00130000000000000013001300000000
#0501b:0000131300000000
#05015:00000000001300000000000000000000
#05010:41
#0531b:13
#05315:1300000000130000
#05312:00001313
#05318:00000000000000000013001300000000
#0541b:1313000013131300
#05415:00130000000000000013001300000000
#05412:0000131300000000
#05418:00000000001300000000000000000000
#0511b:13
#05115:13
#05112:0013
#05118:0013
#05512:13
#05518:13
#0551b:0013
#05515:0013
#0371a:0000000014142400
#03714:00000000000000000014001400000000
#03812:1300000014142400
#03818:0013000000000000
#03815:00130000
#0381b:0000001300000000
#03816:00000000000000000014001400000000
#0261b:23
#02615:00002300000000000023002300000000
#02618:0000230023232300
#02612:0000002300000000
#03212:00000024
#0321a:00000024
#02812:23
#02818:00002300000000000023002300000000
#02815:0000230023232300
#0281b:0000002300000000
#03012:0000002324000000
#0301a:0024
#0301b:23
#03015:0023000000000000
#03018:00230000
#05212:23
#0521b:23
#05214:0023
#05219:0023
#05612:0023
#0561b:0023
#05614:23
#05619:23
#02510:41
#04010:41
#0295a:00140000
#02952:00000014
#03652:00000014
#0365a:00140000
#03658:53
#03655:0053
#01352:0023000000000000
#0135b:0023000000000000
#01354:53
#01359:63
#04552:5454
#04556:00540000
#04155:00530000
#04152:5353
#0425b:00530000
#04258:5353
#0095b:53
#01152:63
#01559:63
#0155b:0023000000000000
#01554:53
#01552:0023000000000000
#04352:00630000
#04355:6363
#04458:00630000
#0445b:6363
#0465a:6464
#04656:00640000
#04758:5353
#0475b:00530000
#04752:5353
#04755:00530000
#04958:53
#04952:53
#0495b:00000013
#0535b:63
#05355:63
#05352:00000013
#0515b:53
#05155:53
#05152:0023
#05158:0023
#05552:63
#05558:63
#0555b:0023
#05555:0023
#0215b:00000043
#02252:00000033
#00852:00000014
#0013b0:13330023
#001380:0033000033000000
#002320:13330023
#002350:0033000033000000
#003380:13330023
#0033b0:0033000033000000
#004350:13330023
#004320:0033000033000000
#0093b0:13
#009380:00230000
#011320:13
#011350:00230000
#013340:13230000
#013320:0033000000000000
#013391:13230000
#0133b1:0033000000000000
#015391:13230000
#0153b1:0033000000000000
#015340:13230000
#015320:0033000000000000
#019350:13
#019320:00230000
#019380:0013
#0193b0:00000023
#021370:0013
#021380:00000000000000000033000000000000
#021390:0000000000330000
#0213a0:00000000000000000000003300000000
#0213b0:00000023
#022360:0013
#022350:00000000000000000033000000000000
#022340:0000000000330000
#022330:00000000000000000000003300000000
#022320:00000023
#023380:13
#0233b0:00230000
#023350:0013
#023320:00000023
#024340:00000000000000001454545454542400
#024320:0000000000000000000000000000000000580058005800580058005800000000
#025380:13
#0253b0:00230000
#025320:0013
#025350:00000023
#025381:0013
#0253b1:00000023
#027351:13
#027321:00230000
#0273b1:0013
#027381:00000023
#027350:0013
#027320:00000023
#029380:14
#0293a0:00240000
#029340:0014
#029320:00000024
#030320:00001424
#0303a1:00001424
#0323a1:1424
#032320:1424
#0333a0:14
#033360:00240000
#036380:13
#0363a0:00240000
#036350:0013
#036320:00000024
#037320:14
#037360:00240000
#040320:13
#040340:0023000000000000
#040370:00130000
#040390:0000002300000000
#040340:0013
#040360:0000000000230000
#040390:00000013
#0403b0:0000000000000023
#041320:1333
#041350:00330023
#042380:1333
#0423b0:00330023
#043350:1333
#043320:00330023
#0443b0:1333
#044380:00330023
#045320:1434
#045360:00340024
#0463a0:1434
#046360:00340024
#047380:1333
#0473b0:00330023
#047321:1333
#047351:00330023
#049321:13
#049351:00230000
#049380:13
#0493b0:00230000
#0513b0:13
#051380:00230000
#051351:13
#051321:00230000
#051321:0013
#051351:00000023
#051380:0013
#0513b0:00000023
#052320:13
#052340:00230000
#0523b1:13
#052391:00230000
#052341:0013
#052321:00000023
#052390:0013
#0523b0:00000023
#0533b0:13
#053380:00230000
#053351:13
#053321:00230000
#055321:13
#055351:00230000
#055380:13
#0553b0:00230000
#0553b0:0013
#055380:00000023
#055351:0013
#055321:00000023
#056341:13
#056321:00230000
#056390:13
#0563b0:00230000
#056320:0013
#056340:00000023
#0563b1:0013
#056391:00000023
#0573b1:1333
#057371:00330023
#058321:1333
#058361:00330023
#059391:1333
#0593b1:00330023
#060341:1333
#060321:00330023
