This file was generated by Ched 2.7.0.0.
#TITLE ""
#ARTIST ""
#DESIGNER ""
#DIFFICULTY 0
#PLAYLEVEL
#SONGID ""
#WAVE ""
#WAVEOFFSET 0
#JACKET ""
#REQUEST "ticks_per_beat 480"
#00002: 4
#BPM01: 140
#00008: 01
#TIL00: ""
#HISPEED 00
#MEASUREHS 00
#0051c:12000012
#00516:00000000000000120000000000000000
#00518:0012
#00512:0000000000120000
#0051a:00120000
#0071c:1212220000000000
#00716:00120012000000000000000000000000
#00712:0000000012122200
#00718:00000000000000000012001200000000
#0081b:13
#00815:00130000000000002626262626000000
#00819:0013000000000000
#00813:00000013000000000000000000000000
#0081a:00130000
#00818:0000001300000000
#00814:00000000001300000000000000000000
#00812:00000000000000130000000000000000
#0011c:12
#0011a:0012000000000000
#00212:12
#00214:0012000000000000
#0031c:12
#00318:0012000000000000
#00412:12
#00416:0012000000000000
#00918:0000130013130000
#00912:14000023
#00914:0014000000000000
#00915:00000000000000000013001300000000
#0091b:00000013000000000000000023000000
#00910:41
#01012:13001313
#01018:00130000000013130000001300000000
#01015:00001313001300000000130000000000
#0101b:00000000130000000013000013000000
#0111a:00000013000000000000000000000000
#0111b:00131313
#01116:00000000001300000000000000000000
#01119:0000001300000000
#01114:00000000000000130000000000000000
#01112:13000000000000000013000013000000
#01118:0000000000130000
#01115:00000000000000000000001300000000
#0121b:1312
#01218:00130000000000000012000000000000
#01215:0013000000120000
#01212:00000013000000000000001200000000
#0121c:00120000
#01219:00000000001200000000000000000000
#01216:0000001200000000
#01213:00000000000000120000000000000000
#0121a:00000024
#01316:00000000000000000018001800000000
#0131b:0000000013131300
#01616:12000012000000000000000000000000
#01618:00120012000000001200000000000000
#0161a:00000000001200000000120000000000
#01614:00000000001200000000000000000000
#01615:00000000000000000012000000000000
#01613:00000000000000000000001200000000
#0161c:00000022
#01712:15
#01716:00001500000000150000000000000000
#01714:00000015000000000000000000000000
#01717:00150000
#01715:00000000001500000000000000000000
#01718:0000001500001400
#01719:0015
#0171a:0000000000140000
#01710:41
#01912:1614121414000000
#0191c:00000012
#0191a:1400000000140014
#01916:00140014
#02112:0013000000000000
#02115:00000013000000000000000000000000
#02113:0000001300000000
#02116:00140000001400130014000000000000
#02114:0000000000130000
#02117:00000000000000000000001300000000
#0211a:24000023
#02118:00230000
#02119:0023
#0221b:0013000000000000
#02218:00000013000000000000000000000000
#0221a:1400001300000000
#02217:00000000000000130000000000000000
#02219:0000000000130000
#02216:00140000001400000014001300000000
#02213:00000023
#02214:0023
#02215:00230000
#02212:24
#02312:00001400000000000000000000140000
#02318:00000014000000000000000014000000
#02314:00000000140000000000001400000000
#0231a:00000000001400000000140000000000
#02316:0000001400000014
#02412:1313000000000000
#02418:00130013000000000000000000000000
#02415:0000131300000000
#0241b:00000000001300130000000000000000
#02515:13130000
#02512:0013001300121600
#02518:1600161213001300
#0251b:0000000000130013
#0251c:0012000000000000
#02516:0000000000000012
#02510:41
#03112:1200000012120000
#03118:0012000000000000
#03114:00000012000000000000000000000000
#0311c:0000120000120000
#03116:0000001200000000
#0311a:00000000000000120000000000000000
#0311b:00000013
#03312:00001323
#0331b:00000000000000000013000023000000
#03315:0000000000130000
#03318:00000000000000000000001300000000
#03310:41
#03412:13130000
#03415:00161600001616001616161626000000
#0341b:00000013000000130000000000000000
#03512:1616000000000013
#03516:00160016000000001200120012000000
#03514:0000141400000000
#03519:00000000001400140000000000000000
#0351c:00000000000000000012001200000000
#0351b:0000000000000013
#03918:1616141412121212
#03914:00160016000000000000000000000000
#03913:00000000001400140000000000000000
#03912:00000000000000000012001200120000
#04118:0013000000130000
#0411f:11
#0411b:0000002300000023
#04217:0013000000130000
#04219:13
#0421a:0000002300000023
#04318:0013000000130000
#04319:13
#0431b:0000002300000023
#04418:0012000000000000
#0441c:0000000000120000
#0441a:1200002200000022
#0481a:00120012000000000000000000000000
#04814:1212000000000000
#04813:0000141400000000
#04819:00000000001400140000000000000000
#04812:0000000000000000160016001c1c2c00
#04818:00000000000000000016001600000000
#0491b:1300000000130000
#04918:0013000013000000
#04912:00001300000000000000001300000000
#04915:13000000000000000013000016000000
#0491f:21
#05112:1400000012120000
#0511a:00140014000000000000000000000000
#05116:0014121200000000
#0511c:00000000001200000000000000000000
#05118:00000000000000160012001600000000
#05212:00140014001200160000001600140000
#05218:0000221200002414
#05216:00001400000000000012000000000000
#0521c:0000000022120000
#0521a:24
#05714:0014000000000000
#05715:0000000000130000
#05712:0000002400000023
#05814:0000000000120000
#05816:0012000000000000
#05812:0000002200000022
#05918:0014000000130000
#0591b:0000000000000023
#0591a:0000002400000000
#06018:0012000000000000
#0601a:0000000000120000
#0601c:0000002200000022
#0611b:1313230000000000
#06115:00190019000000000000000000000000
#06112:00000000000000001319131923000000
#0621b:13
#06212:00130000001300000000000000000000
#06218:0013001313000000
#06215:00000013000000130000000000000000
#0621a:00130013
#06214:00000000000000000013000000000000
#06219:0000000000130000
#06213:00000000000000000000001300000000
#06312:12
#06314:00001200000000000000001200000000
#06316:00000000120000000012000000000000
#06318:00120000000000000000000012000000
#0631a:00000012000000000000120000000000
#0631c:0012
#06412:12
#06413:0012000000000000
#06414:00120000
#06415:0000001200000000
#06416:0000000012122200
#06418:00120000000000000000000000000000
#06419:00000012000000000000000000000000
#0641a:00000000001200000000000000000000
#0641b:00000000000000120000000000000000
#0641c:00000000000000000012001200000000
#00612:12000012
#00618:00000000000000120000000000000000
#00616:0012
#0061c:0000000000120000
#00614:00120000
#01513:00000013000000000000000000000000
#01512:00131323
#01517:00000000001300000000000000000000
#01514:0000001300000000
#01519:00000000000000130000000000000000
#0151b:13000000000000000013000023000000
#01515:0000000000130000
#01518:00000000000000000000001300000000
#01814:00150014
#01816:00150000001500000000000000000000
#01813:0000001500000000
#01815:00000000000000150000000000000000
#01812:0000000015140000
#01819:15
#01818:0015000000000000
#02715:13130000
#02712:0013001300001600
#02718:16161313
#0271a:0012001200000000
#0271b:0000000000130013
#02714:0000000000120012
#03218:1616
#03214:00000022
#0321a:00000022
#04014:0000001800000028
#04018:00000000000000000036363600000000
#04010:41
#05015:13160000001600000000130000000000
#05012:00001313000000001300000013000000
#05018:00000000130000000000001300000000
#0501b:00000000000013130013000013000000
#05010:41
#0141b:13001323
#01415:00160000001613130000001300000000
#01418:00001313000000000000130000000000
#01412:00000000130000000013000023000000
#05418:1300000000130000
#05415:00160000131600000000001300000000
#0541b:00001313000000001300000013000000
#05412:00000000000013130013000013000000
#03615:0000001600000026
#03612:00000000000000000036363600000000
#05312:1300000000130000
#05315:0013000013001600
#0531b:00001300000000000000001300000000
#05318:13000000000000000013000000000000
#0371b:00001323
#03712:00000000000000000013000023000000
#03718:0000000000130000
#03715:00000000000000000000001300000000
#0381b:13130000
#03815:00161600001616001616161626000000
#03812:00000013000000130000000000000000
#0551a:14
#05514:00140000000000000000000000000000
#05516:00001414000000180012001800000000
#05518:0000121200000000
#05512:00000000001200000000000000000000
#0551c:0000000012120000
#0561a:00000000000000000000000000140000
#05614:0000000000002414
#05618:00140000000000000012000000000000
#05616:00001414220012000000000000000000
#0561c:00000000001200000000000000000000
#05612:24000000000000182200121800000000
#04515:0013000000130000
#04512:0000002300000023
#04616:0013000000130000
#04614:13
#04613:0000002300000023
#04715:0013000000130000
#04714:13
#04712:0000002300000023
#02612:23232323
#0261b:00230000002300000000002300002300
#02615:00002300000023000023000000000000
#02618:00000023000000230000230000000000
#02812:242400000000262c
#02816:00240024000000002400240000000000
#02814:0000242400000000
#02818:00000000002400240000000000000000
#0281a:00000000000000000024002400000000
#02815:00000000000000000000000000290000
#03012:2424000026000000
#03018:00240024000000002600000000000000
#03014:0000242400000000
#0301a:00000000002400240000000000000000
#0015c:52
#0015a:0022000000000000
#0035c:52
#00358:0022000000000000
#00452:62
#00456:0022000000000000
#00252:62
#00254:0022000000000000
#00952:64
#00954:0024000000000000
#0075c:00120000
#00752:00000012
#00855:00000016
#01654:00000000002200000000000000000000
#0165a:00000000002200000000000000000000
#01656:00000052000000000000000000000000
#01658:00000062000000000000000000000000
#01952:0064
#01956:00240024
#0195a:54
#02555:53530000
#02558:00006363
#02552:0023002300000000
#0255b:0000000000230023
#02952:0013001300140014
#0295b:00131300
#0295a:00000014
#0305a:14
#0495b:23
#04958:0063000000000000
#04952:0063000000000000
#04955:00000016
#01152:53
#0155b:63
#02755:53530000
#02752:0023002300000000
#02758:00006363
#0275b:0000000000230023
#02852:000000000000363c
#02855:00000000000000000000000000490000
#05352:23
#05355:0053000000001600
#0535b:0053000000000000
#03455:00000016
#03652:00160000
#03658:00000016
#03855:00000016
#04058:00160000
#04052:00000016
#0215a:00000043
#02253:00000033
#05752:0000001400000000
#05852:0000001200000000
#0595a:0000001400000000
#0605c:0000001200000000
#06456:00000012
#0013c0:120000000000000000000000000000000000000000000000320000000000000000000000000000000000000000000000325200000000000000000000000000000000000000000000325200000000000000000000000000000000000000000000
#0013a0:000000000000000000000000000000000000000000000000320000000000000000000000000000000000000000000000000000000000000000000000000000000000000000000000000000000000000000000000000000000000000000000000005400000000000000000000000000000000000000000000000000000000000000000000000000000000000000000000005400000000000000000000000000000000000000000000000000000000000000000000000000000000000000000000
#0023c0:32323232
#0033c0:320000000000000000000000000000000000000000000000320000000000000000000000000000000000000000000000325200000000000000000000000000000000000000000000325200000000000000000000000000000000000000000000
#003380:000000000000000000000000000000000000000000000000320000000000000000000000000000000000000000000000000000000000000000000000000000000000000000000000000000000000000000000000000000000000000000000000005600000000000000000000000000000000000000000000000000000000000000000000000000000000000000000000005600000000000000000000000000000000000000000000000000000000000000000000000000000000000000000000
#0043c0:32323222
#002321:120000000000000000000000000000000000000000000000000000000000000000000000000000000000000000000000320000000000000000000000000000000000000000000000000000000000000000000000000000000000000000000000325452000000000000000000000000000000000000000000000000000000000000000000000000000000000000000000325452000000000000000000000000000000000000000000000000000000000000000000000000000000000000000000
#002341:0032000000000000
#003321:32323232
#004321:320000000000000000000000000000000000000000000000000000000000000000000000000000000000000000000000320000000000000000000000000000000000000000000000000000000000000000000000000000000000000000000000325652000000000000000000000000000000000000000000000000000000000000000000000000000000000000000000325652000000000000000000000000000000000000000000000000000000000000000000000000000000000000000000
#004361:0032000000000000
#005321:22
#009321:14240000
#009341:0054000000000000
#011321:13
#011361:00230000
#013321:14545454240000000000000000000000
#013331:0054000000000054000000000000000000000000000000000000000000000000
#013341:0000005400540000000000000000000000000000000000000000000000000000
#013380:14545454240000000000000000000000
#013390:0054000000000054000000000000000000000000000000000000000000000000
#0133a0:0000005400540000000000000000000000000000000000000000000000000000
#0153b0:13
#015370:00230000
#016360:00001252000000220000000000000000
#016340:00000000005200000000000000000000
#016381:00000012000000220000000000000000
#0163a1:00000000005200000000000000000000
#017321:0000000000140000
#017331:00000000000000000000003400000000
#017341:00000024
#0183a1:0000000000140000
#018391:00000000000000000000003400000000
#018381:00000024
#0193a1:1424
#019361:00340000
#019320:0014
#019360:00000034
#020320:24
#0203a1:1434240000000000
#020381:00340034000000000000000000000000
#020320:0000143424000000
#020340:00000000003400340000000000000000
#0203a1:0000000014342400
#020371:00000000000000000034003400000000
#020320:0000000000001434
#020350:00000000000000000000000000340034
#021320:24
#0233a0:14
#023360:0024000000000000
#023320:0014
#023360:0000000000240000
#024360:00000000000000001454545454542400
#024340:0000000000000000000000000000000000580058005800580058005800000000
#025350:13332300
#025320:0033003300000000
#025381:00001333
#0253b1:0000000000330033
#026381:23
#026321:0000000000001323
#027351:13332300
#027321:0033003300000000
#027380:00001333
#0273b0:0000000000330033
#028380:23
#029350:13
#029320:0023000000000000
#029381:0013000000000000
#0293b1:00230000
#029350:00130000
#029320:0000002300000000
#029381:0000001300000000
#0293b1:0023
#029340:0014
#029320:0000000000240000
#029381:0000000000140000
#0293a1:00000024
#029340:00000014
#029320:0000000000000024
#029381:0000000000000014
#0303a1:24
#030321:0000000016000022
#030380:0016
#0303c0:0000000000000022
#031320:000000000000000000000000000000000000000000000000000000000000000000000000000000000000000000000000000000000000000000000000000000000000000000000000000000000000000000000000000000000000000000000000000000000000000000000000000000000000000000000000000000000000000000000000000000000000000000000000000000000000000000000000000000000000000000000000000000000000000000000000000000000000000000000000000000000000000000000000000000000000000000000000000000000000000000000000000000000000000000000000000000000000000000000000000000000000000000000000000000000000000000000000000000000000000000000000000000000000000000000000000000000000000000000000000000000000000000000000000000000000000000000000000000000000000000000000000000000000000000000000000000000000000000000000000000000000000000000000000000000000000000000000000000000000000000000000000000000000000000000000000000000000000000000000000000000000000000000000000000000000000000000000000000000000000000000000000000000000000000000000000000000000000000000000000000000000000000000000000000000000000000000000000000000000000000000000000000000000000000000000000000000000000000000000000000000000000000000000000000000000000000000000000000000000000000000000000000000000000000000000000000000000000000000000000000000000000000000000000000000000000000000000000000000000000000000000000000000000000000000000000000000000000000000000000000000000000000000000000000000000000000000000000000000000000000000000000000000000000000000000000000000000000000000000000000000000000000000000000000000000000000000000000000000000000000000000000000000000000000000000000000000000000000000000000000000000000000000000000000000000000000000000000000000000000000000000000000000000000000000000000000000000000000000000000000000000000000000000000000000000000000000000000000000000000000000000000000000000000000000000000000000000000000000000000000000000000000000000000000000000000000000000000000000000000000000000000000000000000000000000000000000000000000000000000000000000000000000000000000000000000000000000000000000000000000000000000000000000000000000000000000000000000000000000000000000000000000000000000000000000000000000000000000000000000000000000000000000000000000000000000000000000000000000000000000000000000000000000000000000000000000000000000000000000000000000000000000000000000000000000000000000000000000000000000000000000000000000000000000000000000000000000000000000000000000000000000000000000000000000000000000000000000000000000000000000000000000000000000000000000000000000000000000000000000000000000000000000000000000000000000000000000000000000000000000000000000000000000000000000000000000000000000000000000000000000000000000000000000000000000000000000000000000000000000000000000000000000000000000000000000000000000000000000000000000000000000000000000000000000000000000000000000000000000000000000000000000000000000000000000000000000000000000000000000000000000000000000000000000000000130000000000000000000000000000000000000000000000000000000000000000000000000000000000000000000000000000000000000000000000000000000000000000000000000000000000000000000000000000000000000000000000000000000000000000000000000000000000000000000000000000000000000000000000000000000000000000000000000000000000000000000000000000000000000000000000000000000000000000000000000000000000000000000000000000000000000000000000000000000000000000000000000000000000000000000000000000000000000000000000000000000000000000000000000000000000000000000000000000000000000000000000000000000000000000000000000000000000000000000000000000000000000000000000000000000000000000000000000000000000000000000000000000000000000000000000000000000000000000000000000000000000000000000000000000000000000000000000000000000000000000000000000000000000000000000000000000000000000000000000000000000000000000000000000000000000000000000000000000000000000000000000000000000000000000000000000000000000000000000053
#032320:560000000000000000000000000000000000000000000000000000000000000000000000000000000000000000000000000000000000000000000000000000000000000000000000000000000000000000000000000000000000000000000000000000000000000000000000000000000000000000000000000000000000000000000000000000000000000000000000000000000000000000000000000000000000000000000000000000000000000000000000000000000000000000000000000000000000000000000000000000000000000000000000000000000000000000000000000000000000000000000000565c000000000000000000000000000000000000000000000000000000000000000000000000000000000000000000000000000000000000000000002c0000000000000000000000000000000000000000000000000000000000000000000000000000000000000000000000000000000000000000000000000000000000000000000000000000000000000000000000000000000000000000000000000000000000000000000000000000000000000000000000000000000000000000000000000000000000000000000000000000000000000000000000000000000000000000000000000000000000000000000000
#033320:13230000
#033350:0053000000000000
#0333b1:13230000
#033381:0053000000000000
#036381:16
#036351:0036000000000000
#036321:00260000
#036321:00000000000000001636363600000000
#036381:00000026
#0373b1:13230000
#037381:0053000000000000
#037320:13230000
#037350:0053000000000000
#040320:16
#040350:0036000000000000
#040380:00260000
#040380:00000000000000001636363600000000
#040320:00000026
#041320:120000000000000000000000000000000000000000000000000000000000000000000000000000000000000000000000000000000000000000000000000000000000000000000000000000000000000000000000000000000000000000000000000000000000000000000000000000000000000000000000000000000000000000000000000000000000000000000000000000000000000000000000000000000000000000000000000000000000000000000000000000000000000000000000000000000000000000000000000000000000000000000000000000000000000000000000000000000000000000000000000000000000000000000000000000000000000000000000000000000000000000000000000000000000000000000000000000000000000000000000000000000000000000000000000000000000000000000000000000000000000000000000000000000000000000000000000000000000000000000000000000000000000000000000000000000000000000000000000000000000000000000000000000000000000000000000000000000000000000000000000000000000000000000000000000000000000000000000000000000000000000000000000000000000000000000000000000000000000000000052
#042320:330000000000000000000000000000000000000000000000000000000000000000000000000000000000000000000000000000000000000000000000000000000000000000000000000000000000000000000000000000000000000000000000000000000000000000000000000000000000000000000000000000000000000000000000000000000000000000000000000000000000000000000000000000000000000000000000000000000000000000000000000000000000000000000000000000000000000000000000000000000000000000000000000000000000000000000000000000000000000000000000000000000000000000000000000000000000000000000000000000000000000000000000000000000000000000000000000000000000000000000000000000000000000000000000000000000000000000000000000000000000000000000000000000000000000000000000000000000000000000000000000000000000000000000000000000000000000000000000000000000000000000000000000000000000000000000000000000000000000000000000000000000000000000000000000000000000000000000000000000000000000000000000000000000000000000000000000000000000000000000053
#043320:340000000000000000000000000000000000000000000000000000000000000000000000000000000000000000000000000000000000000000000000000000000000000000000000000000000000000000000000000000000000000000000000000000000000000000000000000000000000000000000000000000000000000000000000000000000000000000000000000000000000000000000000000000000000000000000000000000000000000000000000000000000000000000000000000000000000000000000000000000000000000000000000000000000000000000000000000000000000000000000000000000000000000000000000000000000000000000000000000000000000000000000000000000000000000000000000000000000000000000000000000000000000000000000000000000000000000000000000000000000000000000000000000000000000000000000000000000000000000000000000000000000000000000000000000000000000000000000000000000000000000000000000000000000000000000000000000000000000000000000000000000000000000000000000000000000000000000000000000000000000000000000000000000000000000000000000000000000000000000000000000000000000000000000000000000000000000000000000000000000000000000000000000000000000000000000000000000000000000000000000000000000000000000000000000000000000000000000000000000000000000000000000000000000000000000000000000000000000000000000000000000000000000000000000000000000000000000000000000000000000000000000000000000000000000000000000000000000000000000000000000000000000000000000000000000000000000000000000000000000000000000000000000000000000000000000000000000000000000000000000000000000000000000000000000000000000000000000000000000000000000000000000000000000000000000000000000000000000000000000000000000000000000000000000000000000000000000000000000000000000000000000000000000000000000000000000000000000000000000000000000000000000000000000000000000000000000000000000000000000000000000000000000000000000000000000000000000000000000000000000000000000000000000000000000000000000000000000000000000000000000000000000000000000000000000000000000000000000000000000054
#044320:35
#045320:25
#0453b1:130000000000000000000000000000000000000000000000000000000000000000000000000000000000000000000000000000000000000000000000000000000000000000000000000000000000000000000000000000000000000000000000000000000000000000000000000000000000000000000000000000000000000000000000000000000000000000000000000000000000000000000000000000000000000000000000000000000000000000000000000000000000000000000000000000000000000000000000000000000000000000000000000000000000000000000000000000000000000000000000000000000000000000000000000000000000000000000000000000000000000000000000000000000000000000000000000000000000000000000000000000000000000000000000000000000000000000000000000000000000000000000000000000000000000000000000000000000000000000000000000000000000000000000000000000000000000000000000000000000000000000000000000000000000000000000000000000000000000000000000000000000000000000000000000000000000000000000000000000000000000000000000000000000000000000000000000000000000000000000053
#0463a1:340000000000000000000000000000000000000000000000000000000000000000000000000000000000000000000000000000000000000000000000000000000000000000000000000000000000000000000000000000000000000000000000000000000000000000000000000000000000000000000000000000000000000000000000000000000000000000000000000000000000000000000000000000000000000000000000000000000000000000000000000000000000000000000000000000000000000000000000000000000000000000000000000000000000000000000000000000000000000000000000000000000000000000000000000000000000000000000000000000000000000000000000000000000000000000000000000000000000000000000000000000000000000000000000000000000000000000000000000000000000000000000000000000000000000000000000000000000000000000000000000000000000000000000000000000000000000000000000000000000000000000000000000000000000000000000000000000000000000000000000000000000000000000000000000000000000000000000000000000000000000000000000000000000000000000000000000000000000000000000000000000000000000000000000000000000000000000000000000000000000000000000000000000000000000000000000000000000000000000000000000000000000000000000000000000000000000000000000000000000000000000000000000000000000000000000000000000000000000000000000000000000000000000000000000000000000000000000000000000000000000000000000000000000000000000000000000000000000000000000000000000000000000000000000000000000000000000000000000000000000000000000000000000000000000000000000000000000000000000000000000000000000000000000000000000000000000000000000000000000000000000000000000000000000000000000000000000000000000000000000000000000000000000000000000000000000000000000000000000000000000000000000000000000000000000000000000000000000000000000000000000000000000000000000000000000000000000000000000000000000000000000000000000000000000000000000000000000000000000000000000000000000000000000000000000000000000000000000000000000000000000000000000000000000000000000000000000000000000000000054
#047391:35
#048391:25
#0493b1:13230000
#049381:0033000000000000
#049320:0013000000000000
#049350:00230000
#051340:00000014
#052340:24
#053320:13230000
#053350:0033000000000000
#0533b1:0013000000000000
#053381:00230000
#055381:00000014
#056381:24
#0573b1:130000000000000000000000000000000000000000000000000000000053000000000000000000000000000000000000000000000000000000000000005300000000000000000000000000000000000000000000000000000053000000000000000000000000000000000000000000000000000000000000
#057381:000000000000000000000000000000000000000000000000000000000000000000000000000000000000000000000000000000000000000000000000000000000000000000000000000000000000000000000000000000000000000000000000000000000000000000000000000000000000000000000000000000000000000000000000000000000000000000000000000000000000000000000000000000000000000000000000000000000000000000000000000000000000000000000000000000000000000000000000000000000000000000000000000000000000000000000000000000000000000000000000000000000000000000000000000000000000000000000000000000000000000000000000000000000000000000000000000000000000000000000000000000000000000000000000000000000000000000000000000000000000000000000000000000000000000000000000000000000000000000000000000000000000000000000000000000000000000000000000000000000000000000000000000000000000000000000000000000000000000000000000000000000000000000000000000000000000000000000000000000000000000000000000000000000000000000560000000000000000000000000000360000000000000000000000000000565300000000000000000000000000000000000000000000000000000000000000000000000000000000000000000000000000000000000000000000000000000000000000000000000000000000000000000000000000000000000000000000000000000000000000000000000000000000000000000000000000000000000000000000000000000000000000000000000000000000000000000000000000000000000000000000000000000000000000000000000000000000000000000000000000000000000000000000000000000000000000000000000000000000000000000000000000000000000000000000000000000000000000000000000000000000000000000000000000000000000000000000000000000000000000000000000000000000000000000000000000000000000000000000000000000000000000000000000000000000000000000000000000000000000000000000000000000000000000000000000000000000000000000000000000000000000000000000000000000000000000000000000000000000000000000000000000000000000000000000000000000000000000000000000000000000000000000000000000000053560000000000000000000000000000360000000000000000000000000000560000000000000000000000000000000000000000000000000000000000000000000000000000000000000000000000000000000000000000000000000000000000000000000000000000000000000000000000000000000000000000000000000000000000000000000000000000000000000000000000000000000000000000000000000000000000000000000000000000000000000000000000000000000000000000000000000000000000000000000000000000000000000000000000000000000000000000000000000000000000000000000000000000000000000000000000000000000000000000000000000000000000000000000000000000000000000000000000000000000000000000000000000000000000000000000000000000000000000000000000000000000000000000000000000000000000000000000000000000000000000000000000000000000000000000000000000000000000000000000000000000000000000000000000000000000000000000000000000000000000000000000000000000000000000000000000000000000000000000000000000000000000000000000000000000000000000000000000000000000000560000000000000000000000000000360000000000000000000000000000565300000000000000000000000000000000000000000000000000000000000000000000000000000000000000000000000000000000000000000000000000000000000000000000000000000000000000000000000000000000000000000000000000000000000000000000000000000000000000000000000000000000000000000000000000000000000000000000000000000000000000000000000000000000000000000000000000000000000000000000000000000000000000000000000000000000000000000000000000000000000000000000000000000000000000000000000000000000000000000000000000000000000000000000000000000000000000000000000000000000000000000000000000000000000000000000000000000000000000000000000000000000000000000000000000000000000000000000000000000000000000000000000000000000000000000000000000000000000000000000000000000000000000000000000000000000000000000000000000000000000000000000000000000000000000000000000000000000000000000000000000000000000000000000000000000000000000000000000000000053560000000000000000000000000000
#058381:360000000000000000000000000000560000000000000000000000000000000000000000000000000000000000000000000000000000000000000000000000000000000000000000000000000000000000000000000000000000000000000000000000000000000000000000000000000000000000000000000000000000000000000000000000000000000000000000000000000000000000000000000000000000000000000000000000000000000000000000000000000000000000000000000000000000000000000000000000000000000000000000000000000000000000000000000000000000000000000000000000000000000000000000000000000000000000000000000000000000000000000000000000000000000000000000000000000000000000000000000000000000000000000000000000000000000000000000000000000000000000000000000000000000000000000000000000000000000000000000000000000000000000000000000000000000000000000000000000000000000000000000000000000000000000000000000000000000000000000000000000000000000000000000000000000000000000000000000000000000000000000000000000000000000000560000000000000000000000000000360000000000000000000000000000565300000000000000000000000000000000000000000000000000000000000000000000000000000000000000000000000000000000000000000000000000000000000000000000000000000000000000000000000000000000000000000000000000000000000000000000000000000000000000000000000000000000000000000000000000000000000000000000000000000000000000000000000000000000000000000000000000000000000000000000000000000000000000000000000000000000000000000000000000000000000000000000000000000000000000000000000000000000000000000000000000000000000000000000000000000000000000000000000000000000000000000000000000000000000000000000000000000000000000000000000000000000000000000000000000000000000000000000000000000000000000000000000000000000000000000000000000000000000000000000000000000000000000000000000000000000000000000000000000000000000000000000000000000000000000000000000000000000000000000000000000000000000000000000000000000000000000000000000000530000560000000000000000000000000000360000000000000000000000000000560000000000000000000000000000000000000000000000000000000000000000000000000000000000000000000000000000000000000000000000000000000000000000000000000000000000000000000000000000000000000000000000000000000000000000000000000000000000000000000000000000000000000000000000000000000000000000000000000000000000000000000000000000000000000000000000000000000000000000000000000000000000000000000000000000000000000000000000000000000000000000000000000000000000000000000000000000000000000000000000000000000000000000000000000000000000000000000000000000000000000000000000000000000000000000000000000000000000000000000000000000000000000000000000000000000000000000000000000000000000000000000000000000000000000000000000000000000000000000000000000000000000000000000000000000000000000000000000000000000000000000000000000000000000000000000000000000000000000000000000000000000000000000000000000000000000000000000000000000000000560000000000000000000000000000360000000000000000000000000000565300000000000000000000000000000000000000000000000000000000000000000000000000000000000000000000000000000000000000000000000000000000000000000000000000000000000000000000000000000000000000000000000000000000000000000000000000000000000000000000000000000000000000000000000000000000000000000000000000000000000000000000000000000000000000000000000000000000000000000000000000000000000000000000000000000000000000000000000000000000000000000000000000000000000000000000000000000000000000000000000000000000000000000000000000000000000000000000000000000000000000000000000000000000000000000000000000000000000000000000000000000000000000000000000000000000000000000000000000000000000000000000000000000000000000000000000000000000000000000000000000000000000000000000000000000000000000000000000000000000000000000000000000000000000000000000000000000000000000000000000000000000000000000000000000000000000000000000000000000000000000000000000000000000000000
#0583b1:005300000000000000000000000000000000000000000000000000000053000000000000000000000000000000000000000000000000000000000000005300000000000000000000000000000000000000000000000000000053000000000000000000000000000000000000000000000000000000000000
#059381:23
#059320:130000000000000000000000000000000000000000000000000000000000000000000000000000000000000000000000000000000000000000000000000000000000000000000000000000000000000000000000000000000000000000000000000000000000000000000000000000000000000000000000000000000000000000000000000000000000000000000000000000000000000000000000000000000000000000000000000000000000000000000000000000000000000000000000000000000000000000000000000000000000000000000000000000000000000000000000000000000000000000000000000000000000000000000000000000000000000000000000000000000000000000000000000000000000000000000000000000000000000000000000000000000000000000000000000000000000000000000000000000000000000000000000000000000000000000000000000000000000000000000000000000000000000000000000000000000000000000000000000000000000000000000000000000000000000000000000000000000000000000000000000000000000000000000000000000000000000000000000000000000000000000000000000000000000000053560000000000000000000000000000360000000000000000000000000000560000000000000000000000000000000000000000000000000000000000000000000000000000000000000000000000000000000000000000000000000000000000000000000000000000000000000000000000000000000000000000000000000000000000000000000000000000000000000000000000000000000000000000000000000000000000000000000000000000000000000000000000000000000000000000000000000000000000000000000000000000000000000000000000000000000000000000000000000000000000000000000000000000000000000000000000000000000000000000000000000000000000000000000000000000000000000000000000000000000000000000000000000000000000000000000000000000000000000000000000000000000000000000000000000000000000000000000000000000000000000000000000000000000000000000000000000000000000000000000000000000000000000000000000000000000000000000000000000000000000000000000000000000000000000000000000000000000000000000000000000000000000000000000000000000000000000000000000000000000000560000000000000000000000000000360000000000000000000000000000565300000000000000000000000000000000000000000000000000000000000000000000000000000000000000000000000000000000000000000000000000000000000000000000000000000000000000000000000000000000000000000000000000000000000000000000000000000000000000000000000000000000000000000000000000000000000000000000000000000000000000000000000000000000000000000000000000000000000000000000000000000000000000000000000000000000000000000000000000000000000000000000000000000000000000000000000000000000000000000000000000000000000000000000000000000000000000000000000000000000000000000000000000000000000000000000000000000000000000000000000000000000000000000000000000000000000000000000000000000000000000000000000000000000000000000000000000000000000000000000000000000000000000000000000000000000000000000000000000000000000000000000000000000000000000000000000000000000000000000000000000000000000000000000000000000000000000000000000000000053560000000000000000000000000000360000000000000000000000000000560000000000000000000000000000000000000000000000000000000000000000000000000000000000000000000000000000000000000000000000000000000000000000000000000000000000000000000000000000000000000000000000000000000000000000000000000000000000000000000000000000000000000000000000000000000000000000000000000000000000000000000000000000000000000000000000000000000000000000000000000000000000000000000000000000000000000000000000000000000000000000000000000000000000000000000000000000000000000000000000000000000000000000000000000000000000000000000000000000000000000000000000000000000000000000000000000000000000000000000000000000000000000000000000000000000000000000000000000000000000000000000000000000000000000000000000000000000000000000000000000000000000000000000000000000000000000000000000000000000000000000000000000000000000000000000000000000000000000000000000000000000000000000000000000000000000000000000000000000000000560000000000000000000000000000
#059350:000000000000000000000000000000000000000000000000000000000000005300000000000000000000000000000000000000000000000000000053000000000000000000000000000000000000000000000000000000000000005300000000000000000000000000000000000000000000000000000053
#060320:360000000000000000000000000000565300000000000000000000000000000000000000000000000000000000000000000000000000000000000000000000000000000000000000000000000000000000000000000000000000000000000000000000000000000000000000000000000000000000000000000000000000000000000000000000000000000000000000000000000000000000000000000000000000000000000000000000000000000000000000000000000000000000000000000000000000000000000000000000000000000000000000000000000000000000000000000000000000000000000000000000000000000000000000000000000000000000000000000000000000000000000000000000000000000000000000000000000000000000000000000000000000000000000000000000000000000000000000000000000000000000000000000000000000000000000000000000000000000000000000000000000000000000000000000000000000000000000000000000000000000000000000000000000000000000000000000000000000000000000000000000000000000000000000000000000000000000000000000000000000000000000000000000000000000053560000000000000000000000000000360000000000000000000000000000560000000000000000000000000000000000000000000000000000000000000000000000000000000000000000000000000000000000000000000000000000000000000000000000000000000000000000000000000000000000000000000000000000000000000000000000000000000000000000000000000000000000000000000000000000000000000000000000000000000000000000000000000000000000000000000000000000000000000000000000000000000000000000000000000000000000000000000000000000000000000000000000000000000000000000000000000000000000000000000000000000000000000000000000000000000000000000000000000000000000000000000000000000000000000000000000000000000000000000000000000000000000000000000000000000000000000000000000000000000000000000000000000000000000000000000000000000000000000000000000000000000000000000000000000000000000000000000000000000000000000000000000000000000000000000000000000000000000000000000000000000000000000000000000000000000000000000000000000000000000560000000000000000000000000000360000000000000000000000000000565300000000000000000000000000000000000000000000000000000000000000000000000000000000000000000000000000000000000000000000000000000000000000000000000000000000000000000000000000000000000000000000000000000000000000000000000000000000000000000000000000000000000000000000000000000000000000000000000000000000000000000000000000000000000000000000000000000000000000000000000000000000000000000000000000000000000000000000000000000000000000000000000000000000000000000000000000000000000000000000000000000000000000000000000000000000000000000000000000000000000000000000000000000000000000000000000000000000000000000000000000000000000000000000000000000000000000000000000000000000000000000000000000000000000000000000000000000000000000000000000000000000000000000000000000000000000000000000000000000000000000000000000000000000000000000000000000000000000000000000000000000000000000000000000000000000000000000000000000000053560000000000000000000000000000360000000000000000000000000000560000000000000000000000000000000000000000000000000000000000000000000000000000000000000000000000000000000000000000000000000000000000000000000000000000000000000000000000000000000000000000000000000000000000000000000000000000000000000000000000000000000000000000000000000000000000000000000000000000000000000000000000000000000000000000000000000000000000000000000000000000000000000000000000000000000000000000000000000000000000000000000000000000000000000000000000000000000000000000000000000000000000000000000000000000000000000000000000000000000000000000000000000000000000000000000000000000000000000000000000000000000000000000000000000000000000000000000000000000000000000000000000000000000000000000000000000000000000000000000000000000000000000000000000000000000000000000000000000000000000000000000000000000000000000000000000000000000000000000000000000000000000000000000000000000000000000000000000000000000000000000000000000000000000000000
#060350:000000000000000000000000000000000000000000000000000000000000000000000000000000000000000000000000000000000000000000000000000000000000000000000000000000000000000000000000000000000000000000000000000000000000000000000000000000000000000000000000000000005300000000000000000000000000000000000000000000000000000000000000000000000000000000000000000000000000000000000000000000000000000000000000000000000000000000000000000000000000000000000000000000000000000000000000000000000000005300000000000000000000000000000000000000000000000000000000000000000000000000000000000000000000000000000000000000000000000000000000000000000000000000000000000000000000000000000000000000000000000000000000000000000000000000000000000000000000000000000000000000005300000000000000000000000000000000000000000000000000000000000000000000000000000000000000000000000000000000000000000000000000000000000000000000000000000000000000000000000000000000000000000000000000000000000000000000000000000000000000
#061350:23
