This file was generated by Ched 2.7.0.0.
#TITLE ""
#ARTIST ""
#DESIGNER ""
#DIFFICULTY 0
#PLAYLEVEL
#SONGID ""
#WAVE ""
#WAVEOFFSET 0
#JACKET ""
#REQUEST "ticks_per_beat 480"
#00002: 4
#BPM01: 140
#00008: 01
#TIL00: ""
#HISPEED 00
#MEASUREHS 00
#0171a:2414
#01714:00140000
#01710:41
#01818:14
#01819:0014
#01814:00140000
#01813:0014
#03412:14
#03414:00001414
#0341a:00140000
#03418:0000000000140000
#00518:14
#0051a:0014
#00714:14
#00712:0014
#00814:14
#00812:0014
#06212:16160000
#06218:00001414
#06214:0000000000140000
#06118:1616
#06312:1616
#06418:1600160000140000
#06414:00001414
#00618:14
#0061a:0014
#0011a:14
#0021a:14
#00312:14
#00412:14
#02013:0014
#02014:14
#02018:00140000
#02019:0014
#02314:00140014
#0231a:1414
#02418:1414
#02412:00140014
#03018:1616
#03012:00160016
#0351a:14
#03518:0014
#03514:00140000
#03512:00000014
#03618:14
#03614:00140000
#0361a:0014
#0381a:14
#03818:00001414
#03812:00140000
#03814:0000000000140000
#03912:14
#03914:0014
#03918:00140000
#0391a:00000014
#04014:14
#04012:0014
#04018:00140000
#04010:41
#05018:16001414
#05012:00160000
#05014:0000000000140000
#05010:41
#05112:16
#05118:0000160000140000
#05114:00001414
#05218:16001414
#05212:00160000
#05214:0000000000140000
#05412:1614
#05418:0000160000140000
#05414:00000014
#01912:1414
#01918:00140000
#02212:00000014
#02214:14
#02213:00340000
#03214:00000018
#05518:16000014
#05512:00160000
#0551a:0014
#05514:0000000000140000
#05618:0000160000140000
#05612:16000014
#05614:0014
#0571a:1414
#05718:00140014
#0581a:1414
#05818:00140000
#05912:1414
#05914:00140014
#06012:1414
#06014:00140000
#0091a:00000014
#00910:41
#01012:00000014
#01318:00000014
#01414:00000014
#02118:14
#0211a:00000014
#02119:00340000
#01118:00000014
#01214:00000014
#0151a:00000014
#01612:00000014
#0411f:11
#04918:26
#0491f:21
#0331a:24
#03312:24
#03310:41
#02518:26
#02512:0026
#02510:41
#02712:26
#02718:0026
#05312:26
#02918:26
#02912:0026
#03712:24
#0371a:24
#04514:0034
#04513:00340000
#04515:00000034
#04613:00353500
#04612:00000035
#04712:0036363636363636
#02558:16
#02552:0016
#02752:16
#02758:0016
#0365a:0014
#04052:0014
#0575a:5454
#05758:00540054
#0585a:5454
#05858:00540000
#05952:6464
#05954:00640064
#06052:6464
#06054:00640000
#04958:00160000
#04952:00000016
#05352:00160000
#05358:00000016
#02952:0016
#02958:16
#04854:18
#02254:54
#02158:54
#009380:14
#009390:00340000
#0093a0:0024
#010340:14
#010330:00340000
#010320:0024
#0113a0:14
#011390:00340000
#011380:0024
#012320:14
#012330:00340000
#012340:0024
#0133a0:1424
#013380:00340000
#014320:1424
#014340:00340000
#015380:1424
#0153a0:00340000
#016340:1424
#016320:00340000
#021380:14
#021390:00340000
#0213a0:0024
#022340:14
#022330:00340000
#022320:0024
#026380:14545454545454542400000000000000
#026370:0056005600560056005600560056005600000000000000000000000000000000
#028340:14545454545454542400000000000000
#028330:0056005600560056005600560056005600000000000000000000000000000000
#031350:16565656565656560000000000000000
#031330:005a005a005a005a005a005a005a005a00000000000000000000000000000000
#031360:00000000000000003454545454545454
#031340:0000000000000000000000000000000000580058005800580058005800580058
#032360:34545454545454542400000000000000
#032350:0056005600560056005600560056005600000000000000000000000000000000
#033320:14
#033340:00240000
#0333a1:14240000
#033321:00001424
#0333a0:0014
#033380:00000024
#0373a0:14
#037380:00240000
#037321:14240000
#0373a1:00001424
#037320:0014
#037340:00000024
#0413a0:14
#042360:34
#0433a0:34
#044360:24
#045320:14
#045330:00340000
#045340:0034
#045350:00000034
#046350:35
#046330:00353500
#046320:00000035
#047320:3636363636363636
#048340:28
#049380:16260000
#049320:00001626
#053320:16260000
#053380:00001626
#0573a0:1434
#057380:00340034
#0583a0:3434
#058380:00340024
#059320:1434
#059340:00340034
#060320:3434
#060340:00340024
