This file was generated by Ched 2.7.0.0.
#TITLE ""
#ARTIST ""
#DESIGNER ""
#DIFFICULTY 0
#PLAYLEVEL
#SONGID ""
#WAVE ""
#WAVEOFFSET 0
#JACKET ""
#REQUEST "ticks_per_beat 480"
#00002: 4
#BPM01: 130
#00008: 01
#TIL00: ""
#HISPEED 00
#MEASUREHS 00
#01014:14
#0111a:14
#01214:14
#01318:14
#01412:14
#01518:14
#01612:14
#02112:0016
#02118:26
#02312:16
#02318:0016
#0251a:14
#02510:41
#0261a:14
#02712:14
#02812:14
#02918:1616
#03012:16
#03018:0016
#03112:1616
#03218:16
#03212:0016
#04314:14
#0421a:14
#04210:41
#04512:14
#04712:14
#04818:14
#04914:14
#0501a:14
#05010:41
#05112:14
#05218:14
#07413:14
#05412:0016
#0541f:11
#05418:26
#05612:16
#05618:0016
#0581a:14
#0591a:14
#06012:14
#06112:14
#06212:0016
#06218:26
#0621f:21
#06412:16
#06418:0016
#04418:14
#05314:14
#07213:14
#07319:14
#07519:14
#0091a:24
#00910:41
#0461a:24
#06310:41
#01710:41
#005390:14
#006390:24
#007330:14
#008330:24
#0173a0:14
#0183a0:24
#019320:14
#020320:24
#022380:1626
#024320:1626
#033380:1626
#036340:1434
#037340:24
#0383a0:1434
#0393a0:24
#040320:1434
#041320:24
#055380:1626
#057320:1626
#063380:1626
#065320:1626
#066380:16
#067380:26
#068320:16
#069320:26
#070380:16
#071380:26
#076330:1400000000000024
