This file was generated by Ched 2.7.0.0.
#TITLE ""
#ARTIST ""
#DESIGNER ""
#DIFFICULTY 0
#PLAYLEVEL
#SONGID ""
#WAVE ""
#WAVEOFFSET 0
#JACKET ""
#REQUEST "ticks_per_beat 480"
#00002: 4
#BPM01: 130
#00008: 01
#TIL00: ""
#HISPEED 00
#MEASUREHS 00
#01212:1315131513151315
#0191b:0013000013000000
#01912:0000001300000000
#01915:0000000000130013
#01918:00000013
#01718:0000000000130013
#01715:00000013
#0171b:2300002300000000
#01712:0023000023000000
#01710:41
#01812:1313
#0181b:0013000000130000
#01815:00130000
#01818:0000001300000000
#02115:0013000000000013
#02112:0000000000130000
#02118:00000013
#0211b:23
#02119:0000003300000000
#0231b:1300003300000000
#02315:0013000000130013
#02318:00130013
#0281b:0000001300130000
#02818:0013000000000013
#02812:1423
#02815:00230023
#03112:0013000000000013
#03115:0000130000130000
#03118:0000001300001300
#0311b:0013
#03719:000000000000000000000000000000000000000000000000000000000000000000000000000000000000000000000000000000000000000000000000000000000000000000000000000000000000000000000000000000000000000000000000000000000000000000000000000000000000000000000000000000000000000000000000000000001300000000000000000000000000000000000000000000000000000000000000000000000000000000000000000000000000000000130000
#03717:00000017
#04215:13000013
#04212:00130000
#0421b:0000000000130013
#04210:41
#0461b:00130000
#04612:2323
#04618:0000000000230000
#04615:00000023
#0471b:13
#04715:0013000000230000
#04718:00130023
#0501b:0013000000000013
#05015:00130013
#05018:0000001300130000
#05012:0013
#05010:41
#05112:13000000000000001300000000000033
#05118:0013000013000000
#0511b:0000001300000000
#05115:00130000
#05113:0000000000000033
#05114:00000000000000000000000000330000
#05212:00000013
#05218:0013000000130000
#05215:00131300
#0521b:0000001300000000
#0041b:00000023000000130000000000000000
#00412:0023001300000000
#00418:00000000000000000000001300000013
#00415:0000000000130013
#03017:0000000000000000000000000016001600160016001600160016001600160016
#03016:00000000000000160016001600160016
#03018:0013001616161616
#0301b:13
#03015:00130000
#02218:0013000000000013
#0221b:0000000000130000
#02215:00000013
#02212:13
#02213:0000003300000000
#03817:17171717
#03819:00000000000000000000000000000013000000000000000000000000000000130000000000000000000000000000001300000000000000000000000000000013
#03917:17171700
#03919:00000000000000000000000000000013000000000000000000000000000000130000000000000000000000000000000000000000000000000000000000000000
#02612:14232323
#02618:00230023
#0261b:0023
#0271a:14
#0271b:00230023
#02718:0023
#02715:00230023
#02712:0023
#02918:00130013
#02915:0000001300000013
#0291b:2313
#02912:2300000000130000
#03317:00000014000000000000000000000000
#0331a:24
#04012:13001313
#04015:00130000
#04018:13001313
#0401b:00130000
#04115:13001313
#04112:00130000
#0411b:13001313
#04118:00130000
#04315:0000000000000013
#04312:1600001600000000
#04318:00000016000000000016000000000000
#0431b:00000013
#0641b:0013000000000013
#06418:0000130000130000
#06415:0000001300001300
#06412:0013
#06215:00130013
#06218:0000001300000013
#06212:2413
#0621b:0000000000130000
#0621a:24
#0621f:21
#06312:1300001616161616
#06315:0013000000000000
#06318:00130000
#06313:0000000000000000000000000016001600160016001600160016001600160016
#06314:00000000000000160016001600160016
#06310:41
#06613:0014
#06619:0000000000140000
#06614:00000014
#06618:0000001400000000
#06612:24
#00118:0000000000130013
#00112:00000000000000000000001300000013
#00115:00000023000000230000000000000000
#0011b:0023002300000000
#00315:00000000000000000000001300000013
#00318:0000000000130013
#0031b:0023002300000000
#00312:00000023000000230000000000000000
#00218:00000000000000000000001300000013
#00212:0000000000130013
#00215:0023002300000000
#0021b:00000023000000230000000000000000
#00912:00001313
#0091b:0013000000130000
#00918:0000001300000013
#00915:00130000
#00910:41
#01012:0013000000130000
#01015:0000001300000013
#01018:00130000
#0101b:00002323
#01112:0013
#01118:0000001300130000
#01115:00130013
#0111b:0013000000000013
#01315:0000130000130013
#0131b:00001313
#01318:0013000000000000
#01312:2300001300000000
#01418:0000130000130013
#01415:0013000000000000
#0141b:0000001300000000
#01412:00002323
#02417:00000000000000000000000000140000
#0241a:00000000000000000000143434003434
#02418:0013000000000000
#0241b:0000001300000000
#02412:23232300
#06112:0000001300130000
#06115:0013000000000013
#0611a:14
#06118:00230023
#0611b:0023
#0591a:14
#0591b:00232323
#05915:00230023
#05912:0023
#06012:14230023
#06015:0023
#06018:00230023
#0601b:0023
#05715:00001300000000000000000000140000
#05712:00000000000013000000143434003434
#0571b:23232300
#07215:0000000000130013
#0721b:00000000000000000000001300000013
#07218:00000023000000230000000000000000
#07212:0023002300000000
#07418:00000000000000000000001300000013
#07415:0000000000130013
#07412:0023002300000000
#0741b:00000023000000230000000000000000
#07315:00000000000000000000001300000013
#0731b:0000000000130013
#07318:0023002300000000
#07312:00000023000000230000000000000000
#07515:00000000000000000000001300000013
#07518:0000000000130013
#0751b:0023002300000000
#07512:00000023000000230000000000000000
#07615:00001300000013000000001300000013
#0761b:00000013000000130000000000000000
#07618:0000000000130013
#04518:1600001600000023
#04512:00000016000000000016000023000000
#04418:13000013
#0441b:00130000
#04412:0000000000130013
#05314:00140000
#05318:0000001400000000
#0531a:00000024
#05312:0024
#05418:0013000000000013
#0541b:0000000000130000
#05415:00000013
#0541f:11
#05412:24
#05414:0000003300000000
#05618:0013000000130013
#05615:00130013
#05612:2300003300000000
#05515:0013000000000013
#05512:0000000000130000
#05518:00000013
#0551b:23
#0551a:0000003300000000
#06714:00140000
#0671a:0014
#06712:00000014
#02012:0013000000000000
#02018:00130000
#02015:0000001300000000
#0201b:23
#0161b:13131313
#01619:0015001500150015
#0151b:0013
#01515:0000001300130000
#01518:00130013
#01512:0013000000000013
#00512:23
#04912:230000260026
#04918:230026
#04915:00230000
#0491b:00230000
#0681a:24
#0251b:00232323
#02515:00230023
#02512:0023
#02510:41
#06512:2424
#06518:00240000
#0651a:00000024
#05812:00232323
#05818:00230023
#0581b:0023
#0321a:2424
#03214:00240000
#03212:00000024
#01252:2355235523552355
#01352:13
#01952:1300001300000000
#02952:13
#0295b:13
#03759:000000000000000000000000000000000000000000000000000000000000000000000000000000000000000000000000000000000000000000000000000000000000000000000000000000000000000000000000000000000000000000000000000000000000000000000000000000000000000000000000000000000000000000000000000000002300000000000000000000000000000000000000000000000000000000000000000000000000000000000000000000000000000000230000
#03757:00000057
#0335a:64000000000000000000001400000000
#03357:00000024000000000000000000000000
#04255:63
#04252:00630000
#04652:13
#0465b:00130000
#04755:0000000000130000
#04758:00000013
#04859:00000000000000000000001400000000
#04853:00000014000000000000000000000000
#04952:000000160016
#04958:000016
#0685a:14
#03057:0000000000000000000000000056005600560056005600560056005600560056
#03056:00000000000000260026002600260026
#03058:0000002626262626
#0215b:13
#0175b:1300001300000000
#02358:00530000
#03857:57575757
#03859:00000000000000000000000000000023000000000000000000000000000000230000000000000000000000000000002300000000000000000000000000000023
#03957:57575700
#03959:00000000000000000000000000000023000000000000000000000000000000230000000000000000000000000000000000000000000000000000000000000000
#02652:14
#0275a:14
#0535a:00000014
#05352:0014
#02852:14
#06552:1414
#06558:00140000
#0655a:00000014
#0675a:1414
#06754:00140000
#06752:00000014
#0255a:14
#02457:00000000000000000000000000240000
#0245a:0000000000540000
#0595a:14
#06052:14
#0615a:14
#05755:00000000000000000000000000240000
#05752:0000000000640000
#0625a:14
#06252:14
#05852:14
#05452:14
#06353:0000000000000000000000000066006600660066006600660066006600660066
#06354:00000000000000260026002600260026
#06352:0000002626262626
#04458:53
#0445b:00530000
#05655:00630000
#0165b:23232323
#01659:0065006500650065
#0325a:1414
#03254:00140000
#03252:00000014
#0053b0:00130000
#005380:0023
#005350:00000013
#006320:23
#006380:00130000
#0063b0:0023
#006321:00130000
#006351:0023
#006351:00000013
#007321:23
#0063b0:00000013
#007380:23
#007320:00130000
#007350:0023
#007380:00000013
#0083b0:23
#008350:00130000
#008320:0023
#0083b1:00130000
#008381:0023
#008381:00000013
#0093b1:23
#008320:00000013
#009350:23
#012320:1355335533553355
#013320:23
#0163b0:13333333
#016390:0055005500550055
#0173b0:23
#018350:00000013
#019320:23
#0203b0:00001323
#021380:00130000
#021390:0000003300000000
#0213b0:0023
#022350:00130000
#022330:0000003300000000
#022320:0023
#023380:00130000
#0233b0:0000003323000000
#0243a0:00000000000000000000143434003434
#024370:00000000000000000000000000340000
#0253a0:24
#030380:0000001656565656
#030370:0000000000000000000000000056005600560056005600560056005600560056
#030360:00000000000000560056005600560056
#031380:26
#0333a0:140000000000000000000000000000000000340053005300330053005300330053240000000000000000000000000000
#033370:00000054000000000000000000000000
#0333b0:000000000000000000000000000000000000005300330053005300330053005300000000000000000000000000000000
#036390:13
#037390:000000000000000000000000000000000000000000000000000000000000000000000000000000000000000000000000000000000000000000000000000000000000000000000000000000000000000000000000000000000000000000000000000000000000000000000000000000000000000000000000000000000000000000000000000000005300000000000000000000000000000053000000000000000000000000000000000000000000000000000000000000000000000000530000
#037370:00000037
#038370:37373737
#038390:00530000000000000000000000000053005300000000000000000000000000530053000000000000000000000000005300530000000000000000000000000053
#039370:37373700
#039390:00530000000000000000000000000053005300000000000000000000000000530053000000000000000000000000000023000000000000000000000000000000
#042350:1323
#042320:00330000
#044380:1323
#0443b0:00330000
#047350:0000001300230000
#048330:14343424000000000000000000000000
#048390:00000000000000001434342400000000
#051350:00000013
#051340:00000000000000000000000000330000
#051330:0000000000000033
#051320:00000000000000000000000000000033
#052320:23
#052380:00000000000000000000000000000014
#053380:0024000000000000
#054350:00130000
#054340:0000003300000000
#054320:0023
#055380:00130000
#0553a0:0000003300000000
#0553b0:0023
#056350:00130000
#056320:0000003323000000
#057320:00000000000000000000143434003434
#057350:00000000000000000000000000340000
#058320:24
#063320:0000001656565656
#063330:0000000000000000000000000056005600560056005600560056005600560056
#063340:00000000000000560056005600560056
#064320:26
#066320:14240000
#0663a0:0000000000000014
#0673a0:24
#068320:00130000
#068350:0023
#068380:00000013
#0693b0:23
#069350:00130000
#069320:0023
#0693b1:00130000
#069381:0023
#069381:00000013
#0703b1:23
#069320:00000013
#070350:23
#0703b0:00130000
#070380:0023
#070350:00000013
#071320:23
#071380:00130000
#0713b0:0023
#071321:00130000
#071351:0023
#071351:00000013
#072321:23
#0713b0:00000013
#072380:23
