This file was generated by Ched 2.7.0.0.
#TITLE ""
#ARTIST ""
#DESIGNER ""
#DIFFICULTY 0
#PLAYLEVEL
#SONGID ""
#WAVE ""
#WAVEOFFSET 0
#JACKET ""
#REQUEST "ticks_per_beat 480"
#00002: 4
#BPM01: 130
#00008: 01
#TIL00: ""
#HISPEED 00
#MEASUREHS 00
#0061a:14
#00614:0014
#00718:14
#00712:0014
#00514:0014
#0051a:24
#00818:14
#00812:0014
#0091a:1414
#00914:00140000
#00910:41
#01012:1414
#01018:00140000
#01118:1414
#01114:00140014
#01312:1414
#01318:00140000
#0141a:1414
#01414:00140000
#01514:1414
#01518:00140014
#01714:00000014
#01710:41
#0181a:1414
#01814:00140000
#01918:00000014
#02012:1414
#02018:00140000
#02112:00160000
#02118:26001414
#02114:0000000000140000
#02212:16
#02218:0000160000140000
#02214:00001414
#0251a:14140000
#02514:00001414
#02510:41
#02318:16
#02312:0000160000140000
#0231a:00001414
#02914:0014
#02918:26000014
#03212:14
#0321a:00140000
#03214:0014
#03218:00000014
#0421a:1414
#04214:00140014
#04210:41
#04318:1414
#04312:00140014
#0441a:14
#04414:00140000
#04418:0014
#04412:00000014
#0451a:14
#04514:00140000
#04518:0014
#04512:00000014
#0481a:1414
#04812:1414
#04918:14
#04914:00140000
#05014:0014
#05018:00000014
#0501a:00140000
#05010:41
#05112:14
#0511a:00140000
#05113:0014
#05119:0014
#03014:14
#03118:14
#02618:14140000
#02612:00001414
#0271a:1414
#02714:00140014
#02818:1414
#02812:00140014
#05412:00160000
#0541a:00001414
#05414:0000000000140000
#0541f:11
#05418:26
#05512:16001414
#05518:0000160000140000
#0581a:14
#05818:00140000
#05812:0014
#05814:00000014
#05618:16000014
#05612:00160000
#0561a:0014
#05614:0000000000140000
#05918:14
#0591a:00140000
#05914:0014
#05912:00000014
#0601a:14
#06014:00140000
#06018:0014
#06012:00000014
#0611a:14
#06112:00140000
#06118:0014
#06114:00000014
#06212:0014
#06218:26000014
#0621f:21
#06512:14
#0651a:00140000
#06514:0014
#06518:00000014
#06312:14
#06314:00140000
#06310:41
#0641a:14
#06418:00140000
#06818:1414
#0701a:1414
#07114:1414
#06912:1414
#0721a:14
#07212:0014
#0731a:14
#07312:0014
#07418:14
#07414:0014
#07518:14
#07514:0014
#03312:24
#02412:2626
#02418:00260000
#05712:2626
#05718:00260000
#02958:16
#03352:0014
#03054:64
#03158:54
#06258:16
#06352:54
#06354:00240000
#0645a:64
#06458:00240000
#0055a:14
#02158:16
#05458:16
#012380:14342400
#016340:14342400
#0173a0:14
#017380:0024
#019320:14
#019340:0024
#030340:14
#030320:0024
#031380:14
#0313a0:0024
#033320:1424
#0363a0:14
#0373a0:00000034
#0383a0:34343434
#0393a0:34343424
#040320:14343434
#041320:34343424
#0463a0:14240000
#046340:00001424
#047380:14240000
#047320:00001424
#049380:000000163626
#0523a0:14
#052390:00340000
#052380:0024
#053320:14
#053330:00340000
#053340:0024
#063320:1424
#063340:00540000
#0643a0:1424
#064380:00540000
#066320:14
#066340:0024
#0673a0:14240000
#067320:00001424
#076380:14003434000034340000343400003424
