This file was generated by Ched 2.7.0.0.
#TITLE ""
#ARTIST ""
#DESIGNER ""
#DIFFICULTY 0
#PLAYLEVEL
#SONGID ""
#WAVE ""
#WAVEOFFSET 0
#JACKET ""
#REQUEST "ticks_per_beat 480"
#00002: 4
#BPM01: 98
#00008: 01
#TIL00: ""
#HISPEED 00
#MEASUREHS 00
#00213:14
#00019:14
#0041a:14
#00410:41
#00514:14
#00812:14
#00918:14
#01518:14
#01418:14
#01612:14
#01610:41
#03412:0016
#03418:16
#04918:16
#04912:0016
#00119:14
#00313:14
#03518:1616
#0521a:14
#05210:41
#05312:14
#0121a:14
#01312:14
#0171a:14
#01814:14
#01914:14
#04212:16
#04218:0016
#04312:1616
#05418:14
#05514:14
#0561a:14
#04612:16
#04618:0016
#02812:0016
#02818:26
#0281f:21
#02918:16
#02910:41
#03112:16
#03018:0016
#03012:16
#03618:0016
#03612:26
#03712:16
#03818:16
#03812:0016
#03918:16
#03910:41
#04518:0016
#04812:0016
#0201f:11
#01010:41
#0063a0:14
#0073a0:24
#010320:14
#011320:24
#0203a0:14
#0213a0:24
#022340:14
#023340:24
#024380:14
#025380:24
#026320:14
#027320:24
#032380:1626
#033320:1626
#040320:1626
#041380:1626
#044380:16
#045380:26
#047320:1636
#048320:26
#050340:18383838
#051340:28
#057320:14
#058320:00340000
#059320:00340000000000000034000000000000
#062320:24
