This file was generated by Ched 2.7.0.0.
#TITLE ""
#ARTIST ""
#DESIGNER ""
#DIFFICULTY 0
#PLAYLEVEL
#SONGID ""
#WAVE ""
#WAVEOFFSET 0
#JACKET ""
#REQUEST "ticks_per_beat 480"
#00002: 4
#BPM01: 98
#00008: 01
#TIL00: ""
#HISPEED 00
#MEASUREHS 00
#0001b:13000013
#0001a:00130000
#00017:0000001300000013
#00019:0013
#00018:0013000000130000
#00212:0013000000001300
#00215:130000000000130000000013000000130000000000130000
#0021b:000000000000130000000000000000130000000000000013
#00217:0000001300000000
#00218:0013000013001300
#00818:0013000000130013
#00815:130000130000000000000000000013000000000000000013
#00812:000000000000130000000013000000000000000013000000
#0081b:000000000000130000000013000000000000000000000000
#0041b:0000001300000000
#00415:000000000000000000000000000000130000000000000013
#00418:000000000000000000000013000000000000000000130000
#00410:41
#00715:0013000000000013
#00718:000000000000130000000000000000000000130000000013
#00712:0000001300130000
#0071b:1313000013130000
#01812:000000000013000000130000000000000000000000130000
#0181b:000000000000000000000000000000000013000000130000
#01814:130013000000000000000013000013000000000000000000
#01819:001300000000131300000000
#01817:000000000013000000130000000000000000000000000000
#01816:000000000000000000000000000000000013000000000000
#02318:0000001300000000
#0231b:00130023
#02315:00001313
#02312:0000000000000013
#02819:0000000000000013
#0281b:0000130000130000
#0281a:00000013
#02815:0000000000000000000000001300000000000000000000000000000000000013
#02813:0013000000130000
#02812:23000013
#02814:00131300
#02818:23
#0281f:21
#03315:000000000000130000130000000000000013000000130000
#03318:000000000000000000000013000000130000000000000000
#03312:0013
#0331b:00000013
#03317:13
#03418:000000000000000000000000000000130000000000000013
#03412:1300000013000013
#0341b:13130013
#03415:00000013
#02918:1313
#02919:0013001300000000
#0291b:0000000000000013
#02912:0000130000131300
#02915:0013
#0291a:00130000
#02910:41
#04212:0000001300000013
#0421b:0000000000000013
#04217:00130000000013000000000000000000
#04216:00130000
#04316:0000000000130000
#04319:00000013
#04312:0013000000000013
#04315:13130000
#0431b:000000130000000000000013000000130000000000000013
#04317:0000000000000013
#04314:00000013
#04318:13
#04517:0000001300001300
#04512:0000001300001300
#0451b:1313
#04516:0013
#04518:00130000
#04616:0013000000001400
#04619:00130000
#0461b:0000000000130000
#04615:0000000000130000
#04612:0000000013000013
#04618:0000000000000013
#04614:0000001300000000
#04617:000000000000000000000013000000000000000000000000
#04817:0000000000000013
#04812:0000130000000013
#04815:0013001300001300
#04813:0000000000130000
#04814:0013
#05119:0000001300000000
#05118:000000000000000000000000000000000013000000000000
#05114:0000001300000000
#05115:000000000000000000000000000000000013000000000000
#0511b:0023
#05112:2423
#05413:13
#05415:000000130000130000000000000013000000000000130000
#05418:0000001300130000
#05417:000000000000000000000000000000000000000000000013
#05419:000000000013
#05412:000000000000000000000013000000000000000000000000
#0541a:0013000000000000
#0561b:1300001313000013
#05612:130000000000000000130000130000000000000000000013
#05618:000000330000000000000000000013000013000000000000
#05615:000000130013000000000000000033000000000000000000
#05714:18
#05715:0016000000000000
#05716:000000000000000000000000000000000000000000000000000000000000000000000000000000000000000000000000000014000000000000000000000000000000000000000000000000000000000000000000000000000000000000000000000000000000000000000000000000000000000000000000000000000000000000000000000000000000000000000000000000000000000000000000000000000000002400000000000000000000000000000000000000000000000000000000
#05717:000000000000000000000000000000000000000000000000000000000000000000000000000000000000000000000000000000000000000000000000000000000000000000000000000000000012000000000000000000000000000000000000000000000000000000000000000000000000000000000000000000000000000000000000000000000000000000000000000000000000000000000000000000000000000000000000000000000000000000000000000000000000000000000000
#05712:000000000000000000000000000000000000000000000000000000000000000000000000000000000000000000000000000000000000000000000000000000000000002400000000000000000000000000000000000000000000000000000000
#01115:0013000000000013
#01118:1300130000230000
#0111b:0000001300000013
#01112:00130000
#00917:0000000000000013
#00918:0000000000130000
#0091b:00130000
#00915:000000000000000013000013000000000000000000000000
#00912:0000000000000013
#03117:000000000000000000130000000000000000000000130013
#03118:0013
#03116:0000000000130000
#03115:00000013
#0311b:00000013
#03112:1313
#0311a:000000003333000000000000000000000000000000000000
#00312:000000130000000000000013000000000000130000000000
#0031b:0000130000130000
#00318:0013001313001300
#00315:1300130000130000
#00515:0000000000000013
#00518:000000000000000000000000000000000000000000000013
#0051b:000000000000000000000013000000000000000000000000
#00512:0000000000130000
#01515:000013000000130013000000000000000000000000130000
#01518:000000000000000000130000000000000000130013000000
#01512:130000000000000000000000130000130000000000000013
#0151b:0013000000130000
#0191b:0013001300130000
#01918:1300000013000013
#01912:0013001300130000
#01915:23130023
#02215:00131300
#0221b:0000230000001313
#02212:1300001300001313
#02218:1300000000130000
#02716:1212000013000000
#0271b:0000000013000013
#02715:00000013
#02712:0000000000130000
#02718:0000121200000000
#02714:00120000
#0271a:12
#03012:0013130000130013
#03017:000000000000000000000000000000000000000000000013
#0301a:00000013
#0301b:1300001313000000
#03016:000000000000000000000013000000000000000000000000
#03018:000000130013000000000000000000000000000000000000
#04012:130000000000000000000013000000000000000000000000
#04015:000000000013000000000000000000000000130000000000
#04018:0013131300130013
#0401b:13001313
#05515:00131300
#0551b:000000000000000013000000000000000000000000130000
#05512:0000000000000013
#05518:000000130000000000000013000000000000000000000000
#05513:13
#0521b:00130013
#05218:0013000000130013
#05215:1613001316130000
#05212:00130013
#05210:41
#0531b:0013000000130013
#05318:00130013
#0531a:000000000000000000000000000000000000000000000013
#05315:16131613
#05312:0013001300130000
#0501a:000000000000000000000000000000000000000000140014
#05012:000000130000130000000000000000000000140014000000
#05015:000000000000000000160000000000000000000000001400
#05017:000000000000000000000000000000000000001400000000
#05016:0000000000140000
#0501b:00130000
#05019:0023
#05014:0023
#0491b:0000000000000013
#04912:13
#04712:000000000000000000000000000000000000000000130013
#04718:000000000000000000230013
#04713:000000000000000000000000000000130013000000000000
#04719:000000231300
#04714:000000000000000000130013000000000000000000000000
#0471a:000000230013000000000000
#04715:000000130013000000000000000000000000000000000000
#0471b:231300000000
#0441a:0012001200120012
#04418:00130013
#0441b:0013
#04416:23
#04112:13
#0411b:2300000000000023
#04119:0023
#04113:00230000
#04114:000000000000000000000000000000000023000000000000
#03918:00000013
#0391b:1313
#03912:00000013
#03917:0000000000130000
#03915:0013
#03916:0000001300000013
#03913:000000003333000000000000000000000000000000000000
#03910:41
#03815:000000130013000000000000000000000000000000000000
#03816:000000000000000000000000000000000000000000000013
#0381b:0013130000130013
#03812:1300001313000000
#03817:000000000000000000000013000000000000000000000000
#03813:00000013
#03715:1313
#03718:0013
#0371b:00130013
#03713:00130000
#03714:0013001300000000
#03618:0000000000000000000000001300000000000000000000000000000000000013
#03613:00000013
#03612:0000130000130000
#0361a:0013000000130000
#0361b:23000013
#03619:00131300
#03614:0000000000000013
#03615:23
#03512:2600002413000013
#0351b:0000000000130000
#03518:00000013
#03517:0013
#0351a:0000002400000000
#03515:000000000026000000000000000000000000000000000000
#0321b:00130013
#0321a:0013
#03212:130000000000000000000000000000000000130000000013
#03213:0013
#03217:0000001300000013
#03216:0000000000130000
#0261a:0000120012000012
#02614:00120012
#0261c:00000012
#02612:0012
#02515:13000023
#0251b:1300001300002300
#02518:00130000
#02512:00230000
#02415:13000013
#02412:0000230000000013
#0241b:1300001300002300
#02418:00130000
#02112:13130023
#02115:0000001300000000
#02118:13000013
#0211b:0000230000000013
#02015:0013001300000000
#02012:00130023
#0201b:1300230000000013
#02018:00000013
#0201f:11
#01719:000000000000000000000000000000000000000000000013
#01715:000000130000000000000013000000000000000000000000
#01712:130000000000130013000000000000130000000000000000
#0171b:0000000000000013
#01718:000000000000000013000013000000000000000000000000
#01716:0000000000000013
#01615:0000130000130013
#01612:000000130000000000000013000000000000000000000000
#0161b:000000130000000000000013000000000000000013000000
#01618:130000000000130000000000000013000000000000000013
#01610:41
#01415:000000000013000000000000000013000000000000130000
#01412:0013001300000000
#01418:000013000000000000000013000000000000000000000013
#0141b:130000000000001300000000
#01312:130000000000000013000013000000000000000000000000
#01318:000000000013000000000000000000000000000000130000
#01315:000000130000130000000000000000000000000000000013
#0131b:000013000000000013000000000000130000000000000000
#01317:000000000000000000000013000000000000000000000000
#0121b:000000000000000000000013000000000000000000000000
#01218:000000000000000000000000000000130000000000000013
#01215:230000000000000000000013000000000000000000130000
#01212:0000001300000000
#01018:0000000000000013
#01015:000000000000000000000000000000000000000000000013
#0101b:000000000013000000130000000000000000000000000000
#01012:000000000000000000000000000000000013000000000000
#01014:000000000000131300000000
#01016:000000000013000000130000000000000000000000000000
#01017:000000000000000000000000000000000013000000000000
#01019:131300000000000000000000
#01010:41
#00618:000000000000000000000000000013000000000000130000
#00615:000000000000000000000013000000000000000000000013
#0061b:0000001300000000
#00612:000000000000001300000000
#00118:000000000000000000000000000000000000000000000013
#00116:0000001300000013
#00112:13000013
#00115:0013000000130000
#00114:0013
#00113:00130000
#0581a:00240000000000000000000000000000000000000000000000000000000000000000000000000000000000000000000000000000000000000000000000000000
#05814:000000000000000000000000000000000000000000000000000000000000000000000000000000000000000000000000000000000000000000000000002800000000000000000000000000000000000000000000000000000000000000000000000000000000000000000000000000000000000000000000000000000000000000000000000000000000000000000000000000000000000000000000000000000000000000000000000000000000000000000000000000000000000000000000
#04557:00000053
#0455b:0053
#04552:00000053
#05458:0000000000630000
#05455:00530000
#0545a:0023000000000000
#00858:0063000000530000
#0085b:00630000
#00852:00530000
#00855:0053000000000000
#00958:0000000000130000
#00952:0000000000130000
#00955:000000000000000000000053000000000000000000000000
#0195b:0023000000230000
#01958:6363
#01952:0000002300000013
#01955:00530053
#02252:0000000000000063
#0225b:0000530000000053
#02958:0053
#02952:00000063
#0345b:00530000
#03452:53
#04252:0000005300000000
#04257:00230000000053000000000000000000
#04355:00530000
#0435b:0023000000000000
#04358:53
#05158:000000000000000000000000000000000053000000000000
#0515b:0000000053000013
#05152:1400000063000013
#05155:000000000000000000000000000000000053000000000000
#02858:63
#0285b:00230000
#02852:13
#05854:000000000000000000000000000000000000000000000000000000000000000000000000000000000000000000000000000000000000000000000000005800000000000000000000000000000000000000000000000000000000000000000000000000000000000000000000000000000000000000000000000000000000000000000000000000000000000000000000000000000000000000000000000000000000000000000000000000000000000000000000000000000000000000000000
#0415b:5300000000000053
#04159:0053
#04153:00530000
#04154:000000000000000000000000000000000053000000000000
#05555:0053
#05552:0000000000130000
#05558:0063000000000000
#05553:23
#0565b:53
#05658:000000000013000000000000000000000000000000000000
#05652:0063
#05655:000000000000000000000000000000000013000000000000
#0535b:0053000000000000
#05358:00230000
#05355:00000023
#05352:0000000000630000
#05252:00000023
#05255:0000000000530000
#0525b:00230000
#05258:0063000000000000
#05059:0013
#05054:0013
#0495b:0000000000000053
#03952:00330000
#0395b:63
#0365b:13
#03655:53
#03652:00230000
#0385b:0000530000530000
#03853:00000063
#03852:0063
#03755:0063
#0375b:00000053
#03558:00000063
#03552:0063
#03357:53
#03355:00130000
#0325b:00130000
#03252:53
#03152:53
#0315b:00430000
#03052:0000630000630000
#0305a:00000053
#0305b:0053
#02755:00000053
#0275b:0053
#02552:00530000
#02555:00000053
#0255b:00000053
#0245b:00000063
#02152:00000063
#0175b:0000000000130000
#01752:0000000000130000
#01758:000000000000000000000063000000000000000000000000
#01655:0000630000630000
#01652:0063000000000000
#01658:00530000
#0165b:0053000000000000
#01856:000000000000000000000000000000000013000000000000
#01857:000000000013000000000000000000000000000000000000
#01252:0000000000130000
#01255:000000000000000000000063000000000000000000000000
#01458:00000013
#01452:00000013
#0145b:000000000000006300000000
#01455:000000000000006300000000
#01356:0000000000130000
#01352:000000000000000000000063000000000000000000000000
#0115b:00000043
#01057:000000000000000000000000000000000013000000000000
#01056:000000000013000000000000000000000000000000000000
#0065b:00000013
#00658:000000000000005300000000
#00655:00000013
#00652:000000000000005300000000
#00558:0000000000130000
#0055b:000000000000000000000053000000000000000000000000
#0045b:0000000000130000
#00458:000000000000000000000053000000000000000000000000
#000320:14
#000330:00000022
#0013a0:14
#0013b0:00000022
#003370:0000000000000013
#004390:23
#004321:13
#004341:0023000000000000
#004390:0013000000000000
#0043b0:00230000
#004331:00130000
#004351:0000002300000000
#004381:000000000000000000000013000000000000000000000000
#0043b1:0000000000230000
#0053b1:13
#005391:0023000000000000
#005350:0013000000000000
#005330:00230000
#005391:00130000
#005371:002300
#005340:001300
#005320:000000000000000000000023000000000000000000000000
#0053b1:000000000000000000000013000000000000000000000000
#005381:0000000000230000
#006321:13
#006351:0023000000000000
#0063b0:0013000000000000
#006380:00230000
#006351:00130000
#006321:0000002300000000
#0063b1:000000000000000000000013000000000000230000000000
#006381:000000000000003300000000
#006320:000000000000001300000000
#006350:00000023
#008380:0013002300000000
#0083b0:00330000
#008351:0013002300000000
#008321:00330000
#008381:0000000000130000
#0083b1:00000023
#0093b1:13
#009381:0023000000000000
#009350:0013000000000000
#009320:00230000
#0093b0:001300
#009380:000000000000000000000023000000000000000000000000
#009351:000000000000000000000013000000000000000000000000
#009321:0000000000230000
#010341:132300000000000000000000
#010391:000000000000132300000000
#011351:0000001300230000
#011380:0000000000130000
#011390:000033
#0113a0:000000000000000000000000000000000033000000000000
#0113b0:00000023
#0123b0:13
#012390:0023000000000000
#012321:0013000000000000
#012341:00230000
#012380:00130000
#0123a0:0000002300000000
#012350:000000000000000000000013000000000000000000000000
#012320:0000000000230000
#013320:000000000000000000000013000000000000000000000000
#013360:0000000000230000
#014380:00130000
#0143b0:0000002300000000
#014320:000000000000000000000013000000000000230000000000
#014350:000000000000003300000000
#0143b1:000000000000001300000000
#014381:00000023
#016321:0013002300000000
#016351:00330000
#0163b0:0013002300000000
#016380:00330000
#016350:0000000000130000
#016320:00000023
#017380:0013000000000000
#0173b0:00230000
#017380:000000000000000000000013000000000000000000000000
#0173b0:0000000000230000
#019380:13230000
#0193b0:0033000000000000
#019351:00132300
#019321:0000003300000000
#019380:00001323
#0193b0:0000000000330000
#019351:00000013
#019321:0000000000000023
#0203b1:00130000
#020381:0000002300000000
#020321:00000013
#020351:0000000000000023
#0213b1:00130000
#021381:0000002300000000
#021321:00000013
#021351:0000000000000023
#0223b1:00130000
#022381:0000002300000000
#022321:0000000000000013
#023351:0023000000000000
#0223b0:0000000000000013
#023380:0023000000000000
#0233b0:00000013
#023380:0000000000000023
#024320:00130000
#024350:0000002300000000
#0243b0:00000013
#024380:0000000000000023
#025320:00130000
#025350:0000002300000000
#0253b0:00000013
#025380:0000000000000023
#025351:00000013
#025321:0000000000000023
#0273b1:0013
#027381:00000023
#027350:00000013
#028320:23
#028381:1323
#0283b1:00530000
#029381:0013
#0293b1:00000023
#029320:00000013
#030360:23
#030320:00130000
#030360:0000002300000000
#0303b0:0013
#030390:0000000000230000
#030321:0000000000130000
#030351:00000023
#0303a0:00000013
#030370:0000000000000023
#031320:13
#031360:00230000
#031391:0013000000000000
#0313a1:000000003333000000000000000000000000000000000000
#0313b1:00230000
#032321:13
#032361:00230000
#033371:13
#0333b1:00230000
#034321:13
#034351:00230000
#0343b0:00130000
#034380:0023
#035320:0013
#035350:00000023
#035381:00000013
#0363b1:23
#036350:1323
#036320:00530000
#037350:0013
#037320:00000023
#0373b1:00000013
#038371:23
#0383b1:00130000
#038371:0000002300000000
#038321:0013
#038341:0000000000230000
#0383b0:0000000000130000
#038380:00000023
#038331:00000013
#038361:0000000000000023
#0393b1:13
#039371:00230000
#039340:0013000000000000
#039330:000000003333000000000000000000000000000000000000
#039320:00230000
#0413b0:13
#041380:00230000
#041331:00130000
#041361:0023
#041390:0013
#041370:000000000000000000000000000000000023000000000000
#041341:000000000000000000000000000000000013000000000000
#041361:0000000000000023
#0413b0:0000000000000013
#042370:00530000000000000000000000000000
#0423b0:00230000
#042320:0000001300000000
#042360:0000000000230000
#042371:0000001300000000
#0423b1:0000000000230000
#043381:13230000
#0433b1:0053000000000000
#043350:00130000
#043320:000000000000000000000023000000000000000000000000
#044360:1300000000000033
#044320:0000000000330000
#044340:00000033
#045320:00230000
#0453b0:0013
#045370:00000033
#0463b0:23
#045321:00000013
#046361:23
#0473b1:1323000000000000
#0473a1:0000132300000000
#047391:0000000013230000
#047381:0000000000001323
#0483a1:14
#0483b1:00000022
#0493b1:13
#049381:00230000
#049350:00130000
#049320:0023
#0493b1:0013
#049381:000023
#049350:000013
#049320:0000000000000023
#0493b1:0000000000000013
#050371:0023000000000000
#0513b1:0000000013000023
#051381:000000000000000000000000000000000033000000000000
#051320:0000000013000023
#051350:000000000000000000000000000000000033000000000000
#052380:0013002300000000
#0523b0:00330000
#052350:0000000000130023
#052320:00000033
#0533b0:0013002300000000
#053380:00330000
#053320:0000000000130023
#053350:00000033
#0543a0:0013000000000000
#054380:00230000
#054351:00130000
#054331:0000002300000000
#054381:0000000000130000
#0543b1:00000023
#055331:13
#055351:0023000000000000
#055380:0013000000000000
#0553a0:00230000
#055350:0013
#055320:0000000000230000
#0563b0:13
#056380:000000330023000000000000000000000000000000000000
#056320:0013
#056350:000000000000000000000000000033000023000000000000
#058340:000000000000000000000000000000000000000000000000000000000000000000000000000000000000000000000000000000000000000000000000001800000000000000000000000000000000000000000000000000000000000000000000000000000000000000000000000000000000000000000000000000000000000000000000000000000000000000000000000000000000000000000000000000000000000000000000000000000000000000000000000000000000000000000000
#062370:00220000
