This file was generated by Ched 2.7.0.0.
#TITLE ""
#ARTIST ""
#DESIGNER ""
#DIFFICULTY 0
#PLAYLEVEL
#SONGID ""
#WAVE ""
#WAVEOFFSET 0
#JACKET ""
#REQUEST "ticks_per_beat 480"
#00002: 4
#BPM01: 98
#00008: 01
#TIL00: ""
#HISPEED 00
#MEASUREHS 00
#0001b:13000013
#0001a:00130000
#00014:0000001300000000
#00019:0013
#00015:0013000000000000
#00013:0000000000130000
#00018:0000000000000013
#00212:0013000000130000
#00218:1313
#0021b:00130013
#00215:0000001300000013
#00815:000000130000000000000000000013000000000000130000
#00818:1300130000130000
#00814:0000001400000000
#0081a:000000000000000000000014000000000000000000000000
#0041b:000000000000000000130033000000000000000000000000
#00412:1300000000000013
#00418:0013000000000000
#00415:00130000
#00410:41
#00718:0013000000130000
#00715:000000000000130000000000000000000000130000000013
#0071b:0000001300000013
#00712:0013
#01812:0000000000000013
#0181b:0000001300000013
#01818:133300000000000000000000
#01815:000000000000133300000000
#02315:0000001300002300
#02312:00130000
#02318:0013
#02812:0000000000000013
#02815:0000000000130000
#0281b:00000013
#02818:23
#0281f:21
#0331b:0000001300000000
#03312:0000000000130000
#03315:000000000000000000000013000000000000000000130000
#03318:00001313
#03418:0000000000130000
#0341b:130000000000000000000000000000000000000000130033
#03415:00130013
#02918:13000013
#02915:0000001300000000
#0291b:0013
#02910:41
#04212:0000000000000013
#04215:0000001300000000
#0421b:0000001300000013
#04312:0000000000130000
#04318:00130013
#04315:1300000000000013
#04517:00000013
#04515:0000001300000000
#0451b:0013
#04615:0013000000000013
#04618:000000000000130000000014000000000000130000000000
#0461b:0000000000130000
#04612:0000001400000000
#05118:0000001300000000
#05112:000000000000000000000000000000000013000000000000
#05115:0023
#0541b:13
#05412:0000001400000013
#05418:000000000000130000000014000000130000000000000000
#05415:000000130000000000000000000013000000000000000000
#0561b:0000000013000013
#05612:1300001300000000
#05615:0033000000000000
#05618:000000000000003300000000
#05712:13
#05715:0013000000000000
#05718:000000000000000000000000000000000000000000000000000000000000000000000000000000000000000000000000000013000000000000000000000000000000000000000000000000000000000000000000000000000000000000000000000000000000000000000000000000000000000000000000000000000000000000000000000000000000000000000000000000000000000000000000000000000000002400000000000000000000000000000000000000000000000000000000
#0571b:000000000000000000000000000000000000000000000000000000000000000000000000000000000000000000000000000000000000000000000000000000000000000000000000000000000013000000000000000000000000000000000000000000000000000000000000000000000000000000000000000000000000000000000000000000000000000000000000000000000000000000000000000000000000000000000000000000000000000000000000000000000000000000000000
#05714:000000000000000000000000000000000000000000000000000000000000000000000000000000000000000000000000000000000000000000000000000000000000002400000000000000000000000000000000000000000000000000000000
#0111b:0013000000000000
#01118:0000130000230000
#01115:0000001300000000
#01112:0000000000000013
#00912:000000000000130033000000000000000000000000130000
#00918:0000000000130000
#0091b:13
#0311b:000000000000000000130000000000000000000000130033
#03118:0013
#03115:0000000000130000
#03112:00000013
#00315:0013000013001300
#00318:1300130000130000
#0031b:0000001300000013
#00312:0000001300000000
#00515:0013000000000013
#0051b:13
#00518:000000000000130033000033000000000000000000000000
#01515:3300130000131300
#01518:0000001313000013
#01512:000000000000000000000000130000000000000000000013
#0151b:00130013
#01918:14141400
#01919:00140014001400140014001400000000
#0191a:0014001400140000
#01914:0000000000000024
#02215:0013
#02212:00000013
#0221b:0000230000000013
#02218:13
#03012:000000130033000000000000000000000000000000130033
#0301b:0013
#03015:00000013
#03018:0000000000130000
#04015:13000013
#04018:0000000000000013
#04012:000000000033000000330000000000000000000000000000
#05515:0013000013000000
#0551b:0000000000000013
#05518:130000000000000000000013000000000000000000000000
#0551a:00140000
#05514:001400
#05212:00130013
#05218:0013000000130000
#0521b:0000001300000013
#05215:0013
#05210:41
#05318:0013000013000000
#0531b:00130000
#05315:1300000000130000
#05312:00000013
#02118:13
#02115:0013
#0211b:00230000
#02112:00000023
#00112:13000013
#00113:00130000
#00119:0000001300000000
#00114:0013
#00118:0013000000000000
#0011a:0000000000130000
#00115:0000000000000013
#00618:1300000000000014
#00612:00001300000000000013000000000000
#0061b:00130000
#00615:000000000000000000130033000033000000000000000000
#00614:000000000000000000000000000000000000000000000014
#01018:130033000000000000000000000000000000000000140000
#0101b:0000001300000000
#01015:000000000000133300000000
#01014:000000000000000000000000000000000000000000000014
#01010:41
#01212:000000000000000000130033000000000000000000000000
#01215:0013000000000000
#01218:00130000
#0121b:2300000000000013
#01318:0013000000000013
#01312:13
#01315:000000000000130033000033000000000000000000000000
#01415:130000000000000000000000000000000000000000000033
#0141b:00001300000000000013000000000000
#01412:00130000
#01418:000000000000000000130033000033000000000000000000
#01615:000000130000000000000000000013000000000000130000
#01618:1300130000130000
#01614:0000001400000000
#0161a:000000000000000000000014000000000000000000000000
#01610:41
#01712:000000000000130033000000000000000000000000130000
#01718:0000000000130000
#0171b:13
#02015:0013
#0201f:11
#0201b:00230000
#02012:00000023
#02412:0013
#0241b:13
#02415:13000023
#02418:00231300
#02512:0013
#0251b:13000023
#02515:13000023
#02518:00231300
#02618:00130013
#02612:00130000
#0261b:0013
#02615:0000000013000013
#03212:000000000000000000130000000000000000000000130033
#03215:0013
#03218:0000000000130000
#0321b:00000013
#0361b:0000000000000013
#03618:0000000000130000
#03612:00000013
#03615:23
#03715:13000013
#03718:0000001300000000
#03712:0013
#0381b:000000130033000000000000000000000000000000130033
#03812:0013
#03818:00000013
#03815:0000000000130000
#03912:0000001300000000
#03915:0013
#03918:0000000000130013
#0391b:00000013
#03910:41
#04115:230000000000000000000000000000000013000000000000
#04112:0000000023000013
#0411b:230000000000000000000000000000000013000000000000
#04118:0000000023000013
#02715:0013
#03518:0013
#04818:00000013
#04815:0000000000000013
#04812:23
#04918:230000000000000000000000000000000013000000000000
#0491b:0000000023000013
#04912:230000000000000000000000000000000013000000000000
#04915:0000000023000013
#0441b:23
#04418:00000033
#05814:00240000000000000000000000000000000000000000000000000000000000000000000000000000000000000000000000000000000000000000000000000000
#05818:000000000000000000000000000000000000000000000000000000000000000000000000000000000000000000000000000000000000000000000000002600000000000000000000000000000000000000000000000000000000000000000000000000000000000000000000000000000000000000000000000000000000000000000000000000000000000000000000000000000000000000000000000000000000000000000000000000000000000000000000000000000000000000000000
#0471b:00000023
#04718:00230000
#04712:23
#04715:0023
#05012:0000002300000000
#05018:0000002300000000
#04557:00000053
#0455b:0053
#05458:0000000000630000
#00858:0000000000530000
#00958:0000000000130000
#00952:00630000
#0095b:63
#01958:24242400
#01959:00640064006400640064006400000000
#0195a:0024002400240000
#01954:0000000000000014
#0225b:0000530000000053
#0295b:0053
#02958:53000053
#03455:00530000
#0345b:0000000000000053
#04255:0000006300000000
#0425b:0000006300000000
#04358:00530000
#05152:000000000000000000000000000000000053000000000000
#05155:1300000053000013
#0515b:13
#02858:63
#05858:000000000000000000000000000000000000000000000000000000000000000000000000000000000000000000000000000000000000000000000000005600000000000000000000000000000000000000000000000000000000000000000000000000000000000000000000000000000000000000000000000000000000000000000000000000000000000000000000000000000000000000000000000000000000000000000000000000000000000000000000000000000000000000000000
#04155:530000000000000000000000000000000053000000000000
#0415b:530000000000000000000000000000000053000000000000
#04152:0000000063000053
#04158:0000000063000053
#05555:0053
#05552:0000000000130000
#05652:63
#05655:000000000013000000000000000000000000000000000000
#0565b:0053
#05658:000000000000000000000000000000000013000000000000
#05358:0063000000000000
#0535b:00230000
#05355:0000000000530000
#05352:00000023
#0045b:0000005300000000
#00458:0000000000130000
#00558:00530000
#0055b:0000000000130000
#00655:0000005300000000
#00652:00000000000000000023000000000000
#01058:63
#0105b:000000000013000000000000000000000000000000000000
#01055:0053
#01052:000000000000000000000000000000000013000000000000
#01252:0000006300000000
#01255:0000000000130000
#01355:00630000
#01352:0000000000130000
#01458:0000006300000000
#0145b:00000000000000000023000000000000
#01658:0000000000530000
#01758:0000000000130000
#01752:00630000
#0175b:63
#01858:63
#01855:0053
#0185b:000000000013000000000000000000000000000000000000
#01852:000000000000000000000000000000000013000000000000
#0215b:00530000
#02152:00000053
#02455:00000063
#02558:00630000
#02555:00000053
#0255b:00000053
#03052:0053000000000053
#03155:00130000
#0315b:0000000000000053
#03258:00130000
#03252:0000000000000063
#03355:00130000
#03755:63000063
#03752:0063
#0385b:0063000000000063
#03655:53
#03958:00130000
#04055:53
#04852:53
#02755:0053
#03558:0063
#04958:630000000000000000000000000000000063000000000000
#0495b:0000000053000063
#04952:630000000000000000000000000000000063000000000000
#04955:0000000053000063
#05052:0000005300000000
#05058:0000005300000000
#0043b0:000000000000000000130033000000000000000000000000
#004380:0000000000230000
#005380:000000000000130033000033000000000000000000000000
#0053b0:0000000000230000
#006350:000000000000000000130033000033000000230000000000
#006320:00000000000000000053000000000000
#008380:0000000000130000
#0083b0:00000023
#0093b0:13
#009380:0023000000000000
#009320:000000133300000000000000
#009350:000000000000000000000023000000000000000000000000
#010380:133300000000000000000000
#0103b0:000000000023000000000000000000000000000000000000
#010350:000000000000133300000000
#010320:000000000000000000000000000000000023000000000000
#011380:0000000000130000
#011390:000033
#0113a0:000000000000000000000000000000000033000000000000
#0113b0:00000023
#012320:000000000000000000130033000000000000000000000000
#012350:0000000000230000
#013350:000000000000130033000033000000000000000000000000
#013320:0000000000230000
#014380:000000000000000000130033000033000000230000000000
#0143b0:00000000000000000053000000000000
#014350:000000000000000000000000000000000000000000130033
#015350:33
#015320:002300000000000000000000
#016380:0000000000130000
#0163b0:00000023
#0173b0:13
#017380:0023000000000000
#017320:000000133300000000000000
#017350:000000000000000000000023000000000000000000000000
#018380:133300000000000000000000
#0183b0:000000000023000000000000000000000000000000000000
#018350:000000000000133300000000
#018320:000000000000000000000000000000000023000000000000
#019380:14343424
#019390:00540054005400540054005400000000
#0193a0:0054005400540000
#0203b0:00130000
#020380:0000002300000000
#020320:00000013
#020350:0000000000000023
#0213b0:00130000
#021380:0000002300000000
#021320:00000013
#021350:0000000000000023
#0223b0:00130000
#022380:0000002300000000
#0223b0:0000000000000013
#023380:0023000000000000
#023350:00000013
#023320:0000000000000023
#024380:00130000
#0243b0:0000002300000000
#024350:00000013
#024320:0000000000000023
#025380:00130000
#0253b0:0000002300000000
#025350:00000013
#025320:0000000000000023
#0253b1:00000013
#025381:0000000000000023
#027351:0013
#027321:00000023
#028381:13
#0283b1:0023
#029381:13
#0293b1:00230000
#0293b1:0013
#029381:00000033
#0303b1:23
#030321:000000130033000000000000000000000000000000000000
#030351:0000002300000000
#030321:000000000000000000000000000000000000000000130033
#031351:00230000
#0313b1:000000000000000000000000000000000000000000130033
#032381:00230000
#032321:000000000000000000000000000000000000000000130033
#033351:00230000
#034351:00130000
#034321:0023
#0343b1:000000000000000000000000000000000000000000130033
#035381:00230000
#035381:0013
#0353b1:00000023
#036351:13
#036321:0023
#037351:13
#037321:00230000
#037321:0013
#037351:00000033
#038321:23
#0383b1:000000130033000000000000000000000000000000000000
#038381:0000002300000000
#0383b1:000000000000000000000000000000000000000000130033
#039381:00230000
#040351:13
#040321:000000000033000000330023000000000000000000000000
#041351:13
#041321:00230000
#0413b0:13
#041380:00230000
#041320:0000000013000033
#041350:000000000000000000000000000000000033000000000000
#042350:00230000
#041381:0000000013000033
#0413b1:000000000000000000000000000000000033000000000000
#0423b1:00230000
#042351:0000001300000000
#042321:0000000000230000
#0423b0:0000001300000000
#042380:0000000000230000
#043380:00130000
#0433b0:000000000000000000000023000000000000000000000000
#0443b0:1300000000000023
#044380:0000000000333300
#0453b0:0013
#045370:00000033
#0463b0:23
#047320:13
#047350:0023000000000000
#047380:00130000
#0473b0:0000002300000000
#047350:0013
#047320:0000000000230000
#0473b0:00000013
#047380:0000000000000023
#048320:13
#048350:0023
#049380:13
#0493b0:00230000
#049321:13
#049351:00230000
#0493b1:0000000013000033
#049381:000000000000000000000000000000000033000000000000
#050381:00230000
#049350:0000000013000033
#049320:000000000000000000000000000000000033000000000000
#050320:00230000
#050380:0000001300000000
#0513b0:23
#050321:0000001300000000
#051351:23
#051351:0000000013000023
#051321:000000000000000000000000000000000033000000000000
#053381:0013002300000000
#0533b1:00330000
#053351:0000000000130023
#053321:00000033
#054381:0000000000130000
#0543b1:00000023
#055351:0013
#055321:0000000000230000
#056321:13
#056351:000000330023000000000000000000000000000000000000
#0563b1:0013
#056381:000000000000000000000000000033000023000000000000
#058381:000000000000000000000000000000000000000000000000000000000000000000000000000000000000000000000000000000000000000000000000001600000000000000000000000000000000000000000000000000000000000000000000000000000000000000000000000000000000000000000000000000000000000000000000000000000000000000000000000000000000000000000000000000000000000000000000000000000000000000000000000000000000000000000000
#0623b1:00230000
