This file was generated by Ched 2.7.0.0.
#TITLE ""
#ARTIST ""
#DESIGNER ""
#DIFFICULTY 0
#PLAYLEVEL
#SONGID ""
#WAVE ""
#WAVEOFFSET 0
#JACKET ""
#REQUEST "ticks_per_beat 480"
#00002: 4
#BPM01: 98
#00008: 01
#TIL00: ""
#HISPEED 00
#MEASUREHS 00
#0001c:12001212
#0001a:00120000
#00018:0012001200120012
#00013:1212121212120000
#00012:00120000001200000012000000000000
#00014:00000012000000120000001200000000
#00015:000000000000000000000000000000000000000000000012
#00212:0013000013001300
#00215:130000000000130000130000000000130000000000130012
#0021b:1313130000131300
#00216:000000000000000000000012000000000000000000000000
#00218:000000000012000000130000130000000000000000130000
#00618:1300000000000013
#0061b:000013000000000013130000000000000000130000000000
#00615:000000000013000000000013000000000000000000000013
#00612:000000000000000000000000000013000000000000130000
#0071b:1312000013000013
#00716:000000140000000000000000000000140000000000000012
#00718:000000000000140000000012000000000000000000000000
#00712:1300001313000000
#00715:00120000
#00714:00000014
#00713:0000000000120000
#00719:00000012
#00812:130000130000000000130000000000140000000012000000
#00814:0000000000000016
#00816:000000000000130000000000000012000000000000000012
#00819:000000000000000000000012000000000000000000000000
#00815:00001413
#00818:0000000000130000
#0081b:13130000
#00817:0013000000000000
#00918:160000131600000000000000
#00917:000000000000000000000000000000000000120000130012
#00915:001300
#00912:000000160000000000000016000000000000000000130000
#00916:000012000000000000000000000000140000000000000000
#0091c:00000012
#0261a:00120000
#0261c:1212
#02614:00120012
#02612:1212
#02616:0000001200000012
#02618:0012000000120000
#0281b:2300000000000013
#02814:0000130000130000
#02815:0000000000000000000000001300000013000000000000000000000000000013
#02813:0013000000001300
#02819:0000130000130000
#0281a:0013000000001300
#02818:000000000000000000130013000000000000000000000000
#02812:2300000000000013
#02817:000000000012000000000000000000000012000000000000
#0281f:21
#02912:0000001313131300
#02918:13
#0291b:0000001300000013
#02919:0013000000000000
#0291a:00130000
#02913:00130000
#02916:0013
#02914:0013000000000000
#02910:41
#03315:000000000000000000130000000013000013000000130000
#03318:000000000000000000000013000000130000000013000013
#03312:00131300
#0331b:13000013
#03415:0000000000130000
#0341b:1300130000000013
#03412:1313
#03418:000000000000000000000000000000000000130000000013
#03416:0013000000000000
#03417:0000001300000000
#04216:00130000000013000000000000000000
#04212:00130000000013000000000000001300
#0421b:0000000000000013
#04312:000000000000130000000000000000130000000000000013
#0431b:0000130000131300
#04315:130000000000000000130013000000000000000000000000
#04318:000000130000000013000000130000000000000000000000
#04316:000000000000000000000000000000000000001300000000
#04319:000000000013
#04314:0000000000000013
#04317:000000000000000000000013
#04518:0000001300000000
#04517:00130013
#04515:0013001300000000
#0451b:0013
#04512:1300000016131213
#04618:000000130000000000000013000000130000000000000013
#0461b:00132300
#04615:000000130000000000130000000000130000000000001300
#04617:00000013
#04612:1600230013002313
#04812:2300130000131300
#04819:0000000000000013
#04815:0013001313000000
#04814:0000000000000013
#04818:000013000000000000000013000000000000000000000000
#0481b:2300130000130000
#04817:00000013
#0511b:0000001323000000
#05112:0000001323000000
#05116:24
#05114:0000000000000024
#05118:0000000000000024
#0501b:00132300
#05015:0013001600130000
#05018:000000130000000000000000000000130000000014000000
#0501a:00000014
#05016:000000000000000000000000000000000000001400001400
#05012:230000000000130000000000230000000000000000000014
#05014:0000000000000014
#0521b:130000000000000000000013000000000000130000000000
#05218:000000133333000000130000000000130000003333000000
#05215:000000130000003333000000160000133333000000130000
#05212:130000000000130000000000000000000000000000000013
#05210:41
#0541b:000000130000000000000000000000000000000013000000
#05415:1613130000000000
#05418:0000001300130000
#05412:000000000000000000000013000000000000000000000000
#05414:000000000000001300000000
#05416:0013
#05419:000000000000000000000000000000000000000000000013
#05417:0000000000000013
#0561c:0000000000000012
#05612:130000000000000000000000130000000000000000000012
#05615:000000130000000000130000000013000013000000000000
#0561b:000000000013000000130000130013000000000000000000
#05618:001300000000000000000000
#05718:140000000000000000000000130000000000000000000000001200000000000000000000000000000000000000000000000000000000000000000000000000000000000000000000000000000000000000000000000000000000000000000000
#05717:000000000000000000000000000000000000000000000000000000000000000000000000000000000000000000000000000000000000000000000000000000000000000000000000000000000012000000000000000000000000000000000000000000000000000000000000000000000000000000000000000000000000000000000000000022000000000000000000000000000000000000000000000000000000000000000000000000000000000000000000000000000000000000000000
#05714:14
#05715:000000000000000000000000000000000000000000000000130000000000000000000000000000000000000000000000000000000000000000000000000000000000000000000000000000000000000000000000000000000000000000000000000000000000000000000000000000000000000000000000000000000000000000000000000000000000000000000000000000000000000000000000000000000000002200000000000000000000000000000000000000000000000000000000
#05716:000000000000000000000000000000000000000000000000001200000000000000000000000000000000000000000000000000000000000000000000000000000000000000000000000000000000000000000000000000000000000000000000
#05712:000000000000000000000000000000000000000000000000000000000000000000000000000000000000000000000000000000000000000000000000000000000000002200000000000000000000000000000000000000000000000000000000
#05719:000000000000000000000000000000000000000000000000000000000000000000000000000000000000000000000000000000000000000000000000000000000000000000000000000000000000000000000000000000000000000000000000000000000000000000000000000000000000000000000000000000000000000000000000000000000000000000000000000000000000000000000000000000000000002200000000000000000000000000000000000000000000000000000000
#01016:000000000014000000130000000000000014000000120012
#0101b:130000000000000000130000000013000000000000130000
#01012:000013000000000000000000130000000012000000000000
#0101c:000000000012000000000000000000000000000000000000
#01017:000000120000000000000012000000120000000000000000
#01010:41
#01112:1300131300230000
#01115:000000130000000013000000000000002300000000130000
#0111b:000013000000130000130000000000000000230000130000
#01118:130000000013000000000000000000000023000000000000
#03116:000000000013000000000000000000000000000000130000
#03117:000000000000000000130000000000000000000000000013
#03118:000000000000000000000013000013000000130000000000
#03115:000000000000000000000000130000130013000000000000
#03112:1300001300001300
#03114:0012000000000000
#03119:001200000000
#0311b:000000130000130000001300
#0321b:0000131300001300
#03212:130000130013
#03217:0000000000000013
#03216:000000000000000000130000000000000000000000000013
#03215:000000000000000000000013000013000000130000000000
#03218:000000000000000000000000130000130013000000000000
#05512:000000000000000013000000000000000000000000130000
#05515:13131300
#0551b:000000130000000013000000000000000000000000130000
#05518:000000000000000000000013130000000000000000000013
#04712:000000130013000000000000230000000000000000001300
#04718:000000001300230000000000000000000000000000130013
#04715:000000000000000000130013000000001300230000000000
#0471b:230000000000000000001300000000130013000000000000
#00418:000000000000000000000000000000000000000000130013
#00412:0000000000130013
#0041b:000000000000000000130013000000000000000000000000
#00416:000000000000000000000013000000000000000000000000
#00410:41
#00515:1300000000000013
#00518:000000000000000000000000000000000000000000000013
#0051b:0000000000130000
#00512:000000000000000013000013000000000000000000000000
#00517:000000000000000000000013000000000000000000000000
#01212:2300000013000013
#01218:130000000000000000130013000000000000000000000013
#01214:0013001300130000
#01216:00130013
#0121b:0013130000000013
#0151b:1313000000130013
#01515:000013000000130013000000000000000000130000130000
#01518:000000000000130000130000130000000000130013000000
#01512:130000130000000000130000130000130000000000000013
#0271c:12
#02712:1213
#0271a:00120000
#02714:00120013
#02718:0012000000001300
#02716:0000001200000000
#02713:0000000000130000
#02715:0000000000000013
#0271b:0013
#0301b:130000000000000000130013000000000000000000000000
#03018:000000130013000000000000000000130013000000130013
#03012:000000130000000000000000000000000000130013000000
#03015:000000131300131300000000
#04012:130000000000130000000013000000000000000000000000
#0401b:13131313
#04015:000000130013000000000000130000000000130000130000
#04018:0013001300130013
#04112:13230000
#04117:0000000000000013
#0411b:2300000000000023
#04113:000000000000000000000000000000000023000000000000
#0411a:0023
#05315:160000000000130000000000160000003333000000000000
#0531b:000000130000000000130013000000130000003333000000
#05312:000000130000003333000000000000130000000000130013
#05318:000000003333000000000000000000000000130000000000
#00112:12001212
#00114:00120000
#00116:0012001200120012
#0011b:1212121212120000
#0011c:00120000001200000012000000000000
#0011a:00000012000000120000001200000000
#00119:000000000000000000000000000000000000000000000012
#0031b:0013000013001300
#00318:130000000000130000130012000000130000000000130000
#00312:1313130000131300
#00315:000000000000000000130000130000000000000000000013
#00316:000000000012000000000000000000000000000000000000
#01319:0013001300130000
#01317:00130013
#0131b:1313
#01315:130000000000000000000013000000000000000000000013
#01312:0013130000000000
#01318:0000000000000013
#01415:1300000000000013
#01412:000013000000000013130000000000000000130000000000
#01418:000000000013000000000013000000000000000000000013
#0141b:000000000000000000000000000013000000000000130000
#0161c:000000000012
#01616:0013000000000016
#01618:000000000000000000000000000012000000130000000012
#01615:000000000000000000000012000000130000000000000000
#01617:00131400
#0161b:1313001300000000
#01612:13130000
#0161a:0000000000140000
#01610:41
#01715:00130000
#01716:0000000000140013
#01718:000012160000000013000016000000000000000000000000
#0171b:0000000000000013
#01712:160000001600000000120000
#01717:000000000000000000000000000000000000120000000012
#01816:000000000014000000000000000000000014000000000000
#01812:130000000012000000130000000013000000000000130000
#0181b:000013000000000000000000130000000000000000130000
#01817:000000120000000000130012000000120000000000000000
#0181c:000000000000000000000000000000000012000000000000
#01815:000000000000000000000000000000000000000000000013
#0191b:13231300
#01918:000013000000000013000013000000000000000000000000
#01915:000000130013000000130000000000000000000000000000
#01912:23132300
#01914:00000023
#0211a:00000000000000000000000023000013
#02117:0000000000000013
#02115:00230000
#02118:00230000
#02114:00000023
#0221b:00000013
#02216:00000013
#02217:0000000000000013
#02214:00280000
#02312:0013333300000000
#02317:00001300001300001300000000000000
#0231b:0000131300000000
#02313:00000023
#0231a:00000023
#03612:2300000000000013
#03619:0000130000130000
#03618:0000000000000000000000001300000013000000000000000000000000000013
#0361a:0013000000001300
#03614:0000130000130000
#03613:0013000000001300
#03615:000000000000000000130013000000000000000000000000
#0361b:2300000000000013
#03617:000000000012000000000000000000000012000000000000
#0371b:0000001313131300
#03715:13
#03712:0000001300000013
#03714:0013000000000000
#03713:00130000
#0371a:00130000
#03717:0013
#03719:0013000000000000
#0351b:2313
#0351a:0000002400130000
#03515:000000000023000000000000000000000000130000000000
#03519:00000013
#03518:000000000023000000000000000000000000000000130000
#03512:2300002413000000
#0391a:0012000000000000
#03915:000000001200000000000000130000130000130000000013
#03917:000000000013000000000000000000000000000000000000
#03912:1c0000000000130000000000000000000013000000000000
#03918:000000000000000000130000000000001300000000130000
#0391b:000000000000001300000000
#03910:41
#04412:00130000
#04414:0000001200000012
#04415:00001212
#04416:2300000000130000
#04918:0013001300000013
#04915:00130023
#0491b:2300000013130000
#04912:0013
#04917:000013
#04919:000000000000000000000000000000000013000000000000
#04914:000000000000000000000013
#04916:130000000000000000000000000000000000000000000013
#02414:00000000280000000000000000000018
#02416:0000000000000014
#02418:00000000000000000000000000140000
#02417:00000022
#03815:000000130013000000000000000000130013000000130013
#03812:130000000000000000130013000000000000000000000000
#0381b:000000130000000000000000000000000000130013000000
#03818:000000131300161300000000
#0201f:11
#02015:00230000
#02018:00230000
#02016:00000024
#0581c:00220000000000000000000000000000000000000000000000000000000000000000000000000000000000000000000000000000000000000000000000000000
#05816:000000000000000000000000000000000000000000000000000000000000000000000000000000000000000000000000000000000000000000000000002800003800000000000000380000000000000038000000000000000000000000000000000000000000000000000000000000000000000000000000000000000000000000000000000000000000000000000000000000000000000000000000000000000000000000000000000000000000000000000000000000000000000000000000
#05817:00220000000000000000000000000000000000000000000000000000000000000000000000000000000000000000000000000000000000000000000000000000
#0251a:00230000
#02513:00230000
#02518:00000026
#02512:00000026
#02952:00000063
#02956:0053
#04256:00230000000053000000000000000000
#04252:00230000000053000000000000000000
#04557:00000053
#0455b:0053
#05258:0063000000000000
#05252:00230000
#05255:0000000000530000
#0525b:00000023
#0545b:0023000000000000
#05455:00530000
#05458:0000000000630000
#01056:000000000014000000000000000000000014000000000000
#00652:000000000000005300000000
#00657:00000013
#00858:0000000000530000
#0085b:53530000
#00857:0053000000000000
#00952:000000560000000000000056000000120000000000000000
#00956:0000000000140000
#00958:565600
#03252:53
#0325b:00130000
#03452:53
#0345b:00530000
#03456:0023000000000000
#03457:0000002300000000
#02852:13
#0285b:13
#05156:14
#05152:0063
#0515b:0053
#05154:0000000000000034
#05158:0000000000000044
#05856:000000000000000000000000000000000000000000000000000000000000000000000000000000000000000000000000000000000000000000000000005800000000000000000000000000000000000000000000000000000000000000000000000000000000000000000000000000000000000000000000000000000000000000000000000000000000000000000000000000000000000000000000000000000000000000000000000000000000000000000000000000000000000000000000
#0415b:5300000000000053
#04152:00530000
#04153:000000000000000000000000000000000053000000000000
#0415a:0053
#04157:0000000000000053
#05555:5353
#05552:0000000000130000
#0555b:0053000000130000
#05558:0053
#0535b:0053000000000000
#05355:00230000
#05352:0000000000630000
#05358:00000023
#00053:5252525252520000
#00052:00220000002200000022000000000000
#00054:00000022000000220000002200000000
#0015b:6262626262620000
#0015c:00220000002200000022000000000000
#0015a:00000022000000220000002200000000
#00452:0000000000130000
#0045b:000000000000000000000053000000000000000000000000
#00456:0000000000130000
#0055b:0000000000130000
#00552:000000000000000000000063000000000000000000000000
#00557:0000000000130000
#0115b:00000043
#01258:000000000000000000000053000000000000000000000000
#0125b:0000000000130000
#01355:000000000000000000000063000000000000000000000000
#01352:0000530000130000
#0145b:000000000000006300000000
#01456:00000013
#01856:000000000014000000000000000000000014000000000000
#01655:0000000000630000
#01652:63630000
#01656:0063000000000000
#01758:000000660000000000000066000000000000000000000000
#01756:0000000000140000
#01752:666600
#0175c:0000000000120000
#0215a:00000000000000000000000000000023
#02157:0000000000000063
#02155:00530000
#02158:00630000
#02055:00530000
#02058:00630000
#02357:00000000002300000000000000000000
#02352:0053000000000000
#02552:0000000000000036
#02558:0000000000000046
#0275b:0053
#02758:00000053
#0315b:00430000
#0335b:63
#03352:00130000
#03552:1300001463000000
#03558:000000000013000000000000000000000000000000000000
#03555:00000063
#0375b:00000053
#03757:0063
#0365b:13
#03652:13
#03952:1c330000
#04052:00530000
#04055:0053
#0475b:53
#04758:00530000
#04755:00000063
#04752:0063
#04955:00000013
#0495b:13
#05052:1313
#0505b:0013
#05652:000000000013000000000000000000000000000000000000
#05655:0053000000000000
#0565b:000000000000005300000000
#05658:000000000000000000000000000000000013000000000000
#02454:00000000000000000000000000000028
#02457:00000062
#02456:0000000000000054
#02458:00000000000000000000000000240000
#03852:13
#03858:0016
#0485b:00430000
#04852:00330000
#000330:1252525252522200
#000320:00520000005200000052000000000000
#000340:00000052000000520000005200000000
#0013b0:1252525252522200
#0013c0:00520000005200000052000000000000
#0013a0:00000052000000520000005200000000
#004320:13
#004340:0023000000000000
#004371:0013000000000000
#004391:00230000
#004350:00130000
#004370:0000002300000000
#0043b0:000000000000000000000013000000000000000000000000
#004360:0000000000230000
#0053b0:13
#005390:0023000000000000
#005361:0013000000000000
#005341:00230000
#005380:000000132300000000000000
#005320:000000000000000000000013000000000000000000000000
#005370:0000000000230000
#006320:13
#006350:0023000000000000
#0063b1:0013000000000000
#006381:00230000
#006350:00130000
#006320:0000002300000000
#0063b0:000000000000000000000013000000000000000000000000
#006380:000000000000002300000000
#006321:000000000000001300000000
#006371:00000023
#0083b1:13330000
#008371:0033002300000000
#008381:0000000000130000
#0083b1:00000023
#009381:16
#0093c1:0022000000000000
#009320:0016220000000000
#009380:000000000000000016000022000000000000000000000000
#009321:000000000000000000000016000000220000000000000000
#012381:000000000000000000000013000000000000000000000000
#0123b1:0000000000230000
#013321:00130000
#013351:002300
#013351:000000000000000000000013000000000000000000000000
#013321:0000000000230000
#0143b1:13
#014381:0023000000000000
#014320:0013000000000000
#014350:00230000
#014381:00130000
#0143b1:0000002300000000
#014321:000000000000000000000013000000000000000000000000
#014351:000000000000002300000000
#0143b0:000000000000001300000000
#014360:00000023
#016320:13330000
#016360:0033002300000000
#016350:0000000000130000
#016320:00000023
#017320:1622000000000000
#017381:0016000000000000
#0173c1:00220000
#017321:001600
#017361:000000000000000000000022000000000000000000000000
#017380:000000000000000000000016000000000000000000000000
#0173c0:0000000000220000
#019340:000000000000000000000000000000000000000000000000000000000000000000000000000000000000000000000000000000000000000000000000000000000000000000000000000000000000000000000000000000000000000000000000000000000000000000000000000000000000000000000000000000000000000000000000000000000000000000000000000000000000000000000000000000000000000000000000000000000000000000000000000000000000000000000000000000000000000000000000000000000000000000000000000000000000000000000000000000000000000000000000000000000000000000000000000000000000000000000000000000000000000000000000000000000000000000000000000000000000000000000000000000000000000000000000000000000000000000000000000000000000000000000000000000000000000000000000000000000000000000000000000000000000000000000000000000000000000000000000000000000000000000000000000000000000000000000000000000000000000000000000000000000000000000000000000000000000000000000000000000000000000000000000000000000000000000000000000000000000000000000000000000000000000000000000000000000000000000000000000000000000000000000000000000000000000000000000000000000000000000000000000000000000000000000000000000000000000000000000000000000000000000000000000000000000000000000000000000000000000000000000000000000000000000000000000000000000000000000000000000000000000000000000000000000000000000000000000000000000000000000000000000000000000000000000000000000000000000000000000000000000000000000000000000000000000000000000000000000000000000000000000000000000000000000000000000000000000000000000000000000000000000000000000000000000000000000000000000000000000000000000000000000000000000000000000000000000000000000000000000000000000000000000000000000000000000000000000000000000000000000000000000000000000000000000000000000000000000000000000000000000000000000000000000000000000000000000000000000000000000000000000000000000000000000000000000000000000000000000000000000000000000000000000000000000000000000000000000000000000000000000000000000000000000000000000000000000000000000000000000000000000000000000000000000000000000000000000000000000000000000000000000000000000000000000000000000000000000000000000000000000000000000000000000000000000000000000000000000000000000000000000000000000000000000000000000000000000000000000000000000000000000000000000000000000000000000000000000000000000000000000000000000000000000000000000000000000000000000000000000000000000000000000000000000000000000000000000000000000000000000000000000000000000000000000000000000000000000000000000000000000000000000000000000000000000000000000000000000000000000000000000000000000000000000000000000000000000000000000000000000000000000000000000000000000000000000000000000000000000000000000000000000000000000000000000000000000000000000000000000000000000000000000000000000000000000000000000000000000000000000000000000000000000000000000000000000000000000000000000000000000000000000000000000000000000000000000000000000000000000000000130000000000000000000000000000000000000000000000000000000000000000000000000000000000000000000000000000000000000000000000000000000000000000000000000000000000000000000000000000000000000000000000000000000000000000000000000000000000000000000000000000000000000000000000000000000000000000000000000000000000000000000000000000000000000000000000000000000000000000000000000000000000000000000000000000000000000000000000000000000053580000000000000000000000000000000000000000000000000000000000380000000000000000000000000000000000000000000000000000000000585300000000000000000000000000000000000000000000000000000000000000000000000000000000000000000000000000000000000000000000000000000000000000000000000000000000000000000000000000000000000000000000000000000000000000000000000000000000000000000000000000000000000000000000000000000000000000000000000000000053580000000000000000000000000000000000000000000000000000000000000000000000000000000000000000000000000000000000000000000000
#020340:28
#020350:00130000
#020330:0000003323000000
#020381:00130000
#0203a1:0000003323000000
#020361:000000000000000000000000000000000000000000000000000000000000000000000000000000000000000000000000000000000000000000000000000000000000000000000000000000000000000000000000000000000000000000000000000000000000000000000000000000000000000000000000000000000000000000000000000000000000000000000000000000000000000000000000000000000000000000000000000000000000000000000000000000000000000000000000000000000000000000000000000000000000000000000000000000000000000000000000000000000000000000000000000000000000000000000000000000000000000000000000000000000000000000000000000000000000000000000000000000000000000000000000000000000000000000000000000000000000000000000000000000000000000000000000000000000000000000000000000000000000000000000000000000000000000000000000000000000000000000000000000000000000000000000000000000000000000000000000000000000000000000000000000000000000000000000000000000000000000000000000000000000000000000000000000000000000000000000000000000000000000000000000000000000000000000000000000000000000000000000000000000000000000000000000000000000000000000000000000000000000000000000000000000000000000000000000000000000000000000000000000000000000000000000000000000000000000000000000000000000000000000000000000000000000000000000000000000000000000000000000000000000000000000000000000000000000000000000000000000000000000000000000000000000000000000000000000000000000000000000000000000000000000000000000000000000000000000000000000000000000000000000000140000000000000000000000000000000000000000000000000000000000000000000000000000000000000000000000000000000000000000000000000000000000000000000000000000000000000000000000000000000000000000000000000000000000000000000000000000000000000000000000340000000000000000000000000000000000000000000000000000000000000000000000000000000000000000000000000000000000000000000000000000000000000000000000000000000000000000000000000000000054000000000000000000000000000000000000000000000000000000000000
#020331:000000000000000000000000000000000000000000000000000000000000005a
#021331:2a
#021351:00130000
#021331:0000003323000000
#021380:00130000
#0213a0:0000003323000000
#021340:0000000000001333
#022340:23
#0213a1:00000000000000000000000013000053
#021371:0000000000000033
#022371:23
#022341:000000000000000000000000000000000000000000000000000000000000000000000000000000000000000000000000000000000000000000000000000000000000000000000000000000000000000000000000000000000000000000000000000000000000000000000000000000000000000000000000000000000000000000000000000000000000000000000000000000000000000000000000000000000000000000000000000000000000000000000000000000000000000000000000000000000000000000000000000000000000000000000000000000000000000000000000000000000000000000000000000000000000000000000000000000000000000000000000000000000000000000000000000000000000000000000000000000000000000000000000000000000000000000000000000000000000000000000000000000000000000000000000000000000000000000000000000000000000000000000000000000000000000000000000000000000000000000000000000000000000000000000000000000000000000000000000000000000000000000000000000000000000000000000000000000000000000000000000000000000000000000000000000000000000000000000000000000000000000000000000180000000000000000000000000000000000000000000000000000000000000000000000000000000000000000000000000000000000000000000000585300000000000000000000000000000000000000000000000000000000000000000000000000000000000000000000000000000000000000000000000000000000000000000000000000000000000000000000000000000000000000000000000000000000000000000000000000000000000000000000000000000000000000000000000000000000000000000000000000000053580000000000000000000000000000000000000000000000000000000000380000000000000000000000000000000000000000000000000000000000585300000000000000000000000000000000000000000000000000000000000000000000000000000000000000000000000000000000000000000000000000000000000000000000000000000000000000000000000000000000000000000000000000000000000000000000000000000000000000000000000000000000000000000000000000000000000000000000000000000053580000000000000000000000000000000000000000000000000000000000000000000000000000000000000000000000000000000000000000000000280000000000000000000000000000000000000000000000000000000000000000000000000000000000000000000000000000000000000000000000000000000000000000000000000000000000000000000000000000000000000000000000000000000000000000000000000000000000000000000000000000000000000000000000000000000000000000000000000000000000000000000000000000000000000000000000000000000000000000000000000000000000000000000000000000000000000000000000000000000000000000000000000000000000000000000000000000000000000000000000000000000000000000000000000000000000000000000000000000000000000000000000000000000000000000000000000000000000000000000000000000000000000000000000000000000000000000000000000000000000000000000000000000000000000000000000000000000000000000000000000000000000000000000000000000000000000000000000000000000000000000000000000000000000000000000000000000000000000000000000000000000000000000000000000000000000000000000000000000000000000000000000000000000000000000000000000000000000000000000000000000000000000000000000000000000000000000000000000000000000000000000000000000000000000000000000000000000000000000000000000000000000000000000000000000000000000000000000000000000000000000000000000000000000000000000000000000000000000000000000000000000000000000000000000000000000000000000000000000000000000000000000000000000000000000000000000000000000000000000000000000000000000000000000000000000000000000000000000000000000000000000000000000000000000000000000000000000000000000000000000000000000000000000000000000000000000000000000000000000000000000000000000000000000000000000000000000000000000000000000000000000000000000000000000000000000000000000000000000000000000000000000000000000000000000000000000000000000000000000000000000000000000000000000000000000000000000000000000000000000000000000000000000000000000000000000000000000000000000000000000000000000000000000000000000000000000000000000000000000000000000000000000000000000000000000000000000000000000000000000
#022321:0000000000000013
#023321:0033333323000000
#023371:00000000005300000000000000000000
#023331:000000000000000000000000000000000000000000000000000000000000000000000000000000000000000000000000000000000000000000000000000000000000000000000000000000000000000000000000000000000000000000000000000000000000000000000000000000000000000000000000000000000000000000000000000000000000000000000000000000000000000000000000000000000000000000000000000000000000000000000000000000000000000000000000000000000000000000000000000000000000000000000000000000000000000000000000000000000000000000000000000000000000000000000000000000000000000000000000000000000000000000000000000000000000000000000000000000000000000000000000000000000000000000000000000000000000000000000000000000000000000000000000000000000000000000000000000000000000000000000000130000000000000000000000000000000000000000000000000000000000000000000000000000000000000000000000000000000000000000000000355300000000000000000000000000000000000000000000000000000000000000000000000000000000000000000000000000000000000000000000
#024331:23
#0233a0:000000000000000000000000000000000000000000000000000000000000000000000000000000000000000000000000000000000000000000000000000000000000000000000000000000000000000000000000000000000000000000000000000000000000000000000000000000000000000000000000000000000000000000000000000000000000000000000000000000000000000000000000000000000000000000000000000000000000000000000000000000000000000000000000000000000000000000000000000000000000000000000000000000000000000000000000000000000000000000000000000000000000000000000000000000000000000000000000000000000000000000000000000000000000000000000000000000000000000000000000000000000000000000000000000000000000000000000000000000000000000000000000000000000000000000000000000000000000000000000000130000000000000000000000000000000000000000000000000000000000000000000000000000000000000000000000000000000000000000000000005300000000000000000000000000000000000000000000000000000000000000000000000000000000000000000000000000000000000000000000
#023380:0000000000000035
#0243a0:23
#024340:000000000000000000000000185800000000000000000058280000000000000000000000000000000000000000000000
#024360:0000000000000000000000000000000000000000000000000000000000000000000000000000000000000000000000000000000000000000000000000000000000000000000000000000000000000000000000000000005400000000000000000000000000000000000000000000000000000000000000003400000000000000000000000000000000000000000000000000000000000000005400000000000000000000000000000000000000000000000000000000000000000000000000000000000000000000000000000000000000000000000000000000000000000000000000000000000000000000000000000000000000000000000000000000000000000000000000000000000000000000000000000000000000000000000000000000000000000000000000000000000000000000000000000000000000000000
#024370:00000012
#024340:000000000000000000000000000000000000000000000000000000000000000000000000000000000000000000000000000000000000000000000000000000000000000000000000000000000000000000000000000000000000000000000000000000000000000000000000000000000000000000000000000000000000000000000000000000000000000000000000000000000000000000000000000000000000000000000000000000000000000000000000000000000000000000000000000000000000000000000000000000000000000000000000000000000000000000000000000000000000000000000000000000000000000000000000000000000000000000000000000000000000000000000000000000000000000000000000000000000000000000000000000000000000000000000000000000000000000000000000000000000000000000000000000000000000000000000000000000000000000000000000000000000000000000000000000000000000000000000000000000000000000000000000000000000000000000000000000000000000000000000000000000000000000000000000000000000000000000000000000000000000000000000000000000000000000000000000000000000000000000000000000000000000000000000000000000000000000000000000000000000000000000000000000000000000000000000000000000000000000000000000000000000000000000000000000000000000000000000000000000000000000000000000000000000000000000000000000000000000000000000000000000000000000000000000000000000000000000000000000000000000000000000000000000000000000000000000000000000000000000000000000000000000000000000000000000000000000000000000000000000000000000000000000000000000000000000000000000000000000000000000000000000000000000000000000000000000000000000000000000000000000000000000000000000000000000000000000000000000000000000000000000000000000000000000000000000000000000000000000000000000000000000000000000000000000000000000000000000000000000000000000000000000000000000000000000000000000000000000000000000000000000000000000000000000000000000000000000000000000000000000000000000000000000000000000000000000000000000000000000000000000000000000000000000000000000000000000000000000000000000000000000000000000000000000000000000000000000000000000000000000000000000000000000000000000000000000000000000000000000000000000000000000000000000000000000000000000000000000000000000000000000000000000000000000000000000000000000000000000000000000000000000000000000000000000000000000000000000000000000000000000000000000000000000000000000000000000000000000000000000000000000000000000000000000000000000000000000000000000000000000000000000000000000000000000000000000000000000000000000000000000000000000000000000000000000000000000000000000000000000000000000000000000000000000000000000000000000000000000000000000000000000000000000000000000000000000000000000000000000000000000000000000000000000000000000000000000000000000000000000000000000000000000000000000000000000000000000000000000000000000000000000000000000000000000000000000000000000000000000000000000000000000000000000000000000000000000000000000000000000000000000000000000000000000000000000000000000000000000000000000000000000000000000000000000000000000000000000000000000000000000000000000000000000000000000000000000000000000000000000000000000000000000000000000000000000000000000000000000000000000000000000000000000000000000000000000000000000000000000000058000000000000000000000000000000000000000000000000000000000000000000000000000000000000000000000000000000000000000000000000000000000000000000000000000000000000000000000000000000000000000000000000000000000000000000000000000000000000000000000000000000000000000000000000000000000000000000000000000000000000000000000000000000000000000000000000000000000000000000000000000000000000000000000000000000000000000000000000000000000000000000000000000000000000000000000000000000000000000000000054580000000000000000000000000000000000000000000000000000000000000000000000000000000000000000000000000000000000000000000000000000000000000000000000000000000000000000000000000000000000000000000000000000000000000000000000000000000000000000000000
#024380:00000000000000000000000000540000
#024360:0000000000000034
#025370:22
#0253a0:000000000000000000000000000000000000000000000000000000000000000000000000000000000000000000000000000000000000000000000000000000000000000000000000000000000000000000000000000000000000000000000000000000000000000000000000000000000000000000000000000000000000000000000000000000000000000000000000000000000000000000000000000000000000000000000000000000000000000000000000000000000000000000000000000000000000000000000000000000000000000000000000000000000000000000000000000000000000000000000000000000000000000000000000000000000000000000000000000000000000000000000000000000000000000000000000000000000000000000000000000000000000000000000000000000000000000000000000000000000000000000000000000000000000000000000000000000000000000000000000000000000000000000000000000000000000000000000000000000000000000000000000000000000000000000000000000000000000000000000000000000000000000000000000000000000000000000000000000000000000000000000000000000000000000000000000000000000000000000000000130000000000000000000000000000000000000000000000000000000000000000000000000000000000000000000000000000000000000000000000000000000000000000000000000000000000000000000000000000000000000000000000000000000000000000000000000000000000000000000000000000000000000000000000000000000000000000000000000000000000000000000000000000000000000000000000000000000000000000000053000000000000000000000000000000000000000000000000000000000000000000000000000000000000000000000000000000000000000000000000000000000000000000000000000000000000000000000000000000000000000000000000000000000000000000000000000000000000000000000000005300000000000000000000000000000000000000000000000000000000000000000000000000000000000000000000000000000000000000000000000000000000000000000000000000000000000000000000000000000000000000000000000000000000000000000000000000000000000000000000000000000000000000000000000000000000000000000000000000000000000000000000000000000000000000000000000000000000000000000000230000000000000000000000000000000000000000000000000000000000000000000000000000000000000000000000000000000000000000000000000000000000000000000000000000000000000000000000000000000000000000000000000000000000000000000000000000000000000000000000000000000000000000000000000000000000000000000000000000000000000000000000000000000000000000000000000000000000000000000000000000000000000000000000000000000000000000000000000000000000000000000000000000000000000000000000000000000000000000000000000000000000000000000000000000000000000000000000000000000000000000000000000000000000000000000000000000000000000000000000000000000000000000000000000000000000000000000000000000000000000000000000000000000000000000000000000000000000000000000000000000000000000000000000000000000000000000000000000000000000000000000000000000000000000000000000000000000000000000000000000000000000000000000000000000000000000000000000000000000000000000000000000000000000000000000000000000000000000000000000000000000000000000000000000000000000000000000000000000000000000000000000000000000000000000000000000000000000000000000000000000000000000000000000000000000000000000000000000000000000000000000000000000000000000000000000000000000000000000000000000000000000000000000000000000000000000000000000000000000000000000000000000000000000000000000000000000000000000000000000000000000000000000000000000000000000000000000000000000000000000000000000000000000000000000000000000000000000000000000000000000000000000000000000000000000000000000000000000000000000000000000000000000000000000000000000000000000000000000000000000000000000000000000000000000000000000000000000000000000000000000000000000000000000000000000000000000000000000000000000000000000000000000000000000000000000000000000000000000000000000000000000000000000000000000000000000000000000000000000000000000000000000000000000000000000000000000000000000000000000000000000000000000000000000000000000000000000000000000000000
#025380:0000000000000000000000553555000000000000000000000000000000000000
#025331:000000000000000000000000000000000000000000000000000000000000000000000000000000000000000000000000000000000000000000000000000000000000000000000000000000000000000000000000000000000000000000000000000000000000000000000000000000000000000000000000000000000000000000000000000000000000000000000000000000000000000000000000000000000000000000000000000000000000000000000000000000000000000000000000000000000000000000000000000000000000000000000000000000000000000000000000000000000000000000000000000000000000000000000000000000000000000000000000000000000000000000000000000000000000000000000000000000000000000000000000000000000000000000000000000000000000000000000000000000000000000000000000000000000000000000000000000000000000000000000000000000000000000000000000000000000000000000000000000000000000000000000000000000000000000000000000000000000000000000000000000000000000000000000000000000000000000000000000000000000000000000000000000000000000000000000000000000000000000000000000130000000000000000000000000000000000000000000000000000000000000000000000000000000000000000000000000000000000000000000000000000000000000000000000000000000000000000000000000000000000000000000000000000000000000000000000000000000000000000000000000000000000000000000000000000000000000000000000000000000000000000000000000000000000000000000000000000000000000000000053550000000000000000000000000000000000000000000000000000000000000000000000000000000000000000000000000000000000000000000000350000000000000000000000000000000000000000000000000000000000000000000000000000000000000000000000000000000000000000000000555300000000000000000000000000000000000000000000000000000000000000000000000000000000000000000000000000000000000000000000000000000000000000000000000000000000000000000000000000000000000000000000000000000000000000000000000000000000000000000000000000000000000000000000000000000000000000000000000000000000000000000000000000000000000000000000000000000000000000000000230000000000000000000000000000000000000000000000000000000000000000000000000000000000000000000000000000000000000000000000000000000000000000000000000000000000000000000000000000000000000000000000000000000000000000000000000000000000000000000000000000000000000000000000000000000000000000000000000000000000000000000000000000000000000000000000000000000000000000000000000000000000000000000000000000000000000000000000000000000000000000000000000000000000000000000000000000000000000000000000000000000000000000000000000000000000000000000000000000000000000000000000000000000000000000000000000000000000000000000000000000000000000000000000000000000000000000000000000000000000000000000000000000000000000000000000000000000000000000000000000000000000000000000000000000000000000000000000000000000000000000000000000000000000000000000000000000000000000000000000000000000000000000000000000000000000000000000000000000000000000000000000000000000000000000000000000000000000000000000000000000000000000000000000000000000000000000000000000000000000000000000000000000000000000000000000000000000000000000000000000000000000000000000000000000000000000000000000000000000000000000000000000000000000000000000000000000000000000000000000000000000000000000000000000000000000000000000000000000000000000000000000000000000000000000000000000000000000000000000000000000000000000000000000000000000000000000000000000000000000000000000000000000000000000000000000000000000000000000000000000000000000000000000000000000000000000000000000000000000000000000000000000000000000000000000000000000000000000000000000000000000000000000000000000000000000000000000000000000000000000000000000000000000000000000000000000000000000000000000000000000000000000000000000000000000000000000000000000000000000000000000000000000000000000000000000000000000000000000000000000000000000000000000000000000000000000000000000000000000000000000000000000000000000000000000000000000000000000000000000
#025321:0000000000001626
#025380:0000000000001626
#0263a0:0000000000001222
#0273b0:0013
#027380:0000000000230000
#027380:00000013
#0273b0:0000000000000023
#029360:0013
#0293b0:00000023
#029321:00000013
#030371:23
#032321:13
#032361:00230000
#0333b1:13
#033371:00230000
#034321:13230000
#034361:0053000000000000
#0343b0:00132300
#034370:0000005300000000
#035320:0013
#035350:0000000000230000
#035350:00000013
#035320:0000000000000023
#037370:0013
#037320:00000023
#0373b1:00000013
#038361:23
#040321:00130000
#040351:0000002300000000
#040351:0013
#040321:0000000000230000
#0413b1:13
#041361:00230000
#041320:00130000
#041370:0023
#0413a1:0013
#041361:000000000000000000000000000000000023000000000000
#041330:000000000000000000000000000000000013000000000000
#041370:0000000000000033
#042320:00530000000000000000000000000000
#042370:00230000
#0413b1:0000000000000013
#042361:00530000000000000000000000000000
#0423b1:00230000
#042321:0000001300000000
#042371:0000000000230000
#042360:0000001300000000
#0423b0:0000000000230000
#044360:13
#0443b0:0000000000330000
#044390:00000033
#044370:0000000000000033
#0453b0:00230000
#0453b0:0013
#045370:00000033
#0463b0:23
#0473b0:13
#047380:0023000000000000
#047380:00130000
#0473b0:0000002300000000
#047320:0013
#047350:0000000000230000
#047350:00000013
#047320:0000000000000023
#051320:0013
#051350:000000000000000000000000000000000023000000000000
#0513b1:0013
#051381:000000000000000000000000000000000023000000000000
#052381:000000133333000000000000000000000000000000000000
#0523b1:00230000
#052320:00130000
#052350:000000000000003333230000000000000000000000000000
#052350:000000000000000000000000000000133333000000000000
#052320:00000023
#0523b1:00000013
#052381:000000000000000000000000000000000000003333230000
#0533b1:0013000000000000
#053381:000000003333230000000000000000000000000000000000
#053350:00130000
#053320:000000000000003333230000000000000000000000000000
#053320:0000000000130000
#053350:000000000000000000000000000000003333230000000000
#053381:00000013
#0533b1:000000000000000000000000000000000000003333230000
#0543b1:0013000000000000
#054381:00230000
#054350:00130000
#054320:0000002300000000
#054380:0000000000130000
#0543b0:00000023
#055350:13
#055320:0023000000000000
#0553b1:0013000000000000
#055381:00230000
#055351:0013
#055321:0000000000230000
#055380:0013
#0553b0:0000000000230000
#056350:0013000000000000
#056320:000000000023000000000000000000000000000000000000
#0563b0:000000000000001300000000
#056380:000000000000000000000000000000000023000000000000
#058360:000000000000000000000000000000000000000000000000000000000000000000000000000000000000000000000000000000000000000000000000001800003800000000000000380000000000000038000000000000000000000000000000000000000000000000000000000000000000000000000000000000000000000000000000000000000000000000000000000000000000000000000000000000000000000000000000000000000000000000000000000000000000000000000000
#062320:00220000
