This file was generated by Ched 2.7.0.0.
#TITLE ""
#ARTIST ""
#DESIGNER ""
#DIFFICULTY 0
#PLAYLEVEL
#SONGID ""
#WAVE ""
#WAVEOFFSET 0
#JACKET ""
#REQUEST "ticks_per_beat 480"
#00002: 4
#BPM01: 98
#00008: 01
#TIL00: ""
#HISPEED 00
#MEASUREHS 00
#0061a:1414
#00614:00140014
#01214:00140000
#0121a:24
#04614:14
#04612:0014
#04618:00140000
#0461a:00000014
#00218:1414
#02412:00000014
#0241a:00140000
#0251a:00140000
#02512:00000016
#02618:00000016
#01519:0014
#01513:14
#0001a:1414
#0041a:1414
#00414:00140000
#00410:41
#00812:1414
#00818:00140000
#01012:1414
#01018:00140014
#01010:41
#01312:14
#01318:00140000
#0141a:14
#01412:00140000
#01612:14
#01618:00140000
#01610:41
#0171a:14
#01714:00140000
#0201a:00140000
#02012:00000014
#0201f:11
#0211a:00140000
#02112:00000014
#0221a:00140000
#02818:00000014
#02812:24
#0281f:21
#02914:00000014
#02918:14
#02910:41
#0301a:14
#03013:00140000
#03019:0014
#03012:00000014
#03118:14
#03112:0014
#0311a:00000014
#03314:00001414
#03318:0000000000140014
#03514:14000014
#03518:0014
#0391a:0014
#03912:00000014
#03914:14
#03910:41
#04218:16
#04212:0016
#0431a:14
#04312:00140000
#04318:0014
#04314:00000014
#04918:14
#04914:00140000
#0491a:0014
#04912:00000014
#00114:1414
#00312:1414
#03418:00000014
#03412:0014
#0341a:00140000
#03414:14
#05219:1414
#05210:41
#05313:1414
#00512:1414
#00518:00140000
#0091a:1414
#00914:00140000
#03614:00000014
#0361a:24
#03718:00000014
#03714:14
#03812:14
#03819:00140000
#03813:0014
#0381a:00000014
#0321a:0014
#03212:00000014
#02714:0014
#02718:00000014
#04012:0014
#0401a:00000014
#04118:0014
#04114:00000014
#0441a:14
#04417:0014
#04512:0014
#0451a:00000014
#04712:0014
#04714:14
#04718:00140000
#04815:14
#05418:14
#05412:00140000
#0541a:0014
#05514:14
#0551a:00140000
#05512:0014
#0561a:14
#05614:00140000
#05618:0014
#05612:00000014
#01813:2424
#01819:2424
#0191a:2424
#01912:00240024
#01914:2424
#01918:00240024
#05114:28
#01152:00000014
#04258:16
#04252:0016
#02352:00000014
#01553:14
#01559:0014
#0245a:00140000
#02452:00000014
#0255a:00140000
#02552:00000016
#02658:00000016
#0305a:14
#03059:0014
#03158:14
#02958:64
#02852:64
#03852:14
#03853:0014
#03954:14
#03754:54
#0365a:54
#0445a:64
#04457:0024
#04855:24
#04752:0054
#05154:18
#0073a0:1424
#011320:1400003400002400
#012380:00001424
#013340:00001424
#0143a0:00001424
#016340:00001424
#017380:00001424
#022320:00000014
#023340:3434
#023320:00340024
#028320:14
#028340:0024
#029380:14
#0293a0:0024
#032340:14240000
#033380:14240000
#0363a0:14
#036380:0024
#037340:14
#037320:0024
#040380:14240000
#041340:14240000
#0443a0:14
#044370:0054
#0453a0:24
#047320:0014
#048350:34
#048320:0024
#050340:1838383838383838
#051340:28
#0573a0:1400000000000000340000000034000000000000000034000000003400000000
#0583a0:24
#058340:00140000
#059320:00340000000000000000000000000000
#059340:00000000000000000034000000000000
#062320:24
