This file was generated by Ched 2.7.0.0.
#TITLE ""
#ARTIST ""
#DESIGNER ""
#DIFFICULTY 0
#PLAYLEVEL
#SONGID ""
#WAVE ""
#WAVEOFFSET 0
#JACKET ""
#REQUEST "ticks_per_beat 480"
#00002: 4
#BPM01: 168
#00008: 01
#TIL00: ""
#HISPEED 00
#MEASUREHS 00
#0011a:14
#0021a:14
#00314:14
#00414:14
#01014:14
#0111a:14
#01214:14
#03318:14
#0331f:11
#03412:14
#0351a:14
#03614:14
#04118:2616
#0411f:21
#04212:1616
#04210:41
#04312:0016
#04318:16
#04418:16
#04518:16
#04512:0016
#04618:16
#04612:0016
#04912:1616
#05018:1616
#05118:0016
#05112:16
#05212:16
#05312:16
#05318:0016
#05412:16
#05418:0016
#06012:14
#06018:0014
#05614:0014
#0561a:14
#06112:14
#06118:0014
#06414:0014
#0641a:14
#06518:14
#06512:0014
#06510:41
#0721a:14
#00518:14
#00618:14
#00712:14
#00812:14
#0091a:14
#00910:41
#01412:14
#01518:14
#01612:14
#01318:14
#01814:14
#01918:14
#02012:14
#0171a:14
#01710:41
#02214:14
#02318:14
#02412:14
#0211a:14
#03718:14
#03812:14
#0391a:14
#04014:14
#0571a:14
#05714:0014
#05710:41
#06818:0014
#06812:14
#06914:14
#0691a:0014
#04813:14
#04819:14
#02510:41
#025380:14
#026380:24
#027340:14
#028340:24
#0293a0:14
#0303a0:24
#031320:14
#032320:24
#047380:1626
#055320:1626
#0583a0:14
#0593a0:24
#062320:14
#063320:24
#0663a0:14
#067380:24
#070320:14
#071340:24
#073320:16
#077320:0024
