This file was generated by Ched 2.7.0.0.
#TITLE ""
#ARTIST ""
#DESIGNER ""
#DIFFICULTY 0
#PLAYLEVEL
#SONGID ""
#WAVE ""
#WAVEOFFSET 0
#JACKET ""
#REQUEST "ticks_per_beat 480"
#00002: 4
#BPM01: 168
#00008: 01
#TIL00: ""
#HISPEED 00
#MEASUREHS 00
#00015:00000000000000000000001300000000
#00018:0000000000130000
#0001a:00000014
#00114:2413
#00112:0000131300000000
#00116:0000000000130000
#00117:0000131300000000
#00119:0013000000001300
#0011b:0000000000000013
#0011a:24
#00417:0013001313001300
#0041b:0000130000130013
#00416:0000130000130013
#00412:00001300000000130000000013000000
#00818:00000000130000000000001300000000
#00812:0000130013000013
#00815:0013001300131300
#0081b:0013000013000013
#00915:13
#00916:0000000013000013
#00912:00000013000000000000000013000000
#00918:0000131300000000
#0091b:23
#00910:41
#0101b:1300130013000013
#01012:1300130013000013
#01016:0013000000130000
#01017:0000001300000000
#01117:13
#01112:1300130000130000
#0111b:0013000013001300
#01116:0013
#01114:0000001300000000
#01119:0000000000000013
#01115:0013000000000000
#01118:0000000000130000
#01218:0000001300000000
#01217:13
#01219:0000000000000013
#0121b:00001313
#01215:0000000013130000
#01212:1300001300000013
#01512:0000001313000000
#0151b:00000013000000001300000013000000
#01517:13
#01519:0000000000000013
#01514:0000000000000013
#01515:00130000
#02418:0000000000130013
#02415:00000013
#02419:0013000000000000
#02414:0000001300000000
#02416:1313
#02417:00130000
#0241b:1313
#02412:00130000
#02519:0013001300000000
#0251b:2300000013000013
#02512:00130000
#02516:13
#02517:00130000
#02510:41
#0271b:1313
#02718:0000131300000000
#02716:1313
#02712:00000013
#02719:0000000000000013
#02812:13001313
#0281b:1300001300001300
#02816:00140000
#02818:0000000013000013
#02815:0000000000130000
#0391b:0000001300000013
#03915:13
#03912:0000001300000023
#03918:23
#04116:00000014000000001300001400000000
#0411b:0000131300000000
#0411a:2414
#04112:2400000000001313
#0411f:21
#04415:00000000000000130000000000000000
#0441b:1300130013000013
#04412:0000130000130000
#04414:00000013
#04416:1300000000000013
#04418:0000001300000000
#04417:0000000000130000
#04419:00000013
#05617:1313
#0561b:0000000000130000
#05612:1300000000001313
#05616:0000130000130000
#05614:0013000000000000
#05619:0000001300000000
#0571b:2313000000001313
#05716:2313000000140014
#05717:0000001313000000
#05712:0000000000130000
#05710:41
#0581b:00000000000000130000000000000000
#05817:13
#05815:0000130000130000
#05812:13001313
#05912:1300001313000013
#05917:13000000000000130000000000001300
#0591b:00130000
#05919:0013000000000000
#05914:0013000000000000
#0641b:1300130000130000
#06415:1300130013000013
#06418:0013001300001300
#06412:0013001300000000
#0651b:2313001300000000
#0651a:0000000000140000
#06512:1313000000000014
#06517:0000000000000013
#06518:0013
#06516:0000000000130000
#06514:00000013
#06510:41
#06712:1300001300001300
#06718:00000000130000001300001300000000
#06715:0013000000130000
#06716:0000000000000013
#0671b:1300001300000013
#07212:1300000000000013
#0721b:0000130000000013
#07219:0013000000000000
#07216:00130000
#07217:13
#04512:13131300
#04515:0000001300000000
#0451b:13001313
#04518:0000000000000013
#04517:00000013000000000000000000000000
#04516:00000000000000000000001300000000
#04715:13
#0471b:1300000000130013
#04712:00000000130000130000000013000000
#04717:0013
#04716:0000000000141414
#04615:0000001300001300
#0461b:13001313
#04612:1300130013000013
#04617:00000013000000000000000000000000
#04618:0000000000000013
#02614:0013001300000000
#02612:1300000013000013
#0261b:00130000
#02617:13
#02616:00130000
#02912:13000000130000000000001300000000
#02916:0000001313000000
#02917:00000013000000000000000000000000
#0291b:1300000013000013
#02918:00000013
#03112:1300131313000013
#0311b:13000013
#03119:0000000000130000
#03118:0000000000000013
#03117:0013
#03215:13
#0321b:1300000013000013
#03217:00130013
#03214:0000001800180000
#03216:0000000013000013
#03212:00130013
#04216:0014000013000013
#04217:13130000
#04212:14000013
#0421b:0013000013000013
#04219:0000001300000000
#04214:0000001300000000
#04210:41
#04317:1313
#04319:0000001300000000
#04312:1300001313000000
#04316:0013000000130000
#04314:0000000000000013
#0431b:00130013
#00514:1413
#0051a:14
#00512:0000131300130000
#00517:0000131300000000
#00519:0013000000001300
#0051b:0000000013000013
#00516:00000013
#00712:1400000013000013
#00718:14
#00719:0013
#0071b:0000131300130000
#00716:0000131300000000
#00714:0013000000001300
#00717:00000013
#01312:13130000
#01312:13
#01317:1300000000000013
#01314:0000001300000000
#01316:0013
#0131b:00001313
#01318:0000001300000000
#0141b:1300001313000000
#01416:1300001300000000
#01419:0000000000131300
#01414:0000000000130000
#01417:0000130000000013
#01412:0000130000000013
#01617:1313
#01612:13000000000000130000000013000000
#0161b:0000130000130000
#01616:00130000
#01615:0000000000000013
#01618:00000013
#03012:1300001300000000
#03017:13
#03016:00140000
#0301b:0000001300001300
#03015:0000000013000013
#03018:0000000000130000
#0371b:1300001300131300
#03717:0013000000000000
#03719:00130000
#03712:1313000013000013
#03716:0000000000130000
#03714:00000013
#03715:00130000
#03816:00130000
#03818:00000000000000130000000000000000
#03815:0013
#03817:0013000000130013
#03812:0013000000130013
#0381b:13130013
#04015:00000013000000000000000000001300
#04018:00000013000000000000000013000000
#0401b:0000000000130000
#04815:00130013
#04819:0000001300000000
#04812:0013000000130000
#04818:0000000000000013
#0481b:0013000013000000
#04814:0000001300000000
#06112:2313000000001313
#06116:0000001313140014
#06117:2313000000000000
#0611b:0000000000130000
#06317:0000000000000013
#06312:0000130000000013
#0631b:1300001313000000
#06316:13000000000000130000000000000000
#06314:0013000000000000
#06319:0013000000000000
#06619:0013001300130000
#06617:1313
#0661b:00130000
#06615:00130000
#06612:0013
#06614:0000000000130000
#06616:00000013
#07314:18
#00212:0013130013001300
#00219:0000001300130000
#00217:00130000000000001300000000000000
#0021b:00000013
#00215:0000000000000013
#00318:14
#00312:1400000000000013
#00319:0013
#0031b:0000131300000000
#00317:0000000000130000
#00316:0000131300000000
#00314:0013000000001300
#00615:0000000000000013
#00612:0013130000001300
#00614:0000001300130000
#0061b:00001313
#00616:0013
#00617:00130000000000000000000000000000
#01718:13
#01717:0000000013000013
#0171b:00000013000000000000000013000000
#01715:0000131300000000
#01712:23
#01710:41
#0181b:1300130013000013
#01812:1300130013000013
#01817:0013000000130000
#01816:0000001300000000
#01916:13
#0191b:1300130000130000
#01912:0013000013001300
#01917:0013
#01919:0000001300000000
#01914:0000000000000013
#01918:0013000000000000
#01915:0000000000130000
#02016:13
#0201b:1300001300000013
#02015:0000001300000000
#02014:0000000000000013
#02012:00001313
#02018:0000000013130000
#0211b:13130000
#0211b:13
#02116:1300000000000013
#02119:0000001300000000
#02117:0013
#02112:00001313
#02115:0000001300000000
#02212:1300001313000000
#02217:1300001300000000
#02214:0000000000131300
#02219:0000000000130000
#02216:0000130000000013
#0221b:0000130000000013
#0231b:0000001313000000
#02312:00000013000000001300000013000000
#02316:13
#02314:0000000000000013
#02319:0000000000000013
#02318:00130000
#03316:00130000
#03312:13
#03319:0013001300000000
#03317:2300000013000013
#0331b:00130000
#0331f:11
#03417:00130000
#0341b:13
#03414:0013001300000000
#03416:1300000013000013
#03412:00130000
#03512:1313
#03515:0000131300000000
#03517:1313
#0351b:00000013
#03514:0000000000000013
#0361b:1300001300000013
#03612:1300000000130000
#03616:0000141300000013
#03619:00001313
#03614:00001313
#03617:0000000000130000
#0531b:13131300
#05318:0000001300000000
#05312:13001313
#05315:0000000000000013
#05316:00000013000000000000000000000000
#05317:00000000000000000000001300000000
#0541b:1300130013000013
#05418:0000001300001300
#05412:13001313
#05416:00000013000000000000000000000000
#05415:0000000000000013
#05518:13
#05512:1300000000130013
#0551b:00000000130000130000000013000000
#05516:0000000013141414
#06016:1313
#06012:0000000000130000
#0601b:1300000000001313
#06017:0000130000130000
#06014:0000001300000000
#06019:0013000000000000
#06212:00000000000000130000000000000000
#06216:13
#06218:0000130000130000
#0621b:13001313
#04917:0013
#04912:2400131314000000
#0491b:0000000000001313
#04916:00000014000000000000001400000000
#0491a:24
#05218:00000000000000130000000000000000
#05212:1300130013000013
#0521b:0000130000130000
#05219:00000013
#05217:1300000000000013
#05215:0000001300000000
#05216:0000000000130000
#05214:00000013
#05017:0000000013000013
#05016:1314130000000000
#0501a:14
#05012:0013000013000013
#05014:0000001300000000
#05019:0000001300000000
#0501b:00000013
#05116:1313
#05114:0000001300000000
#0511b:1300001313000000
#05117:0013000000130000
#05119:0000000000000013
#05112:00130013
#06812:1300130000130000
#06818:1300130013000013
#06815:0013001300001300
#0681b:0013001300000000
#06912:2313001300140000
#0691a:0000000000000014
#06916:0000000000000013
#06915:0013
#06917:0000000000130000
#06919:00000013
#0691b:1313000000000000
#0711b:1300001300001300
#07115:00000000130000001300001300001300
#07118:0013000000130000
#07112:1300001300000000
#07014:0013001300130000
#07016:1313
#07012:00130000
#07018:00130000
#0701b:0013
#07019:0000000000130000
#07017:00000013
#03952:0000002300000053
#0395b:0000002300000053
#03955:53
#03958:53
#05756:0053000000440034
#05857:53
#0585b:00000000000000230000000000000000
#05657:53
#05656:00530000
#0645b:63530000
#06458:0023002300000000
#0655a:0000000000440000
#06552:0053000000000034
#0415a:4454
#04152:54
#04156:00000024000000000000002400000000
#02556:53
#02552:00230000
#0255b:0043
#0265b:00230000
#02657:63
#02652:0033
#02852:33
#0285b:43
#0275b:0053
#02756:53
#0295b:53
#02957:00000023000000000000000000000000
#02952:00000000000000000000002300000000
#02956:0053
#0315b:53
#03152:1353
#0445b:43
#04252:64
#04256:0024000013000000
#0425b:0013
#04352:6363
#04356:0023000000230000
#04357:4343
#00157:0000006300000000
#00156:0000000000630000
#0015b:0000000000000053
#00955:53
#00952:00000023000000000000000000000000
#01157:63
#0115b:0023000000000000
#01156:0053
#01152:0000000000230000
#01257:13
#01357:63
#01356:0053
#0145b:13
#01557:63
#01552:0063
#0155b:00000023000000000000000000000000
#01657:43
#03052:13
#03057:13
#03055:0013
#0305b:00000013
#0325b:43
#03255:33
#0375b:6300002300000000
#03757:0023000000000000
#03759:00530000
#03752:0000000053000023
#03756:0000000000230000
#03754:00000063
#04055:00000023000000000000000000000000
#04058:00000023000000000000000000000000
#04557:00000023000000000000000000000000
#0455b:6343
#04556:00000000000000000000002300000000
#04552:3353
#04657:00000023000000000000000000000000
#0465b:6343
#04652:3333
#0475b:53
#06156:0000000000340044
#06157:0063000000000000
#06659:0053006300530000
#06657:2323
#0665b:00230000
#07354:68
#0005a:00000044
#00357:0000000000530000
#00356:0000005300000000
#00552:0000000000630000
#00557:0000006300000000
#0055b:0000000023000053
#00556:00000023
#0075b:0000000000530000
#00756:0000005300000000
#00752:0023
#00757:00000023
#01758:63
#0175b:00000023000000000000000000000000
#01956:53
#01952:0023000000000000
#01957:0063
#0195b:0000000000230000
#02056:13
#02156:53
#02157:0063
#02252:13
#0235b:0053
#02352:00000023000000000000000000000000
#02356:53
#03356:00230000
#03352:6333
#03457:00230000
#0345b:5343
#03552:0063
#03557:63
#0365b:43
#03652:33
#0535b:4363
#05352:5333
#05356:00000023000000000000000000000000
#05357:00000000000000000000002300000000
#0545b:4343
#05452:5333
#05456:00000023000000000000000000000000
#05552:63
#06056:63
#06057:00530000
#06252:00000000000000230000000000000000
#06256:63
#00257:00230000000000000000000000000000
#00657:00230000000000000000000000000000
#0105b:1313
#01052:00130000
#01852:1313
#0185b:00130000
#02456:1313
#02457:00130000
#04952:3464
#04956:00000024000000000000002400000000
#0495a:64
#05156:3333
#0515b:5353
#05157:0023000000230000
#05252:33
#0505a:54
#05052:0013
#05057:0013
#05056:0024000000000000
#06852:53630000
#06855:0023002300000000
#06952:0000000000340000
#0695a:0000000000000044
#0695b:0063000000000000
#07054:0063005300630000
#07056:2323
#07052:00230000
#001370:0000001300000000
#0013b0:0000000000230000
#001361:0000000000130000
#001321:0000000000000023
#0013b0:0000000000000013
#002370:00530000000000000000000000000000
#0023b0:00230000
#003360:0000001300000000
#003320:0000000000230000
#003371:0000000000130000
#0033b1:0000000000000023
#005371:0000001300230000
#0053b1:0053
#005320:0000000000130023
#005360:00000053
#0053b1:0000000000000013
#006371:00530000000000000000000000000000
#0063b1:00230000
#007361:0000001300230000
#007321:0053
#0073b0:0000000000130023
#007370:00000053
#009350:1300002300000000
#009320:00000053000000000000000000000000
#0093b0:0000000013000023
#009370:00000033
#011370:13230000
#0113b0:0053000000000000
#011360:00001323
#011320:0000000000530000
#013370:13
#0133b0:00230000
#013360:0013
#013320:0000000000000023
#015370:1300002300000000
#0153b0:00000053000000000000000000000000
#015320:0013
#015360:00000023
#017380:1300002300000000
#0173b0:00000053000000000000000000000000
#017320:0000000013000023
#017360:00000033
#019360:13230000
#019320:0053000000000000
#019370:00001323
#0193b0:0000000000530000
#021360:13
#021320:00230000
#021370:0013
#0213b0:0000000000000023
#023360:1300002300000000
#023320:00000053000000000000000000000000
#0233b0:0013
#023370:00000023
#025360:1323
#025320:00530000
#025350:0000000000001323
#026370:1323
#0263b0:00530000
#026380:0000000000001323
#027360:13
#027320:0000002300000000
#0273b0:0013
#027370:00000023
#0293b0:1300002300000000
#029370:00000053000000000000000000000000
#029360:0000000013000023
#029320:00000000000000000000005300000000
#0313b0:13
#031370:0000002300000000
#031320:0013
#031360:00000023
#033320:1323
#033360:00530000
#033320:0000000000001323
#0343b0:1323
#034370:00530000
#0343b0:0000000000001323
#035370:13
#0353b0:0000002300000000
#035320:0013
#035360:00000023
#0373b0:1300005300000000
#037370:0053000023000000
#037390:00330000
#037321:0000000013000053
#037361:0000000000530000
#037341:00000033
#038361:23
#039351:13000023
#039321:0000005300000000
#039380:13000023
#0393b0:0000005300000000
#039320:0000000000000013
#040350:00000053000000000000000000000000
#040320:0023
#0393b1:0000000000000013
#040381:00000053000000000000000000000000
#0403b1:0023
#041321:1400002400000000
#041361:00000054000000000000000000000000
#0413a1:0000000014000024
#041361:00000000000000000000005400000000
#042321:14240000
#042361:0054000000000000
#043321:13230000
#043361:0053000000000000
#043321:00001323
#043361:0000000000530000
#0453b1:1300002300000000
#045371:00000053000000000000000000000000
#045321:0000000013000023
#045361:00000000000000000000005300000000
#0463b1:1300002300000000
#046371:00000053000000000000000000000000
#0473b1:13
#047371:00230000
#0493a1:1400002400000000
#049361:00000054000000000000000000000000
#049321:0000000014000024
#049361:00000000000000000000005400000000
#0503a1:14240000
#050361:0054000000000000
#0513b1:13230000
#051371:0053000000000000
#0513b1:00001323
#051371:0000000000530000
#053321:1300002300000000
#053361:00000053000000000000000000000000
#0533b1:0000000013000023
#053371:00000000000000000000005300000000
#054321:1300002300000000
#054361:00000053000000000000000000000000
#055321:13
#055361:00230000
#056371:13
#0563b1:00230000
#056360:00130000
#056320:0023
#056370:0000000000001323
#057360:0013000000000000
#057320:0023
#058370:13000023
#0583b0:00000000000000530000000000000000
#0593b0:0000000000130000
#059390:00000000000000000000003300000000
#059370:00000023
#060360:13
#060320:00230000
#060371:00130000
#0603b1:0023
#060361:0000000000001323
#061371:0013000000000000
#0613b1:0023
#062361:13000023
#062321:00000000000000530000000000000000
#063321:0000000000130000
#063341:00000000000000000000003300000000
#063361:00000023
#0643b1:13332300
#064381:0053005300000000
#065321:0013000000000000
#065361:0000002300000000
#066371:1353
#066391:0053005300530000
#0663b1:00530023
#068321:13332300
#068351:0053005300000000
#0693b1:0013000000000000
#069371:0000002300000000
#070361:1353
#070341:0053005300530000
#070321:00530023
#072361:0000001400000000
#072341:00000000000000340000000000000000
#072321:0024
#072361:0000000000140000
#072381:00000000000000000000003400000000
#0723a1:00000024
#073341:18
#077371:0022
