This file was generated by Ched 2.7.0.0.
#TITLE ""
#ARTIST ""
#DESIGNER ""
#DIFFICULTY 0
#PLAYLEVEL
#SONGID ""
#WAVE ""
#WAVEOFFSET 0
#JACKET ""
#REQUEST "ticks_per_beat 480"
#00002: 4
#BPM01: 168
#00008: 01
#TIL00: ""
#HISPEED 00
#MEASUREHS 00
#00015:00000000000000000000001300000000
#00018:0000000000131300
#00112:0000130000000013
#00118:0013001300000000
#00115:23
#00412:0000001300000013
#00418:00001313
#00415:0013000000130000
#0041b:0013000000000000
#00915:0013
#00912:23000013
#00918:0000131300000013
#00910:41
#01015:13
#01018:00130000
#01012:0013
#0101b:0000000000000013
#01115:13
#01112:0013
#01118:0000001300000013
#01512:0000001300000013
#01518:0013
#0151b:13
#02418:0000000000000013
#0241b:0000000000130000
#02415:00000013
#02412:13
#02715:0013
#02718:13
#0271b:00330000
#02712:00000033
#03918:0000000000000013
#03912:13
#03915:0000000000000023
#0391b:23
#04118:0013
#04115:0000001300000000
#04112:2400000000000013
#0411b:00130000
#0411f:21
#04418:0013
#04412:0000001300000013
#0441a:14
#04415:0000000000130000
#0441b:00000013
#05912:0000001300000000
#0591b:13
#05918:0000130000130013
#05915:0013000000001300
#0641b:13
#06418:0013000000000000
#06412:0013
#06415:0000000000130000
#0651a:0000000000140000
#06512:0013000000000014
#0651b:23
#06510:41
#06712:1300001300001300
#06715:0013000000130000
#06718:0000130013000013
#0671b:1300001300000000
#07215:0013001300000013
#07218:13001313
#0721b:00130000
#07212:0000000000130000
#04715:1300000000130000
#0471b:13000013
#04712:0000000000000013
#04718:0013
#05612:13131300
#05615:0013000000130000
#05618:0000001300001300
#0561b:0000130013000013
#02915:0000001300000013
#0291b:1313
#04215:0000001300000013
#04218:0013
#0421b:13
#04210:41
#04318:14
#04314:0000001300000000
#04319:0014
#04312:0000000000000013
#0431a:00130000
#0431b:00000013
#01215:13
#01219:00000013
#01216:0000000000000013
#01212:0000001300000000
#01217:0013
#01214:0000000000130000
#0131b:13
#01315:0000001300000013
#01318:0013
#01418:13
#01412:0000001300000000
#01417:0013
#01414:0000000000130000
#01419:00000013
#01416:0000000000000013
#0161b:1313
#01615:0000000000130013
#01612:00130000
#01618:00000013
#0301b:13000013
#03015:0000000013000013
#03018:0000000000130000
#03012:0000001300000000
#03812:0000000000130000
#0381b:0000000000130000
#03819:00000013
#03816:0000000000000014
#03814:00000013
#0401b:0000000000130000
#04015:00000013
#04018:0000000000000013
#0451b:13
#04515:0000001300000000
#04518:0013
#04512:0000000000000013
#04612:0000000000000013
#04618:0000000000000013
#0461b:1313
#04615:0000001300000000
#04815:0000130000000013
#04818:0000001300001300
#04812:0013000000130000
#0481b:0013
#07318:16
#00218:0000001300000013
#00215:00130000000000001300000000000000
#0021b:0000000000130000
#00212:00000013
#00312:1300000000000013
#00315:00130000
#00318:0013000000000013
#0031b:0000001300000000
#0361b:0000001300000013
#03615:13001313
#03618:0000000000130000
#06618:00130013
#06612:0013
#06615:0000000000130000
#02612:0000000000000013
#02618:00000013000000000000000000000000
#0261b:13
#0281b:0000001300000000
#02818:1300000013000013
#02815:0000000000130000
#02812:00000013
#0051b:0000130000000013
#00515:0013001300000000
#00518:13
#00615:0000001300000013
#00618:00130000000000001300000000000000
#00612:0000000000130000
#0061b:00000013
#0071b:1300000000000013
#00718:00130000
#00715:0013000000000013
#00712:0000001300000000
#00818:0013000000130000
#00812:0013000000000000
#0081b:0000001300000013
#00815:00001313
#01718:0013
#01715:0000131300000013
#0171b:23
#01710:41
#01818:13
#01815:00130000
#0181b:0013
#01812:0000000000000013
#01918:13
#0191b:0013
#01915:0000001300000013
#0231b:0000001300000013
#02315:0013
#02312:13
#02018:13
#02014:00000013
#02017:0000000000000013
#0201b:0000001300000000
#02016:0013
#02019:0000000000130000
#02112:13
#02118:0000001300000013
#02115:0013
#02215:13
#0221b:0000001300000000
#02216:0013
#02219:0000000000130000
#02214:00000013
#02217:0000000000000013
#02515:00000013000000000000000000001300
#02512:13
#02510:41
#03118:0000001300000013
#03112:1313
#03212:1300000000130000
#03215:0000000000000013
#03218:00000013
#03518:0013
#03515:13
#03512:00330000
#0351b:00000033
#0341b:0000000000000013
#03415:00000013000000000000000000000000
#03412:13
#03318:00000013000000000000000000001300
#0331b:13
#0331f:11
#03712:14340034
#03716:0014
#04915:0013
#04918:0000001300000000
#0491b:0000000000000013
#04912:00130000
#0491a:24
#05215:0013
#0521b:0000001300000013
#05218:0000000000130000
#05212:14000013
#05518:1300000000130000
#05512:13000013
#0551b:0000000000000013
#05515:0013
#05015:0013
#05018:0000001300000013
#05012:13
#05312:13
#05318:0000001300000000
#05315:0013
#0531b:0000000000000013
#0541b:0000000000000013
#05415:0000000000000013
#05412:1313
#05418:0000001300000000
#05114:14
#05119:0000001300000000
#05113:00131400
#0511b:0000000000000013
#05112:00000013
#05718:0013000000000000
#05715:2300000000000013
#05710:41
#05812:00000000001300000000000000000000
#0631b:0000001300000000
#06312:13
#06315:0000130000130013
#06318:0013000000001300
#0601b:13131300
#06018:0013000000130000
#06015:0000001300001300
#06012:0000130013000013
#06115:0013000000000000
#06118:2300000000000013
#0621b:00000000001300000000000000000000
#06812:13
#06815:0013000000000000
#0681b:0013
#06818:0000000000130000
#06912:2300000000140000
#0691a:0000000000000014
#0691b:0013000000000000
#0711b:1300001300001300
#07118:0013000000130000
#07115:0000130013000013
#07112:1300001300000000
#07015:00130013
#0701b:0013
#07018:0000000000130000
#03955:0000000000000053
#03958:0000000000000053
#03952:53
#0395b:53
#0645b:63
#06458:0023000000000000
#06452:0053
#06455:0000000000230000
#0655a:0000000000440000
#06552:0053000000000034
#02755:0053
#02758:53
#0295b:5353
#0445a:44
#04258:0013
#0425b:53
#00158:0000006300000000
#00152:0000000000000063
#01155:63
#01152:0053
#01255:13
#0135b:63
#01358:0053
#01458:13
#0155b:63
#01558:0063
#0305b:13
#0455b:63
#04558:0053
#04358:44
#04359:0044
#0475b:53
#04755:53
#07358:66
#00255:00230000000000000000000000000000
#01055:13
#01058:00130000
#01052:0013
#0035b:0000005300000000
#00555:0000005300000000
#0055b:0000000000000053
#00658:00230000000000000000000000000000
#00752:0000006300000000
#0165b:13
#01858:13
#01855:00130000
#0185b:0013
#01958:53
#0195b:0063
#02355:0053
#02352:53
#02058:13
#02152:53
#02155:0063
#02255:13
#02452:13
#02555:00000023000000000000000000000000
#02552:6313
#02658:00000023000000000000000000000000
#0265b:5313
#02858:13
#03152:6363
#03252:13
#03558:0063
#03555:63
#03358:00000023000000000000000000000000
#0335b:5313
#03455:00000023000000000000000000000000
#03452:6313
#03655:13
#03752:54
#03756:0024
#04152:14
#04158:0053
#0465b:63
#04955:0063
#0495a:14
#05055:0013
#05052:63
#05352:53
#05355:0063
#05552:63
#05558:63
#05452:53
#05154:34
#05153:0034
#05252:34
#0575b:0000000000130000
#05758:0053000000000000
#05755:0000000000000053
#05852:00000000002300000000000000000000
#06155:0063000000000000
#06158:0000000000000063
#06152:0000000000130000
#0625b:00000000002300000000000000000000
#06852:53
#06855:0023000000000000
#0685b:0063
#06858:0000000000230000
#06952:0000000000340000
#0695a:0000000000000044
#0695b:0063000000000000
#001380:0000001300000000
#0013b0:0000000000230000
#001320:0000000000000013
#002350:00530000000000000000000000000000
#002320:00230000
#0033b0:0000001300000000
#003380:0000000000230000
#005350:0000001300000000
#005320:0000000000230000
#0053b0:0000000000000013
#006380:00530000000000000000000000000000
#0063b0:00230000
#007320:0000001300000000
#007350:0000000000230000
#011350:13
#011320:00230000
#011320:0013
#011350:00000023
#0133b0:13
#013380:00230000
#013380:0013
#0133b0:00000023
#0153b0:13
#015380:00230000
#015380:0013
#0153b0:00000023
#019380:13
#0193b0:00230000
#0193b0:0013
#019380:00000023
#021320:13
#021350:00230000
#021350:0013
#021320:00000023
#023320:13
#023350:00230000
#023350:0013
#023320:00000023
#025320:1300003323000000
#025350:00000053000000000000000000000000
#0263b0:1300003323000000
#026380:00000053000000000000000000000000
#027380:13
#0273b0:0000332300000000
#027350:0013
#027320:0000000000003323
#0293b0:13
#029380:00230000
#0293b0:0013
#029380:00000023
#031320:13
#031350:00230000
#031320:0013
#031350:00000023
#0333b0:1300003323000000
#033380:00000053000000000000000000000000
#034320:1300003323000000
#034350:00000053000000000000000000000000
#035350:13
#035320:0000332300000000
#035380:0013
#0353b0:0000000000003323
#037320:14340034
#037360:0034
#038320:24
#039320:13
#039350:00000023
#0393b1:13
#039381:00000023
#039351:0000000000000013
#040321:0023
#039380:0000000000000013
#0403b0:0023
#041380:0013
#0413b0:00000023
#0423b0:13
#042380:00230000
#0453b0:13
#045380:00230000
#045380:0013
#0453b0:00000023
#0463b0:13
#046380:00230000
#0473b0:13
#047380:00230000
#047351:13
#047321:00230000
#049351:0013
#049321:00000023
#050321:13
#050351:00230000
#053321:13
#053351:00230000
#053351:0013
#053321:00000023
#054321:13
#054351:00230000
#055321:13
#055351:00230000
#055380:13
#0553b0:00230000
#057380:0013000000000000
#0573b0:0000000000230000
#057350:0000000000000013
#058320:00000000005300000000000000000000
#058350:00000023
#061350:0013000000000000
#061320:0000000000230000
#061380:0000000000000013
#0623b0:00000000005300000000000000000000
#062380:00000023
#0643b0:13230000
#064380:0053000000000000
#064320:00001323
#064350:0000000000530000
#065320:0013000000000000
#065350:0000002300000000
#068320:13230000
#068350:0053000000000000
#0683b0:00001323
#068380:0000000000530000
#0693b0:0013000000000000
#069380:0000002300000000
#073380:16
#0773c0:0022
