This file was generated by Ched 2.7.0.0.
#TITLE ""
#ARTIST ""
#DESIGNER ""
#DIFFICULTY 0
#PLAYLEVEL
#SONGID ""
#WAVE ""
#WAVEOFFSET 0
#JACKET ""
#REQUEST "ticks_per_beat 480"
#00002: 4
#BPM01: 168
#00008: 01
#TIL00: ""
#HISPEED 00
#MEASUREHS 00
#00015:00000000000000000000001300000000
#00018:0000000000130000
#00012:00000014
#0001a:00000014
#00115:0013
#00112:0000131300001300
#00117:00130013
#00119:0013000000000000
#0011b:00000000000000000013000000001300
#00118:00000000000000130000130000000000
#00116:0000000000000013
#0011a:24
#00114:24
#00418:0000001300000000
#00415:00000000000000130000000000000000
#0041b:0000130000130013
#00416:0014130000130013
#00412:13001313
#00417:13000013
#00816:1314000000000013
#0081b:13000000000000001300000000000013
#00815:0000001300000000
#00818:00000000000000130000000000000000
#00812:0000130000130000
#00817:00000000130000000000001300000000
#00814:00000013
#00819:00000000000000000000000000130000
#00916:13000000000000130000000000000000
#00915:00000000000000000000000013000013
#00918:00000013130000000000000000001300
#0091b:2300001313000000
#00912:00000013000000000000130000130000
#00910:41
#0101b:1313130013130013
#01012:1300131313000013
#01016:0014001400140000
#01117:13000000001300000000000000000000
#01112:13130000
#01116:00000000000000001300000000130000
#01114:00000000000013000000000000000013
#0111b:00001313
#01119:00000000000000130000000000001300
#01115:0013000000000000
#01118:0000000000130000
#0121a:00000000001300000000000000000000
#01217:13
#01219:00000000000000130000000000001300
#0121b:00000013
#01213:0013
#01214:0000001300000013
#01212:1300000000130000
#01215:00130000
#01218:00000000000000000013000000000000
#01216:00000013
#01512:0000001313000013
#0151b:00000013000000001300000013000000
#01517:13
#01516:0000000000000013
#01515:00130000
#01519:00000000000000130000000000000000
#02418:00000000000000000000001300001300
#02412:0000180000130000
#02415:00000000000000000000000013000013
#02419:0013001300000000
#02414:0013001300000000
#02416:1818
#02519:0015001500000000
#0251b:2300000013000013
#02512:0000130000130000
#02516:1300000000131400
#02517:0000170000000013
#02510:41
#0271b:1313
#02717:1300131300000000
#02712:00000000000000000000001313000000
#02716:0013
#02718:0000000000000013
#02715:00000000000000000000000000000013
#02812:13000000000000130013000000001300
#0281b:1300001300000013
#02816:00140000
#02818:00000000000000001300000000130000
#02815:0000000000131300
#04116:24000013000000141300001300000014
#0411b:0000131313000000
#04112:2300000000001313
#0411f:21
#04415:00001300000000130000000000000000
#0441b:00000000130000001300000000000013
#04412:1300130000130000
#04414:00000013
#04416:0000000000000013
#04418:0000001300000000
#04419:13000000000000000000000000130000
#04417:00000000000000000000001300000000
#05618:13
#05619:0000001300130013
#05614:0013000000130013
#05612:1300001300001300
#0561b:0013000013000000
#05615:00130000
#05617:00000013
#05716:23000000000000130000140013001400
#0571b:2300001313001313
#05712:0000130000130000
#05719:0013000000000000
#05717:00130000
#05710:41
#05912:1300001313000013
#05917:13000000000000130000000000001300
#0591b:0000130000130000
#05919:0013000000000000
#05914:0013000000000000
#05916:00130000
#05918:00000000000000000000001300000000
#05915:00000013
#05816:00130000
#05812:13001313
#05818:00000013
#05815:0000000000130013
#05817:13000000000000130000000000000000
#0641b:1300000013130000
#06415:00000000000000000000001300001300
#06418:00000000000000000000000013000013
#06417:0013001300000000
#06412:1313001300000000
#06416:00130000
#0651a:0000000000140000
#06512:2313130000000014
#06517:0000000000000013
#06518:0013
#06516:0013001300130000
#06514:00000013
#0651b:23000000130000130000000000000000
#06519:00000013
#06510:41
#06712:1300001300001300
#06715:00001300000000130000001300000000
#06718:0000130013130000
#06716:0000000000000013
#0671b:13000000000013000000000000000013
#07212:0000000013000013
#0721b:0000130000130013
#07218:13000013000013000000001300000000
#07215:00001300000000130000000013000000
#04516:14000000000014001400001300001400
#04512:00000013130000001300000000000000
#0451b:13000000000000000000001313000000
#04517:00000013000000000000000000000000
#04716:1300000014141414
#0471b:13000000000000130000130000001300
#04712:00000000130000130000000000130000
#04616:1400001400001300
#0461b:13000013
#04612:00000013130000001400000000001300
#0461a:0014
#04617:00000013000000000000000000001300
#0261b:0000130000130000
#02617:1300000000130000
#02612:1315171513000013
#02616:0000000000001413
#02912:13000013130000000000001300000000
#02916:0000001313000000
#02917:00000013000000000000000000000000
#0291b:1300000013000013
#02918:00000000000000000000001313000000
#03112:1300001313000013
#03115:00000013130000000000000000000000
#0311b:13000013
#03119:0000000000130000
#03118:00000013000000000000000000130013
#03117:0013
#03215:13
#0321b:1300000013000013
#03217:00130013
#03214:0000001800180000
#03216:0000000013000013
#03212:00130013
#04216:00001300000000130000130014001400
#04217:13130000
#04212:13000000000000000000001300000000
#0421b:00001300000000001300000000000013
#04219:0000001300000000
#04214:00000000001300000000000000000000
#04213:0013
#04210:41
#04317:13001313
#04319:0000001300000000
#04315:00000000000000000000000000000013
#04312:1313
#04316:00001300001300000000130000000000
#04314:00000000000000130000000000130000
#0431b:00130000
#04318:0000000000000013
#00512:14000000000000000013000000001300
#0051a:14
#00518:0013
#0051b:0000131300001300
#00516:00130013
#00514:0013000000000000
#00515:00000000000000130000130000000000
#00517:0000000000000013
#00519:0013000000000000
#01312:1300001300000000
#01312:13
#01317:1300001300001300
#01316:00131300
#0131b:0000000013000013
#0141b:1300001313000000
#01416:00000000000000130000000000000000
#01419:0013000000131300
#01414:00000000000000000000001300000000
#01417:0000130000000013
#01412:13000000130000000000000000000013
#0161b:1300130000130000
#01612:1300001300001300
#01616:00130000
#01615:00000000000000130000000000130013
#01618:0000000013001313
#03012:1300001300001300
#03017:13
#03016:00140000
#03018:00000000000000130000130000000013
#03015:00000000000000001300001300001300
#0301b:00001313
#03816:00000000130000000000000000130000
#03818:00000000000000130000000000000000
#03815:0013
#03813:00000000000000000000001300000000
#0381a:00000013
#03812:0013000000000013
#0381b:13000000130000001300000000000013
#03817:0013000000130000
#03915:1300000000130023
#03912:00130000
#0391b:0000130000230013
#03918:23000023
#04018:00130000001300000013000000130000
#04015:0013001300130013
#0401b:00000013000000130000001300000013
#04012:23232323
#04815:00000000130000000000000013000013
#04818:00000000000013000000001300001300
#04812:0013001300130000
#0481b:00001300000000001300000000130000
#07312:16
#07318:16
#00216:00130000130000000000000013001300
#00219:0000001300000000
#00212:13001300000000000013000000000000
#00217:0000000013130000
#0021b:00000000000000000000000000130000
#00318:1413
#00312:14000000000000000013000000000000
#0031b:0000131300001300
#00316:0000130000001314
#00314:0013000000000000
#00315:00000000000000130000130000000000
#03316:0000130000001413
#03312:1300000000000013
#03319:0015001500000000
#03317:2700000017130000
#0331b:0000130000130000
#0331f:11
#03417:0000130000000013
#0341b:1300000000000013
#03412:1715131517130000
#03416:0000000000131400
#03616:00000000140000130000000000001300
#0361b:1300001300000013
#03619:0013
#03614:00001800000000000013000000000000
#03617:0000000000131300
#03612:13000013
#03712:1313130000131300
#0371b:1300001313000013
#03717:0013000000130000
#03716:0000001300000013
#06612:0000130000131300
#0661b:00001313
#06614:13
#06619:13
#06616:00000000000000130000000000000000
#06617:0000000000130013
#00617:00130000130000000000000013001300
#00614:0000001300000000
#0061b:13001300000000000013000000000000
#00616:0000000013130000
#00612:00000000000000000000000000130000
#00712:1400131300001300
#0071a:14
#00717:00130013
#00719:0013000000000000
#00715:0013
#00718:00000000000000130000130000000000
#0071b:00000000000000000013000000000000
#00716:0000000000000014
#00714:0013000000000000
#01717:13000000000000130000000000000000
#01718:00000000000000000000000013000013
#01715:00000013130000000000000000001300
#01712:2300001313000000
#0171b:00000013000000000000130000130000
#01710:41
#01812:1313130013130013
#0181b:1300131313000013
#01816:0014001400140000
#01916:13000000001300000000000000000000
#0191b:13130000
#01917:00000000000000001300000000130000
#01919:00000000000013000000000000000013
#01912:00001313
#01914:00000000000000130000000000001300
#01918:0013000000000000
#01915:0000000000130000
#02013:00000000001300000000000000000000
#02016:13
#02014:00000000000000130000000000001300
#02012:00000013
#0201a:0013
#02019:0000001300000013
#0201b:1300000000130000
#02018:00130000
#02015:00000000000000000013000000000000
#02017:00000013
#0231b:0000001313000013
#02312:00000013000000001300000013000000
#02316:13
#02317:0000000000000013
#02318:00130000
#02314:00000000000000130000000000000000
#0211b:1300001300000000
#0211b:13
#02116:1300001300001300
#02117:00131300
#02112:0000000013000013
#02212:1300001313000000
#02217:00000000000000130000000000000000
#02214:0013000000131300
#02219:00000000000000000000001300000000
#02216:0000130000000013
#0221b:13000000130000000000000000000013
#03512:1313
#03516:1300131300000000
#0351b:00000000000000000000001313000000
#03517:0013
#03515:0000000000000013
#03518:00000000000000000000000000000013
#04917:00000013000000001300001300000000
#04912:0000131313000000
#0491b:2300000000001313
#04916:24000000000000140000000000000014
#05218:00001300000000130000000000000000
#05212:00000000130000001300000000000013
#0521b:1300130000130000
#05219:00000013
#05217:0000000000000013
#05215:0000001300000000
#05214:13000000000000000000000000130000
#05216:00000000000000000000001300000000
#05316:14000013000014001400000000001400
#0531b:00000013130000001300000000000000
#05312:13000000000000000000001313000000
#05317:00000000000000000000001300000000
#05016:1300130000001414
#0501b:13000000000000000000001300000000
#05012:00001300000000001300000000000013
#05017:00001300000000130000130000000000
#05014:0000001300000000
#05019:00000000001300000000000000000000
#0501a:0013
#05116:13001313
#05114:0000001300000000
#05118:00000000000000000000000000000013
#0511b:1313
#05117:00001300001300000000130000000000
#05119:00000000000000130000000000130000
#05112:00130000
#05115:0000000000000013
#05416:14000013000014000000000000001300
#0541a:0014
#0541b:00000013130000000000000000001300
#05412:13001413
#05417:00000013
#05517:13
#05512:13000000000000130000130000001300
#0551b:00000000130000130000000000130000
#05516:0000000014141414
#06015:13
#06014:0000001300130013
#06019:0013000000130013
#0601b:1300001300001300
#06012:0013000013000000
#06018:00130000
#06016:00000013
#06116:0000130000140014
#06112:2300001313001313
#0611b:0000130000130000
#06114:0013000000000000
#06117:23000000000000130000000013000000
#0631b:1300001313000013
#06316:13000000000000130000000000000013
#06312:0000130000130000
#06314:0013000000000000
#06319:0013000000000000
#06317:00130000
#06315:00000000000000000000001300000000
#06318:00000013
#06217:00130000
#0621b:13001313
#06215:00000013
#06218:0000000000130013
#06216:13000000000000130000000000000000
#06812:1300000013130000
#06818:00000000000000000000001300001300
#06815:00000000000000000000000013000013
#06816:0013001300000000
#0681b:1313001300000000
#06817:00130000
#06912:23000000130000130000140000000000
#0691a:0000000000000014
#06916:0000000000000013
#06915:0013
#06917:0013001300130000
#06919:00000013
#0691b:2313130000000000
#06914:00000013
#0711b:1300001300001300
#07118:00001300000000130000001300000000
#07115:00000000130000001300130000000013
#07112:1300001300000013
#0701b:0000130000131300
#07019:13
#07014:13
#07012:00001313
#07017:00000000000000130000000000000000
#07016:0000000000130013
#05756:0000000000440034
#05658:53
#05655:00530000
#0565b:0023000000000000
#05652:0000002300000000
#0645b:63
#06457:0023000000000000
#06456:00630000
#06452:0000002300000000
#0655a:0000000000440000
#06552:0000000000000034
#04152:53
#0415b:0053
#04156:14000023000000000000002300000000
#02556:53
#02552:00230000
#0255b:0043
#0265b:00230000
#02657:63
#02652:0033
#02852:33
#0285b:43
#0275b:0053
#02757:53
#0295b:53
#02957:00000023000000000000000000000000
#02952:00000000000000000000002300000000
#02956:0053
#0315b:53
#03152:1353
#03158:00000023000000000000000000000000
#04459:43
#04252:63
#04256:0023000000000000
#0425b:0013
#04352:6363
#04356:0023000000230000
#04357:4343
#00956:53
#00952:00000023000000000000000000000000
#01157:63
#01156:0053
#01257:13
#01357:63
#01356:0053
#0145b:13
#01557:63
#01552:0063
#0155b:00000023000000000000000000000000
#0165b:43
#03052:13
#03057:13
#03055:0013
#0305b:00000013
#0325b:43
#03255:33
#04557:00000023000000000000000000000000
#0455b:63
#04556:34000000000000004400002300000000
#04552:0053
#04657:00000023000000000000000000000000
#0465b:63
#04656:34
#04652:0034
#0465a:0044
#0475b:53
#07352:66
#07358:56
#03952:00230000
#0395b:00230000
#03955:53
#03958:53
#03356:00230000
#03352:6333
#03457:00230000
#0345b:5343
#0015b:0000000000000053
#00256:00230000000000000000000000000000
#0105b:1313
#01052:00130000
#02452:00180000
#02456:1818
#00552:0000000000000063
#00657:00230000000000000000000000000000
#01757:63
#0175b:00000023000000000000000000000000
#01852:1313
#0185b:00130000
#01956:53
#01957:0063
#0235b:0053
#02352:00000023000000000000000000000000
#02356:53
#02056:13
#02156:53
#02157:0063
#02252:13
#03552:0063
#03556:63
#0365b:43
#03652:33
#0375b:6363
#03757:0023000000230000
#03752:00530053
#03756:0000002300000023
#04952:0063
#04957:00000023000000000000002300000000
#04956:14
#0495b:63
#05356:44000023000000003400000000000000
#05352:53
#05357:00000000000000000000002300000000
#0535b:0063
#05156:3333
#0515b:5353
#05157:0023000000230000
#05254:33
#0505b:53
#05052:0013
#05057:0023000000000000
#05456:44000023000000000000000000000000
#0545a:0044
#05452:5334
#05552:63
#05857:53
#05852:0013
#05858:00000013
#05952:13
#06055:63
#06058:00630000
#06052:0023000000000000
#0605b:0000002300000000
#06156:0000000000340044
#0625b:0013
#06255:00000013
#06256:63
#0635b:13
#06659:53
#0665b:00004343
#06852:53
#06856:0023000000000000
#06857:00530000
#0685b:0000002300000000
#06952:0000000000340000
#0695a:0000000000000044
#07054:63
#07052:00003333
#0675b:43
#07152:33
#0005a:00000044
#00052:00000034
#0013b0:0000000000000013
#002360:00530000000000000000000000000000
#0023b0:00230000
#005320:0000000000000013
#006370:00530000000000000000000000000000
#006320:00230000
#009360:1300002300000000
#009320:00000053000000000000000000000000
#011370:13
#0113b0:00230000
#011360:0013
#011320:00000023
#013370:13
#0133b0:00230000
#013360:0013
#013320:0000000000000023
#015370:1300002300000000
#0153b0:00000053000000000000000000000000
#015320:0013
#015360:00000023
#017370:1300002300000000
#0173b0:00000053000000000000000000000000
#019360:13
#019320:00230000
#019370:0013
#0193b0:00000023
#021360:13
#021320:00230000
#021370:0013
#0213b0:0000000000000023
#023360:1300002300000000
#023320:00000053000000000000000000000000
#0233b0:0013
#023370:00000023
#025360:1323
#025320:00530000
#026370:1323
#0263b0:00530000
#027370:13
#027320:0000002300000000
#0273b0:0013
#027370:00000023
#0293b0:1300002300000000
#029370:00000053000000000000000000000000
#029360:0000000013000023
#029320:00000000000000000000005300000000
#0313b0:1300002300000000
#031380:00000053000000000000000000000000
#031320:0013
#031360:00000023
#033320:1323
#033360:00530000
#0343b0:1323
#034370:00530000
#035360:13
#0353b0:0000002300000000
#035320:0013
#035360:00000023
#0373b0:13230000
#037370:0053000000000000
#037321:00132300
#037361:0000005300000000
#0373b0:00001323
#037370:0000000000530000
#037321:00000013
#037361:0000000000000053
#038321:23
#039351:1323
#039321:00530000
#039380:1323
#0393b0:00530000
#041320:1300002300000000
#041360:00000053000000000000000000000000
#0413b0:0000000013000023
#041360:00000000000000000000005300000000
#042320:13230000
#042360:0053000000000000
#043320:13230000
#043360:0053000000000000
#043320:00001323
#043360:0000000000530000
#0453b0:1300002300000000
#045370:00000053000000000000000000000000
#045320:0000000013000023
#045360:00000000000000000000005300000000
#0463b0:1300002300000000
#046370:00000053000000000000000000000000
#0473b0:13
#047370:00230000
#0493b0:1300002300000000
#049370:00000053000000000000000000000000
#049320:0000000013000023
#049370:00000000000000000000005300000000
#0503b0:13230000
#050370:0053000000000000
#0513b0:13230000
#051370:0053000000000000
#0513b0:00001323
#051370:0000000000530000
#053320:1300002300000000
#053360:00000053000000000000000000000000
#0533b0:0000000013000023
#053370:00000000000000000000005300000000
#054320:1300002300000000
#054360:00000053000000000000000000000000
#055320:13
#055360:00230000
#056380:13230000
#0563b0:0053000000000000
#056351:00132300
#056321:0000005300000000
#058371:13
#0583b1:00230000
#060351:13230000
#060321:0053000000000000
#060380:00132300
#0603b0:0000005300000000
#062360:13
#062320:00230000
#0643b0:13230000
#064370:0053000000000000
#064361:00132300
#064321:0000005300000000
#066391:13
#0663b1:00230000
#068321:13230000
#068361:0053000000000000
#068370:00132300
#0683b0:0000005300000000
#070340:13
#070320:00230000
#073320:16
#077320:0022
#073381:16
#0773c1:0022
