This file was generated by Ched 2.7.0.0.
#TITLE ""
#ARTIST ""
#DESIGNER ""
#DIFFICULTY 0
#PLAYLEVEL
#SONGID ""
#WAVE ""
#WAVEOFFSET 0
#JACKET ""
#REQUEST "ticks_per_beat 480"
#00002: 4
#BPM01: 168
#00008: 01
#TIL00: ""
#HISPEED 00
#MEASUREHS 00
#03813:0014
#03819:0014
#04112:00160000
#04118:26001414
#04114:0000000000140000
#0411f:21
#04212:16
#04214:00001414
#04218:0000160000140000
#04210:41
#0471a:14
#04718:0000341434000000
#05614:00001414
#0561a:00001414
#05612:14140000
#05618:14140000
#04818:00140014
#04814:1414
#05912:0014
#05918:0014
#05914:14
#0591a:14
#0601a:14140000
#06014:14140000
#06018:00001414
#06012:00001414
#06612:00000000001400000000000000000000
#06617:00000000001400000000000000000000
#06515:1400000000000014
#06517:00000000001400000000000000000000
#0651a:1400000000000014
#06512:00000000001400000000000000000000
#06510:41
#06714:0014
#0671a:0014
#06712:14
#06718:14
#05715:1400000000340014
#0571a:1400000000340014
#05717:00000000000000140000000000000000
#05712:00000000000000140000000000000000
#05710:41
#05812:00000000001400000000000000000000
#05817:00000000001400000000000000000000
#0701a:00000000001400000000000000000000
#07015:00000000001400000000000000000000
#06917:1400000000000014
#06915:00000000001400000000000000000000
#06912:1400000000000014
#0691a:00000000001400000000000000000000
#03914:1414
#03912:00140000
#03916:00000014
#04014:14
#04012:00140000
#0011a:14141400
#00214:14141400
#00318:14141400
#00412:14141400
#00518:14141400
#00612:14141400
#0071a:14141400
#00814:14141400
#00918:1414
#00912:00140014
#00910:41
#0101a:1414
#01014:00140000
#04318:16
#0431a:00001414
#04312:0000160000140000
#04918:0000160000140000
#04912:2614
#04914:00000014
#05018:16000014
#0501a:0014
#05014:0000000000140000
#05012:00160000
#05112:16001414
#0511a:0000000000140000
#05118:00160000
#04518:16001414
#04512:0000160000140000
#04612:16
#04614:00001414
#0461a:0000000000140000
#04618:00160000
#05312:16000014
#05314:0014
#05318:0000160000140000
#05418:1614
#05414:0000000000140000
#05412:00160000
#0541a:00000014
#0721a:14
#07214:00140000
#07218:0014
#07212:00000014
#0631a:0014
#06314:0014
#06318:14
#06312:14
#06117:1400000000340014
#06112:1400000000340014
#06115:00000000000000140000000000000000
#0611a:00000000000000140000000000000000
#0621a:00000000001400000000000000000000
#06215:00000000001400000000000000000000
#07118:0014
#07112:0014
#0711a:14
#07114:14
#01118:00140000
#01112:14
#01314:1414
#0131a:00140014
#01412:1414
#01418:00140000
#01514:00140000
#0151a:14
#0171a:1414
#01714:00140014
#01710:41
#01818:1414
#01812:00140000
#0191a:00140000
#01914:14
#02112:1414
#02118:00140014
#02214:1414
#0221a:00140000
#02312:00140000
#02318:14
#0251a:14
#02514:00140000
#02518:0014
#02512:00000014
#02510:41
#02618:14
#02614:00140000
#0261a:0014
#0271a:00140000
#02712:14
#02714:0014
#02912:14
#02918:00140000
#02914:0014
#0291a:00000014
#03014:14
#03018:00140000
#03012:0014
#03112:00140000
#0311a:14
#03118:0014
#03318:14
#03312:00140000
#0331a:0014
#03314:00000014
#0331f:11
#0341a:14
#03412:00140000
#03418:0014
#0351a:00140000
#03514:14
#03512:0014
#03618:0014
#0361a:00000014
#03718:1414
#03716:00140000
#0371a:00000014
#01213:0014
#01219:0014
#01613:0014
#01619:0014
#02013:0014
#02019:0014
#02413:0014
#02419:0014
#02813:0014
#02819:0014
#03219:0014
#03213:0014
#04412:14
#04414:00140000
#0521a:14
#05218:00140000
#05512:14
#05514:0000341434000000
#06412:2424
#06414:00240024
#06418:2424
#0641a:00240024
#0681a:2424
#06818:00240024
#06814:2424
#06812:00240024
#04158:16
#0475a:54
#04758:0000002400000000
#06652:00000000002400000000000000000000
#06657:00000000002400000000000000000000
#06555:6400000000000054
#06557:00000000002400000000000000000000
#0655a:5400000000000054
#06552:00000000002400000000000000000000
#05755:6400000000000064
#0575a:6400000000000064
#05757:00000000000000240000000000000000
#05752:00000000000000240000000000000000
#05852:00000000002400000000000000000000
#05857:00000000002400000000000000000000
#0705a:00000000002400000000000000000000
#07055:00000000002400000000000000000000
#06957:5400000000000064
#06955:00000000002400000000000000000000
#06952:6400000000000064
#0695a:00000000002400000000000000000000
#03954:5454
#03952:00240000
#03956:00000024
#04054:54
#04052:00240000
#04952:16
#06157:5400000000000054
#06152:5400000000000054
#06155:00000000000000240000000000000000
#0615a:00000000000000240000000000000000
#0625a:00000000002400000000000000000000
#06255:00000000002400000000000000000000
#03658:0064
#0365a:00000024
#03758:6464
#03756:00240000
#0375a:00000024
#02754:0064
#03158:0054
#03552:0054
#04452:54
#04454:00240000
#0525a:64
#05258:00240000
#05552:64
#05554:0000002400000000
#011320:0014
#012320:24
#0153a0:0014
#0163a0:24
#019340:0014
#020320:24
#023380:0014
#0243a0:24
#027340:0014
#028320:24
#031380:0014
#0323a0:24
#035320:0014
#036340:24
#036380:0014
#0363a0:00000054
#037380:3434
#037360:00540000
#0373a0:00000054
#038380:24
#039340:1434
#039320:00540000
#039360:00000054
#040340:3424
#040320:00540000
#044320:1424
#044340:00540000
#0473a0:14000024
#047380:0000345434000000
#0523a0:1424
#052380:00540000
#055320:14000024
#055340:0000345434000000
#057350:1400000000340034
#057320:00000000000000540000000000000000
#058320:00000000005400000000000000000000
#058350:00000024
#0573a1:1400000000340034
#057371:00000000000000540000000000000000
#058371:00000000005400000000000000000000
#0583a1:00000024
#061371:1400000000340034
#0613a1:00000000000000540000000000000000
#0623a1:00000000005400000000000000000000
#062371:00000024
#061320:1400000000340034
#061350:00000000000000540000000000000000
#062350:00000000005400000000000000000000
#062320:00000024
#065350:1400000000240000
#065320:00000000005400000000000000000000
#0653a1:1400000000240000
#065371:00000000005400000000000000000000
#065351:0000000000000014
#066321:00000000005400000000000000000000
#066351:00000024
#0653a0:0000000000000014
#066370:00000000005400000000000000000000
#0663a0:00000024
#069370:1400000000240000
#0693a0:00000000005400000000000000000000
#069321:1400000000240000
#069351:00000000005400000000000000000000
#069371:0000000000000014
#0703a1:00000000005400000000000000000000
#070371:00000024
#069320:0000000000000014
#070350:00000000005400000000000000000000
#070320:00000024
#073380:16
#0773b0:0023
