This file was generated by Ched 2.6.4.0.
#TITLE ""
#ARTIST ""
#DESIGNER ""
#DIFFICULTY 0
#PLAYLEVEL
#SONGID ""
#WAVE ""
#WAVEOFFSET 0
#JACKET ""
#REQUEST "ticks_per_beat 480"
#00002: 4
#BPM01: 162
#00008: 01
#TIL00: ""
#HISPEED 00
#MEASUREHS 00
#00019:14
#00113:14
#0021a:14
#00210:41
#0031a:14
#00412:14
#00512:14
#00618:14
#00718:14
#00814:14
#00914:14
#0101a:14
#01010:41
#01114:14
#0121a:14
#01314:14
#01418:14
#01512:14
#01618:14
#01712:14
#0181a:14
#01810:41
#0191a:14
#02014:14
#02114:14
#02218:14
#02318:14
#02412:14
#02512:14
#0261a:14
#02714:14
#02818:14
#02912:14
#0301a:14
#03010:41
#03114:14
#03218:14
#03312:14
#04218:2616
#0421f:21
#04312:1616
#04310:41
#04418:1616
#04512:1616
#04618:16
#04612:0016
#04718:16
#04712:0016
#05012:0016
#05018:26
#05212:16
#05218:0016
#05418:1616
#05512:1616
#05818:14
#05810:41
#05918:14
#06012:14
#06112:14
#0621a:14
#0631a:14
#06414:14
#06514:14
#06619:14
#06613:0014
#06813:14
#06819:0014
#0341f:11
#0343a0:14
#0353a0:24
#036320:14
#037320:24
#038380:14
#039380:24
#040340:14
#041340:24
#048380:1626
#049320:1626
#051380:1626
#053320:1626
#056380:1626
#057320:1626
#067390:1424
#069330:1424
