This file was generated by Ched 2.6.4.0.
#TITLE ""
#ARTIST ""
#DESIGNER ""
#DIFFICULTY 0
#PLAYLEVEL
#SONGID ""
#WAVE ""
#WAVEOFFSET 0
#JACKET ""
#REQUEST "ticks_per_beat 480"
#00002: 4
#BPM01: 162
#00008: 01
#TIL00: ""
#HISPEED 00
#MEASUREHS 00
#0001b:00130000
#00016:23000000001300000000000000000000
#00019:00000000000013000000000000000013
#00014:00000000000000130000000000001300
#00012:0024000000241300
#00017:00000000000000002300000000130000
#0001a:0024000000240000
#0011b:00130000
#00116:23000000001300000000000000000000
#00119:0000001300000000
#00114:00000000000000130000000000000000
#00118:00000013
#00112:0024000000000000
#0011a:0024000000000000
#00117:0023
#00212:0013000000000000
#00218:00000000130013000000000000130000
#00215:00000000001300000000000013001300
#0021b:0000000000130000
#00210:41
#00312:0013000000000000
#00318:0000131300000000
#00315:00000000001300000000000000000000
#0031b:0000000000131300
#0331b:0000000000000013
#03315:00000000000000000000000000000013
#03316:14000014000014002800000000000000
#0331a:00000014000000000000000000000000
#03312:1400001400000000
#03412:00000013000013000000000000000000
#03418:00000000000000130000000000000000
#0341b:00000000000000000000001300001300
#03415:00000000000000000000000000000013
#0341f:11
#03516:0000000000000013
#0351b:00000000000000000000001300000013
#03512:00000013000013000000000000000000
#03518:00000000000000130000000000000000
#03616:13000000000000000000001300001300
#03617:00000013000013001300000000000000
#03612:00000000000000130000000000000000
#0361b:00000000000000000000000000000013
#03716:13000000000000000000001300000000
#03717:00000013000013001300000000001300
#03712:00000000000000130000000000000000
#03714:00000000000000000000000000000013
#0381b:13000000000000000000001300000000
#03812:00000013000000001300000000000000
#03816:0000001300000000
#03819:00000000000000130000000000000000
#03817:0000000000000013
#03814:00000000000000000000000000000013
#0391b:13000000000000000000001300000000
#03912:00000013000000001300000000000000
#03916:0000001300000000
#03919:00000000000000130000000000000013
#03914:0000000000000013
#04016:1313
#04012:0000001300000000
#04017:00000013000000000000130000000000
#04014:00000000000000000000000000000013
#04019:0000000000000013
#04115:00000000000000000000000000000013
#04117:1313
#0411b:0000001300000000
#04116:00000013000000000000130000000000
#04118:0000000000000013
#04216:00000013000000000000000000001300
#0421b:0013000000000013
#04217:00000000001300000000130000000000
#04219:00000013
#04212:23
#04218:23
#0421f:21
#04315:1300001300000013
#04318:13000013000000000000000000000013
#04312:0000001300000000000000000000000013000000000000000000000000000000
#0431b:0000000000000000001300000000000000000000000000001300000000000000
#04317:0013
#04310:41
#00417:1313000000000000
#00412:1313000000001300
#0041b:0000130013130000
#00415:00000000001300000000000000001300
#00418:00000000000013000000000000130000
#00416:0000000013130000
#00617:0013000000000000
#00615:00000000130000000000000000130000
#00618:00000000001300000000000013000000
#00612:0000001300000000
#00616:0000000000130000
#0061b:0000000000000013
#00717:0013000000000000
#00715:00130000
#00718:00000000001300000000000000000000
#00712:0000001300000000
#00716:0000000000130000
#0081b:0013000013130000
#00812:1313000000130000
#00817:13130000
#00814:00000000001300000000000000001300
#00819:00000000000013000000000000130000
#00816:00001313
#00912:00130000001300000000000000000000
#0091b:13130000
#00918:0013001300001313
#00915:00000013000000130000000000130013
#06615:00000000130000002300000000000013
#0661b:00000000001300000000230000001300
#06612:00002300000013000000000000130000
#06618:23000000000000130000000013000000
#06818:00000000130000000000000000130000
#06815:00000000001300000000000013000000
#0681b:00002300000013000000000000000013
#06812:00000000000000130000230000001300
#06816:0023
#06817:23
#06918:00130000
#06915:00000000001300002600000000000000
#0691b:0023001300000000
#06912:00000000000000130000000000000000
#06917:23
#06715:00130000
#0671b:00000000001300002300000000000000
#06712:0023001323000000
#06718:23000000000000130000000000000000
#06714:00000018
#01817:0013000013000000
#0181b:2300000000130000
#01810:41
#0191b:1300000000130000
#01917:0013000013000000
#02216:0013000013000000
#02212:2300000000130000
#02312:1300000000130000
#02316:0013000013000000
#04417:00000013000000000000000000001300
#04412:0013000000000013
#04416:00000000001300000000130000000000
#04414:00000013
#04415:13
#0441b:13
#04518:1300001300000013
#04515:13000013000000000000000000000013
#0451b:0000001300000000000000000000000013000000000000000000000000000000
#04512:0000000000000000001300000000000000000000000000001300000000000000
#04516:0013
#04616:00000013000000000000000000001300
#0461b:0013000000000013
#04617:00000000001300000000130000000000
#04619:00000013
#04612:23
#04618:23
#04715:1300001300000013
#04718:13000013000000000000000000000000
#04712:0000001300000000000000000000000013000000000000000000000000000000
#0471b:0000000000000000001300000000000000000000000000001300000000000000
#0471a:00000000000000000000000000000013
#04717:0013
#04812:1316
#04817:13
#04819:00130000
#04814:00000013000000000000000000000000
#04818:0000000000000013
#04813:00000000000000000000000000000013
#0481b:0000001300000000
#04816:0000001300000000
#0491b:13000013
#04912:00000000000013000000000000130000
#04918:0000000026000013
#04915:00000000000000000000000000000013
#04916:13
#04914:00130000
#04919:00000013000000000000000000000000
#04917:0000001300000000
#00512:1313000000001300
#00517:1313000000000000
#0051b:0000130013130000
#00515:00000000001300000000000000000000
#00518:0000001300000000
#00516:0000000013130000
#06512:00130000001300000000000000000000
#0651b:13130000
#06518:0013001300001313
#06515:00000013000000130000000000130013
#0201b:1300000000131300
#02016:1300001300130000
#02017:0013000013000013
#02012:0013130013000000
#02019:00000000001300000000000000000000
#02014:00000000000000000000000000130000
#0211b:1300000000131300
#02116:1300001300130000
#02117:0013000013000013
#02112:0013130013000000
#02119:00000000001300000000000000000000
#02114:00000000000000000000000000130000
#0241b:1300000000130000
#02416:1300001400130014
#02417:0013000013000000
#02412:00001300001400001300000014000000
#0241a:00000000140000000000000000140000
#0251b:1300000000000013
#02516:1300001400000000
#02517:0013000000000000
#02512:00001300001400000000000000000000
#0251a:00140000
#0501b:00000013000000000000000000000000
#05016:0013000000130000
#05019:00000013
#05017:0000001300000013
#05012:2300000000000013
#05018:23
#05112:00000013000000000000130000000000
#0511b:13001313
#05117:0000001300000000
#05115:0000000000000000001300000000000000000000000000000000000013000000
#05118:0000001300000000000000000000000000000000000000000000000000001300
#05116:1313
#05212:00000013000000000000000000000000
#05217:0013000000130000
#05214:00000013
#05216:0000001300000013
#0521b:1300000000000013
#05215:13
#05318:0000000000000000001300000000000000000000000000000000000013000000
#05315:0000001300000000000000000000000000000000000000000000000000001300
#0531b:00000013000000000000130000000000
#05312:13001313
#05316:0000001300000000
#05317:1313
#0541b:00000013000000000000000000000000
#05416:0013000000130000
#05419:00000013
#05417:0000001300000013
#05412:2300000000000013
#05418:23
#05518:0000001300000000000000000000000000000000000000000000000013000000
#05513:00000000000000000000000000000013
#05512:00000013000000000000130000000000
#0551b:13001313
#05517:0000001300000000
#05515:0000000000000000001300000000000000000000000000000000000000000000
#05516:1313
#0561b:13000013
#05619:00130000
#05615:0000000000000013
#0561a:00000000000000000000000000000013
#05612:0000001300000000
#05614:00000013000000000000000000000000
#05616:1316
#05617:0000001300000000
#05712:13
#05717:13
#05719:00000013000000000000000000000000
#05714:00132600
#0571b:0000001300000000
#05716:0000001300002600
#01019:00000013000000000000000000001300
#01016:0013000000001300
#01014:00000000001300000000000000000000
#01017:0000001300000000
#01012:2300000000130000
#0101b:23000013
#01010:41
#01117:13
#0111b:00000013000013000000000000000000
#01112:00001313
#01116:0000001300000000
#01115:0000000000000013
#01118:00000000000000000000000000000013
#01214:00000013000000000000000000001300
#01217:0013000000001300
#01219:00000000001300000000000000000000
#01216:0000001300000000
#0121b:1300000000130000
#01212:13000013
#01316:13
#01312:00000013000013000000000000000000
#0131b:00001313
#01317:0000001300000000
#01318:0000000000000013
#01315:00000000000000000000000000000013
#01416:00000013000000000000130000000000
#0141b:0013000000000000
#01412:23000000001300000000000000001300
#01417:0000001300000000
#01419:00000013
#01414:00000013
#01418:23
#01517:13
#0151b:00000013000013001300000000000000
#01512:00001313
#01516:0000001300000000
#01515:0000000000000013
#01518:00000000000000000000000000000013
#01617:00000013000000000000130000000000
#01612:0013000000000000
#0161b:13000000001300000000000000001300
#01616:0000001300000000
#01614:00000013
#01619:00000013
#01615:13
#01716:1313
#01712:00000013000013000000000013000000
#01717:0000001300001300
#0171b:0013
#01718:0000000000140000
#01714:0000000000000014
#02616:00000013000000000000000013000000
#0261b:0013000000131300
#02617:00000000001300000000000000000000
#02612:0000001300000013
#02618:23
#02716:1313
#02712:0000001300000013
#02717:00000013
#0271b:0013
#02714:00000013000000000000000000000000
#02718:00000000000000000000000000000013
#02719:00000033000000000000000000000000
#02817:00000013000000000000000013000000
#02812:0013000000131300
#02816:00000000001300000000000000000000
#0281b:1300001300000013
#02815:13
#02917:1313
#0291b:0000001300000013
#02916:00000013
#02912:0013
#02919:00000013000000000000000000000000
#02915:00000000000000000000000000000013
#02914:00000033000000000000000000000000
#03016:00000013000000000000000013000000
#0301b:0013000000131300
#03017:00000000001300000000000000000000
#03012:2300001300000013
#03018:23
#03010:41
#03116:1313
#03112:0000001300000013
#03117:00000013
#0311b:0013
#03114:00000013000000000000000000000000
#03118:00000000000000000000000000000013
#03119:00000033000000000000000000000000
#03217:00000013000000000000000013000000
#03212:0013000000131300
#03216:00000000001300000000000000000000
#0321b:1300001300000013
#03215:13
#0581b:0013
#05816:00130000
#05817:00000013
#05813:0000000000130000
#0581a:0013000000000000
#05812:23
#05819:23
#05810:41
#05912:13
#0591b:0000000013000013
#05916:00130000
#0591a:0013000000000000
#05917:00000013
#05913:0000000000130000
#0601b:13
#06016:13140014
#06014:0012000000000000
#06019:0012000000000000
#06012:00000000001400001300000000001400
#0601a:00000000000014000000120000140000
#06017:0013
#06015:0000000000120000
#0611b:13
#06116:13140014
#06114:0012000000000000
#06119:0012000000000000
#06112:00000000001400001300000000001400
#0611a:00000000000014000000120000140000
#06117:0013
#06115:0000000000120000
#0621b:0013
#06216:00130000
#06217:00000013
#06213:0000000000130000
#0621a:0013000000000000
#06212:23
#06219:23
#06312:13
#0631b:0000000013000013
#06316:00130000
#0631a:0013000000000000
#06317:00000013
#06313:0000000000130000
#0641b:13
#06416:13140014
#06414:0012000000000000
#06419:0012000000000000
#06412:00000000001400001300000000001400
#0641a:00000000000014000000120000140000
#06417:0013
#06415:0000000000120000
#03656:63
#03657:0053
#03652:00000013000000000000000000000000
#0365b:00000000000000000000001300000000
#03756:63
#03757:0053
#03752:00000013000000000000000000000000
#0375b:00000000000000000000001300000000
#0385b:53000000000000000000001300000000
#03852:00000013000000006300000000000000
#0395b:53000000000000000000001300000000
#03952:00000013000000006300000000000000
#04056:6323
#04052:0000006300330000
#04057:00000063000000000000000000000000
#04157:5323
#0415b:0000005300430000
#04156:00000053000000000000000000000000
#04355:53
#04358:00000063000000000000000000000000
#04352:0000002300000000000000000000000063000000000000000000000000000000
#0435b:0000000000000000002300000000000000000000000000000000000000000000
#04357:0043
#04558:63
#04555:00000053000000000000000000000000
#0455b:0000002300000000000000000000000053000000000000000000000000000000
#04552:0000000000000000002300000000000000000000000000000000000000000000
#04556:0033
#04755:53
#04758:00000063000000000000000000000000
#04752:0000002300000000000000000000000063000000000000000000000000000000
#0475b:0000000000000000002300000000000000000000000000000000000000000000
#04757:0043
#03352:3400003400000000
#0335a:00000044000000000000000000000000
#03356:0048
#05152:00000063000000000000230000000000
#0515b:5313
#05155:0000000000000000002300000000000000000000000000000000000000000000
#05158:0000002300000000000000000000000000000000000000000000000000000000
#05156:0053
#05057:0000006300000000
#05256:0000005300000000
#05457:0000006300000000
#0535b:00000053000000000000230000000000
#05352:6313
#05358:0000000000000000002300000000000000000000000000000000000000000000
#05355:0000002300000000000000000000000000000000000000000000000000000000
#05357:0063
#05552:00000063000000000000230000000000
#0555b:5313
#05555:0000000000000000002300000000000000000000000000000000000000000000
#05558:0000002300000000000000000000000000000000000000000000000000000000
#05556:0053
#01057:0000006300000000
#01256:0000005300000000
#01457:0000006300000000
#0155b:0053
#01656:0000005300000000
#02652:0000002300000000
#02756:0023
#0285b:0000002300000000
#02957:0023
#03052:0000002300000000
#03156:0023
#0325b:0000002300000000
#04958:0046
#04852:0036
#05656:0046
#05756:00000046
#05754:0036
#03458:00000013000000000000000000000000
#03455:00000000000000000000001300000000
#03558:00000013000000000000000000000000
#03555:00000000000000000000001300000000
#001350:00000013
#002350:23
#0023b1:1323000000000000
#002321:0000000013230000
#0033b1:1323000000000000
#003321:0000000013230000
#003361:00000013
#003341:00000000000000000000000000330000
#003321:0000000000000023
#005371:00000013
#005391:00000000000000000000000000330000
#0053b1:0000000000000023
#006361:13
#006321:0023000000000000
#006371:0013
#0063b1:0000000000230000
#007361:13
#007321:0023000000000000
#007371:0013
#0073b1:0000000000230000
#0073b1:00000013
#007391:00000000000000000000000000330000
#007371:0000000000000023
#007360:00000013
#007340:00000000000000000000000000330000
#007320:0000000000000023
#0093b0:0000000013230000
#009321:0000000013230000
#010371:0000001300000000
#0103b1:0000000000230000
#011321:13000023000000000000000000000000
#011371:00001323
#012361:0000001300000000
#012321:0000000000230000
#0133b1:13000023000000000000000000000000
#013361:00001323
#014371:0000001300000000
#0143b1:0000000000230000
#015321:13
#015361:00000023000000000000000000000000
#0153b1:0013
#015371:00000023
#016361:0000001300000000
#016321:0000000000230000
#0173b1:13
#017371:00000023000000000000000000000000
#018321:13
#019321:0000000000000023
#0183b0:00130000
#018390:00000000003300000000000000000000
#018370:0000002300000000
#018370:00000013
#018390:00000000000000000000000000330000
#0183b0:0000000000000023
#0193b0:00130000
#019390:00000000003300000000000000000000
#019370:0000002300000000
#019370:00000013
#019390:00000000000000000000000000330000
#0193b0:0000000000000023
#0223b0:13
#0233b0:0000000000000023
#022321:00130000
#022341:00000000003300000000000000000000
#022361:0000002300000000
#022361:00000013
#022341:00000000000000000000000000330000
#022321:0000000000000023
#023321:00130000
#023341:00000000003300000000000000000000
#023361:0000002300000000
#023361:00000013
#023341:00000000000000000000000000330000
#023321:0000000000000023
#025321:00001333
#025361:0000000000330000
#026321:23
#025370:00001323
#0253b0:0000000000330000
#026321:0000001300000000
#026361:0000000000230000
#0273b1:13
#027391:00000033000000000000000000000000
#027371:0000002300000000
#027361:0013
#027321:00000023
#0283b1:0000001300000000
#028371:0000000000230000
#029321:13
#029341:00000033000000000000000000000000
#029361:0000002300000000
#029371:0013
#0293b1:00000023
#030321:0000001300000000
#030361:0000000000230000
#0313b1:13
#031391:00000033000000000000000000000000
#031371:0000002300000000
#031361:0013
#031321:00000023
#0323b1:0000001300000000
#032371:0000000000230000
#034381:13000023000000000000000000000000
#034351:00000000000000001300002300000000
#035381:13000023000000000000000000000000
#035351:00000000000000001300002300000000
#036361:13
#036321:00000023000000000000000000000000
#036371:0013
#0363b1:00000000000000000000002300000000
#037361:13
#037321:00000023000000000000000000000000
#037371:0013
#0373b1:00000000000000000000002300000000
#0383b1:13
#038371:00000023000000000000000000000000
#038321:0013
#038361:00000000000000000000002300000000
#0393b1:13
#039371:00000023000000000000000000000000
#039321:0013
#039361:00000000000000000000002300000000
#040361:13
#040321:00000023000000000000000000000000
#040370:00000013000000000000000000000000
#0403b0:0000002300000000
#040321:0000001300230000
#040361:0053
#041371:13
#0413b1:00000023000000000000000000000000
#041360:00000013000000000000000000000000
#041320:0000002300000000
#0413b1:0000001300230000
#041371:0053
#042321:0000001300230000
#043351:13000023000000000000000000000000
#043321:0000005300000000000000000000000000000000000000000000000000000000
#043380:00000013000023000000000000000000
#0433b0:0000000000000000005300000000000000000000000000000000000000000000
#043320:0013
#043360:00000023
#0443b0:0000001300230000
#045380:13000023000000000000000000000000
#0453b0:0000005300000000000000000000000000000000000000000000000000000000
#045351:00000013000023000000000000000000
#045321:0000000000000000005300000000000000000000000000000000000000000000
#0453b1:0013
#045371:00000023
#046321:0000001300230000
#047351:13000023000000000000000000000000
#047321:0000005300000000000000000000000000000000000000000000000000000000
#047380:00000013000023000000000000000000
#0473b0:0000000000000000005300000000000000000000000000000000000000000000
#047320:0013
#047360:00000023
#050320:00000000001323000000000000000000
#050371:0000001300000000
#0503b1:0000000000230000
#0513b1:13000023000000000000000000000000
#051381:0000005300000000000000000000000000000000000000000000000000000000
#051320:00000013000023000000000000000000
#051350:0000000000000000005300000000000000000000000000000000000000000000
#051360:00001323
#051320:0000000000530000
#0523b0:00000000001323000000000000000000
#052361:0000001300000000
#052321:0000000000230000
#053321:13000023000000000000000000000000
#053351:0000005300000000000000000000000000000000000000000000000000000000
#0533b0:00000013000023000000000000000000
#053380:0000000000000000005300000000000000000000000000000000000000000000
#053370:00001323
#0533b0:0000000000530000
#054320:00000000001323000000000000000000
#054371:0000001300000000
#0543b1:0000000000230000
#0553b1:13000023000000000000000000000000
#055381:0000005300000000000000000000000000000000000000000000000000000000
#055320:00000013000023000000000000000000
#055350:0000000000000000005300000000000000000000000000000000000000000000
#055360:00001323
#055320:0000000000530000
#0583b0:00130000
#058390:00000000003300000000000000000000
#058370:0000002300000000
#058341:0000001323000000
#058321:00000013
#058341:00000000000000000000000000330000
#058361:0000000000000023
#058390:0000000000000013
#059390:23
#0593b0:00130000
#059390:00000000003300000000000000000000
#059370:0000002300000000
#059341:0000001323000000
#059321:00000013
#059341:00000000000000000000000000330000
#059361:0000000000000023
#0623b1:00130000
#062391:00000000003300000000000000000000
#062371:0000002300000000
#062340:0000001323000000
#062320:00000013
#062340:00000000000000000000000000330000
#062360:0000000000000023
#062391:0000000000000013
#063391:23
#0633b1:00130000
#063391:00000000003300000000000000000000
#063371:0000002300000000
#063340:0000001323000000
#063320:00000013
#063340:00000000000000000000000000330000
#063360:0000000000000023
#0653b0:0000000013230000
#065321:0000000013230000
#066371:0013000000000000
#0663b1:00230000
#066361:0000000000130000
#066321:00000023
#067371:0013000000000000
#0673b1:00230000
#068321:13
#068361:0023000000000000
#0683b1:0013
#068371:0000000000230000
#069321:13
#069361:0023000000000000
