This file was generated by Ched 2.6.4.0.
#TITLE ""
#ARTIST ""
#DESIGNER ""
#DIFFICULTY 0
#PLAYLEVEL
#SONGID ""
#WAVE ""
#WAVEOFFSET 0
#JACKET ""
#REQUEST "ticks_per_beat 480"
#00002: 4
#BPM01: 162
#00008: 01
#TIL00: ""
#HISPEED 00
#MEASUREHS 00
#0331b:00000013000000002300000000001300
#03318:0000001300000000
#03315:00000013000000002300000000000000
#03312:0000001300000000
#03812:1300001300000000
#0381b:0000000013000013
#03918:00000000000000000000000000000013
#03915:0000000000000013
#03912:1300001300000000
#0391b:0013
#04015:13000000000013000000000000000013
#0401b:0000001300000000
#04018:00000013000000000000000000001300
#04115:00000013000000000000000000000013
#04118:2300001300000013
#04112:0000001300000000
#04218:0000000000130000
#04215:00000013
#0421b:2300000000000013
#0421f:21
#00412:0013000000001313
#00418:13
#0041b:0000131300130000
#00415:0013
#06713:00000014
#06719:00000014
#06715:0000131300000000
#06718:00000000001300130000000000000000
#06712:2323
#0671b:0023000000000000
#04312:0013
#04318:00000000000000000000000000000013
#04315:0000000000000013
#04310:41
#04712:0000000013000013
#04718:0000000000000013
#0481a:14
#04816:00000014000000001400000000000000
#04812:0000001400000000
#0481b:0000000000000013
#04815:0000000000000013
#0501b:00000013000000000000130000001300
#05015:00000013000000000000130000000000
#05012:2300001300000013
#05018:0000001300001300
#0561b:13
#05619:00000013000000000000000000000000
#05614:00000013000000000000000000000000
#05616:13
#05612:0000000013000013
#05617:0000001300000000
#0551b:0000000013000013
#05515:0013
#01015:00000013000000000000000000000000
#01018:0000000000000013
#01012:00000013
#0101b:23
#01010:41
#01115:0000000000000013
#02515:0000000000000013
#02512:13
#02518:0013000000000000
#02513:00000000003300000000000000000000
#06218:0013000013000000
#0621b:2300000000130000
#06213:00000000003300000000000000000000
#06214:00000000000000000000000000330000
#00114:00000013
#00119:00000013
#00115:0000001300000000
#00118:00130000
#0011b:2323
#00112:0023000023000000
#00215:0013000000001313
#00212:0013
#00218:0000131300130000
#0021b:23
#00210:41
#0031b:13
#00315:0013000000001313
#00312:0013
#00318:0000131300130000
#0081b:0013000000000000
#00815:0000130013000013
#00818:1300001300001300
#00812:0000000000130000
#01218:00000013000000000000000000000000
#01215:0000000000000013
#0121b:00000013
#01212:13
#01318:0000000000000013
#01412:00000013000000000000000013000000
#01418:00000013000000000000000000001300
#0141b:23
#01515:0000000000000013
#0161b:00000013000000000000000013000000
#01615:00000013000000000000000000001300
#01612:13
#01712:0000001300000000
#01715:00000013
#0171b:0000001300000013
#01718:0000000000130000
#01818:0013000000000000
#0181b:0013
#01815:0000000000130000
#01812:23
#01810:41
#02218:0013000013000000
#02215:2300000000130000
#02219:00000000000000000000000000330000
#02214:00000000003300000000000000000000
#02618:23000013000000000000000000000000
#02612:23000013000000000000000000000000
#02615:0000001300000000
#02718:0000000000000013
#02715:00000013000000000000000000000000
#02815:13000013000000000000000000000000
#0281b:13000013000000000000000000000000
#02818:0000001300000000
#02915:0000000000000013
#02918:00000013000000000000000000000000
#0301b:00000013000000000000000000000000
#03015:00000013000000000000000000000000
#03018:2300001300000000
#03012:23
#03010:41
#03118:0000000000000013
#0311b:00000013000000000000000000000000
#03115:0000001300000000
#03212:00000013000000000000000000000000
#03218:00000013000000000000000000000000
#03215:1300001300000000
#0321b:13
#03412:0000001300000000
#0341b:0000000000000013
#0341f:11
#03512:0000001300000000
#0351b:0000000000000013
#03615:13
#03612:0000001300000000
#03618:0013
#0361b:0000000000000013
#03715:13
#03712:0000001300000000
#03718:0013
#0371b:0000000000000013
#04415:0000000000130000
#04418:00000013
#04412:1300000000000013
#0451b:0013
#04515:00000000000000000000000000000013
#04518:0000000000000013
#04618:0000000000130000
#04615:00000013
#0461b:2300000000000013
#04912:14
#04916:00000014000000002400000000000000
#0491a:0000001400000000
#04918:00000000000000000000000000000013
#04915:0000000000000013
#0511b:0013
#05115:00000000000000001300000000000013
#05118:0000000000000013
#05212:00000013000000000000130000001300
#05218:00000013000000000000130000000000
#0521b:1300001300000013
#05215:0000001300001300
#05318:00000000000000001300000000000013
#05312:0013
#05315:0000000000000013
#0541b:00000013000000000000130000001300
#05415:00000013000000000000130000000000
#05412:2300001300000013
#05418:0000001300001300
#05712:13000024
#05714:00000013000000000000000000000000
#05719:00000013000000000000000000000000
#05717:13
#05716:0000001300000000
#0571a:0024
#06412:1300000000130000
#06415:0013000013000000
#0641a:00000000003300000000000000000000
#06419:00000000000000000000000000330000
#00018:0000130000000013
#00015:0000001300001300
#0001b:2300000000230000
#00012:0023000023000000
#00512:0013000000001313
#00518:13
#0051b:0000131300130000
#00515:0013
#00612:00131300
#00618:0013001300000000
#0061b:23000013
#00615:0000000000130013
#0071b:13000013
#00712:00131300
#00718:0013001300000000
#00715:0000000000130013
#0091b:0013000000000000
#00915:0000130013000013
#00918:1300001300001300
#00912:0000000000130000
#01912:13
#01918:0013000000000000
#0191b:0013
#01915:0000000000130000
#02015:13
#0201b:0013000000000000
#02018:0013
#02012:0000000000130000
#02115:13
#0211b:0013000000000000
#02118:0013
#02112:0000000000130000
#02315:1300000000130000
#02318:0013000013000000
#02314:00000000003300000000000000000000
#02319:00000000000000000000000000330000
#02412:13
#02418:0013000000000000
#0241b:0013
#02415:0000000000130000
#02413:00000000003300000000000000000000
#0241a:00000000000000000000000000330000
#0631b:0013000013000000
#06318:1300000000130000
#06314:00000000000000000000000000330000
#06313:00000000003300000000000000000000
#0581b:2313000000000000
#05818:0000000013130000
#05810:41
#05918:1313000000000000
#0591b:0000000013130000
#06615:0000131300001313
#06618:00000000001300130000000000130013
#06612:2323
#0661b:0023000000230000
#06818:0000131300001313
#06815:00000000001300130000000000130013
#0681b:2323
#06812:0023000000230000
#06918:0000131326000000
#06915:00000000001300130000000000000000
#0691b:23
#06912:0023000000000000
#06012:1313000000000000
#06015:0000000013130000
#06115:1313000000000000
#06112:0000000013130000
#06512:0013000013000000
#06515:1300000000130000
#06519:00000000000000000000000000330000
#0651a:00000000003300000000000000000000
#03852:53
#0385b:0063
#04055:0000006300000000
#0405b:0000006300000000
#04052:0000000000130000
#04058:0000000000130000
#04856:0014
#04956:0014
#03155:0000005300000000
#03655:63
#03658:0053
#03755:63
#03758:0053
#03952:53
#0395b:0063
#04158:0000005300000000
#04152:0000005300000000
#0415b:0000000000130000
#04155:0000000000130000
#04352:0013
#0455b:0013
#04752:0013
#0515b:0013
#05155:0013
#05358:0013
#05352:0013
#05555:0013
#0555b:0013
#05752:00000014
#0575a:0014
#05652:0013
#03355:0013
#0335b:0013
#010380:0000001300230000
#011350:13000023000000000000000000000000
#0113b0:0000001300230000
#012350:0000001300230000
#013380:13000023000000000000000000000000
#013320:0000001300230000
#014380:0000001300000000
#0143b0:0000000000230000
#015350:13000023000000000000000000000000
#015380:0000001300000000
#0153b0:0000000000230000
#016350:0000001300000000
#016320:0000000000230000
#017380:13000023000000000000000000000000
#018350:0000132300000000
#018380:0000000000001323
#019350:0000132300000000
#019380:0000000000001323
#020320:0000132300000000
#0203b0:0000000000001323
#021320:0000132300000000
#0213b0:0000000000001323
#022320:00130000
#022340:00000000003300000000000000000000
#022350:0000002300000000
#0223b0:00000013
#022390:00000000000000000000000000330000
#022380:0000000000000023
#023320:00130000
#023340:00000000003300000000000000000000
#023350:0000002300000000
#0233b0:00000013
#023390:00000000000000000000000000330000
#023380:0000000000000023
#024350:00130000
#024330:00000000003300000000000000000000
#024320:0000002300000000
#024380:00000013
#0243a0:00000000000000000000000000330000
#0243b0:0000000000000023
#025350:00130000
#025330:00000000003300000000000000000000
#025320:0000002300000000
#025370:0013
#025390:0000000000330000
#0253b0:00000023
#0263b0:0000000000130000
#026380:0000000000003333
#0273b0:23
#027320:0000001300230000
#028320:0000000000130000
#028350:0000000000003333
#029320:23
#0293b0:0000001300230000
#030350:0000000000130000
#030320:0000000000003333
#031350:23
#031350:0000001300000000
#031320:0000000000230000
#032380:0000000000130000
#0323b0:0000000000003333
#033380:23
#034350:13000023000000000000000000000000
#034380:00000000000000001300002300000000
#035350:13000023000000000000000000000000
#035380:00000000000000001300002300000000
#036350:13
#036320:00000023000000000000000000000000
#036380:0013
#0363b0:00000000000000000000002300000000
#037350:13
#037320:00000023000000000000000000000000
#037380:0013
#0373b0:00000000000000000000002300000000
#038320:13
#038350:00000023000000000000000000000000
#0383b0:0013
#038380:00000000000000000000002300000000
#039320:13
#039350:00000023000000000000000000000000
#0393b0:0013
#039380:00000000000000000000002300000000
#040350:0000001300000000
#040320:0000000000230000
#0403b1:0000001300000000
#040381:0000000000230000
#041381:0000001300000000
#0413b1:0000000000230000
#041320:0000001300000000
#041350:0000000000230000
#042320:00000013000023000000000000000000
#0433b0:13
#043390:00000033000000000000000000000000
#043370:0000002300000000
#043361:13
#043341:00000033000000000000000000000000
#043321:0000002300000000
#0443b1:00000013000023000000000000000000
#045321:13
#045341:00000033000000000000000000000000
#045361:0000002300000000
#045370:13
#045390:00000033000000000000000000000000
#0453b0:0000002300000000
#046320:00000013000023000000000000000000
#0473b0:13
#047390:00000033000000000000000000000000
#047370:0000002300000000
#047361:13
#047341:00000033000000000000000000000000
#047321:0000002300000000
#051351:13
#051321:00000033000023000000000000000000
#053381:13
#0533b1:00000033000023000000000000000000
#055351:13
#055321:00000033000023000000000000000000
#058351:0000132300000000
#058321:0000000000001323
#059321:0000132300000000
#059351:0000000000001323
#060381:0000132300000000
#0603b1:0000000000001323
#0613b1:0000132300000000
#061381:0000000000001323
#062351:00130000
#062331:00000000003300000000000000000000
#062321:0000002300000000
#062321:00000013
#062341:00000000000000000000000000330000
#062351:0000000000000023
#063351:00130000
#063331:00000000003300000000000000000000
#063321:0000002300000000
#063321:00000013
#063341:00000000000000000000000000330000
#063351:0000000000000023
#064381:00130000
#0643a1:00000000003300000000000000000000
#0643b1:0000002300000000
#0643b1:00000013
#064391:00000000000000000000000000330000
#064381:0000000000000023
#065381:00130000
#0653a1:00000000003300000000000000000000
#0653b1:0000002300000000
#0653b1:00000013
#065391:00000000000000000000000000330000
#065381:0000000000000023
