This file was generated by Ched 2.6.4.0.
#TITLE ""
#ARTIST ""
#DESIGNER ""
#DIFFICULTY 0
#PLAYLEVEL
#SONGID ""
#WAVE ""
#WAVEOFFSET 0
#JACKET ""
#REQUEST "ticks_per_beat 480"
#00002: 4
#BPM01: 162
#00008: 01
#TIL00: ""
#HISPEED 00
#MEASUREHS 00
#00212:0013130013000013
#0021b:2300001300131300
#00215:00000000000013000000000000130000
#00217:0013
#00218:00000000001300000000000000001300
#00216:23
#00210:41
#03316:00000000000000000000000000131300
#0331a:00000000000000000000000000000013
#03315:00000013000000000000130000000000
#03312:1300000000000000001300000000000025000000000000001300000000000000
#03312:13
#03318:0000000000130000
#0331b:0000001300000000000000001300000000000000000000000000000000000000
#03317:13
#03319:0025
#03915:00000000000000000000000000000015
#03912:1300000000001300000000001300000000000013000000000000000013000000
#03916:00001300000000131300000000000000
#0391b:0000001300000000000000000000000013000000000013000000000000000000
#03917:1300000000130000
#0401b:0000001300000000000000001300000000000000000000000000000013000000
#04017:00001313
#04012:00001313
#04016:0000001300000000000000001300000000000000000000000000000000001500
#04217:00000000000000000014140013000000
#04216:00001313000000000000000000001300
#0421b:00000013000000001300000000000000
#04214:00000000000000000000001300000000
#04212:2300001300001300
#04218:23
#0421f:21
#00416:13001300001513000000000000000000
#0041b:1300131300000000
#00417:0000000013130013
#00412:0000000013001313
#00415:00000000000000000000000000150000
#00915:00161316001613160000000000001300
#00912:13000013
#00918:00000000130000000000000000130013
#0091b:13000013
#06712:2326000026001c00
#0671a:00140000
#06718:26000000001400002600000000000000
#06716:0000001400000000
#06714:00000000000000140000000000000000
#0671b:0023000000000000
#0431b:13
#04316:00000000000013001400001400000000
#04312:00000000000000000000140014000013
#0431a:00000000000000001414000014000000
#04318:0000000000000013
#04310:41
#04718:0000000000000013
#04712:00000000000000000000140014000013
#0471b:13
#04716:00000000000013001400001400000000
#0471a:00000000000000001414000014000000
#04815:1300000000000013
#04817:0000131300131300
#04812:00000013130000001300000000000000
#0481b:13000000000000000000130000000013
#0491b:00000013130000001300000000130000
#04912:1300002300130013
#04917:00000000000000000000000000000013
#04918:13
#04916:0000131300131300
#02016:13001300141414000000000014141400
#0201b:1300000000130000
#02012:0013000013000000
#02017:0000000013130000
#00312:0013130013000013
#00317:0013
#0031b:1300001300130000
#00316:13
#00315:0000001300000000
#00318:00000000001300000000000000000000
#0051b:1300131300000013
#00516:13001300001513000000000000000000
#00517:0000000013130000
#00512:0013
#0061b:00001300001300001300000000130000
#00615:0000001600000016
#00617:23130000
#00612:23000000001300000000130000130000
#00616:00001313
#00717:1300130000000013
#00712:13000000001300000000130000000000
#0071b:00001300001300001300000000000000
#00716:0013
#00715:0000001600000000
#00812:0013001313001313
#00816:1313000000000000
#0081b:1300131300130013
#00815:00000000001600000000000000160000
#00817:0000000013130000
#01117:1300000000130000
#0111b:00000013000000000000000000000000
#01112:13000013
#01118:0000000000000013
#01115:00000000000000000000000000000013
#01016:0013000000000013
#0101b:23001313000000001300000000001300
#01014:00000013
#01019:00000013
#01012:23000000001313000000130000000000
#01017:0000001300000000
#01010:41
#01715:13000013000000130000130000130013
#01718:00001300001300001300000000001300
#01712:00130000000000000013000013000000
#0171b:0000131300001300
#01912:1300001300130013
#01915:0013
#0191b:0013000013000000
#01918:13
#01916:00000013
#01919:00000000000000000000000000130000
#01917:0000000000000013
#0411b:00000000130000000013000013000000
#04112:23000000001300001300000000130000
#04115:00001600130016130000160013001613
#04118:00000013000000001300001300000000
#04117:23
#06518:0013001300000013
#06515:00160016131600160000000000130013
#0651b:13000013
#06512:13000013
#06818:00000000130000130000000016130000
#06815:00002500001316002500000013001613
#06812:2400160000240000
#06816:2500000000250000
#0681a:0024000024000000
#0501b:2300000000130000
#05012:0000000000000013
#05018:00000000000013001300001300000000
#05015:00000000000000000013000013000000
#05019:0013000000000000
#0501a:00000000001300000000000000000000
#05016:13
#05017:00000013000000000000000000000000
#0511b:13000013000000000000000013001300
#05116:13000000000013000000000000000013
#05117:0000000000000000001300000000000000000000000000000000000000000000
#05112:0000001300000000000000000000000013000000000000000000000000000000
#05115:00000000000000000013160013000000
#05118:00000000000000000000001300000000
#02616:0000000013001313
#0261a:0013000000000000
#02612:23000013001313000000000000001300
#02617:00000013000000000000130000000000
#0261b:0000000000000000001300000000000000000000000000001300000000000000
#02615:0013000000000000
#02618:23
#02716:13000013000000000000000000000000
#02715:00000000000000001300001300000000
#02712:0000000000000000001300000000000000001300000000000000000013000000
#02718:00000000000000000000130000000013
#0271b:13000013000000000000000013000000
#02717:0000001300000000001300000000000000000000000000000000000000000000
#03412:2300000013001300000000000000000000000013000000000000000000000000
#03417:1300001300000000
#0341b:0000001300000000000000000000000013000000130013000000000000000000
#03413:00000000000000130000000000000000
#03416:0000000013000013
#0341a:00000000000000000000000000000013
#0341f:11
#03512:1300000013001300000000000000000000000013000000000000000000000000
#03517:1300001300000000
#0351b:0000001300000000000000000000000013000000130013000000000000000000
#03513:00000000000000130000000000000000
#03516:0013
#03515:00000000000000000000000000000013
#03518:0000000000000013
#04415:13000000000000000014140000000000
#04417:00001313000000000000000000001300
#04412:00000013000000001300000000000000
#04419:00000000000000000000001300000000
#0441b:1300001300001300
#04416:00000013
#04512:13000000000000001414000014000000
#04517:0000001300000000
#0451b:00000000000000000000000000000013
#04515:0000000000000013
#04516:00000000000000001400001400000000
#0451a:0000000000141400
#04617:00000000000000000014140013000000
#04616:00001313000000000000000000001300
#0461b:00000013000000001300000000000000
#04614:00000000000000000000001300000000
#04612:2300001300001300
#04618:23
#05212:1300000000130000
#0521b:0000000000000013
#05218:00000000000000000013000013000000
#05215:00000000000013001300001300000000
#05214:0013000000000000
#05213:00000000001300000000000000000000
#05217:13
#05216:00000013000000000000000000000000
#05312:13000013000000000000000013001300
#05317:13000000000013000000000000000013
#05316:0000000000000000001300000000000000000000000000000000000000000000
#0531b:0000001300000000000000000000000013000000000000000000000000000000
#05318:00000000000000000013000013000000
#05315:00000000000000000000161300000000
#0541b:2300000000130000
#0541b:0000000000130000
#05412:0000000000000013
#05412:0000000000000013
#05415:00000000000000000013000013000000
#05415:00000000000000000013000013000000
#05418:00000000000013001300001300000000
#05418:00000000000000000000001300000000
#05419:0013000000000000
#0541a:00000000001300000000000000000000
#05416:13
#05417:00000013000000000000000000000000
#0551b:13000013000000000000000013001300
#05516:13000000000013000000000000000014
#05517:0000000000000000001300000000000000000000000000000000000000000000
#05512:0000001300000000000000000000000013000000000000000000000000000000
#05515:00000000000000000013160013000000
#05518:00000000000000000000001300000000
#05618:13
#05616:00000000130013000000130013000014
#0561b:00000013130000001300000000000000
#05612:1300000000130013
#05715:13
#05717:0000131323000000
#05712:00000013130000002300000000000000
#0571b:1300001300130000
#05716:0000000000130000
#01316:1300000000130000
#01312:00000013000000000000000000000000
#0131b:13000013
#01318:00000000000000000000000000000013
#01315:0000000000000013
#01217:0013000000000013
#01212:13001313000000001300000000001300
#01219:00000013
#01214:00000013
#0121b:13000000001313000000130000000000
#01216:0000001300000000
#01517:1300000000130000
#0151b:00000013000000000000000000000000
#01512:13000013
#01518:0000000000000013
#01515:00000000000000000000000000000013
#01416:0013000000000013
#0141b:23001313000000001300000000001300
#01414:00000013
#01419:00000013
#01412:23000000001313000000130000000000
#01417:0000001300000000
#01812:2300001300130000
#0181b:0013000013000013
#01815:0013
#01818:23
#01810:41
#02116:13001300001400000000000000140000
#0211b:1300000000130000
#02112:0013000013000000
#02114:0000140000000014
#02118:0000001400001400
#02117:0000000013130000
#02412:1300001400000000
#02417:0013000000000000
#02416:0000140000131400
#02414:00000000001400000000000000000000
#0241b:0013
#02418:00000000000000000000000000140000
#0241a:0000000000000014
#02216:0000001300130000
#02217:0013000000000013
#02218:0013
#02212:0013
#0221b:23
#02215:23
#02512:1300001400000000
#02517:0013000000000000
#0251a:0000141400000000
#02516:00000000001400000000000000000000
#02519:0012
#02515:00000000000000000000000012000013
#0251b:0000000000000013
#02315:13
#0231b:13
#02316:0000001300130000
#02317:0013000000000013
#02318:0013
#02312:0013
#00016:00000000141414140000000014141414
#00012:2323000024240000
#0001a:0000000024240000
#0001b:2323000000000000
#0661a:00140000
#06618:26000000001400000000260000000014
#06616:0000001400000014
#06614:00000000000000140000000000140000
#06612:2326000026231400
#0661b:0023000023000000
#02813:0013000000000000
#0281b:13000013001313000000000000001300
#02817:0000000013001313
#02816:00000013000000000000130000000000
#02812:0000000000000000001300000000000000000000000000001300000000000000
#02815:13
#02818:0013000000000000
#02917:13000013000000000000000000000000
#02918:00000000000000001300001300000000
#0291b:0000000000000000001300000000000000001300000000000000000013000000
#02915:00000000000000000000130000000013
#02912:13000013000000000000000013000000
#02916:0000001300000000001300000000000000000000000000000000000000000000
#0301a:0013000000000000
#03012:23000013001313000000000000001300
#03016:0000000013001313
#03017:00000013000000000000130000000000
#0301b:0000000000000000001300000000000000000000000000001300000000000000
#03015:0013000000000000
#03018:23
#03010:41
#03116:13000013000000000000000000000000
#03115:00000000000000001300001300000000
#03112:0000000000000000001300000000000000001300000000000000000013000000
#03118:00000000000000000000130000000013
#0311b:13000013000000000000000013000000
#03117:0000001300000000001300000000000000000000000000000000000000000000
#03213:0013000000000000
#0321b:13000013001313000000000000001300
#03217:0000000013001313
#03216:00000013000000000000130000000000
#03212:0000000000000000001300000000000000000000000000001300000000000000
#03215:13
#03218:0013000000000000
#03615:00000013000013000000000000000013
#03618:00000000000000130000001300001300
#0361b:1300000013130000
#03616:0000001300000000000000000000000000000000000000000000000000000000
#03612:2313000013000000
#03617:0000000000000000000000000000000000000013000000000000000000000000
#03712:1313000013000000
#03715:00000013000013000000000000000000
#0371b:1300000013130013
#03716:0000001300000000000000000000000000000000000000000000000000000000
#03718:00000000000000130000001300000000
#03717:0000000000000000000000000000000000000013000000000000000000001300
#00116:00000000141414140000000000000000
#00112:2525000026000000
#00119:2525000000000000
#00118:0026
#06918:00000000130000132600000000000000
#06915:00002500001316000000000000000000
#06912:24162600
#06916:25
#0691a:0024000000000000
#01617:0013000000000013
#01612:13001313000000001300000000001300
#01619:00000013
#01614:00000013
#0161b:13000000001313000000130000000000
#01616:0000001300000000
#03816:00001300000000131300000000000000
#03812:2300000000001300000000001300000000000013000000000000000000000000
#0381b:0000001300000000000000000000000013000000000013000000000013000000
#03817:13000000000000000000130000000013
#06212:0013000013000013
#06216:00000000131313001300000000000000
#0621b:2300001300130000
#06217:23000000000000000000000013131300
#06412:00001300000000001300000013171300
#06412:0013
#06412:0013
#06417:13001300131700000000000000000000
#0641b:1300131300130000
#0641b:13
#0641b:13
#06416:0000000013131300
#0631b:1300001300130000
#06317:13000000000000000000000013131300
#06312:0013000013000013
#06316:00000000131313001300000000000000
#06015:00000000001613000000000000160000
#0601b:1300130000131300
#0601b:13
#0601b:13
#06012:0013130013001300
#06012:0013
#06012:0013
#06016:0000000013130000
#06017:1313000000000000
#06018:0000000000000013
#05916:00000000000000001300130000130000
#05912:0000001313001313
#0591b:1300131300000013
#05917:13001300001300000000000000000000
#05816:00000000000000001300130000130000
#05812:0000001313001313
#0581b:2300131300000013
#05817:23001300001300000000000000000000
#05810:41
#06112:0013130013001300
#06112:0013
#06112:0013
#06116:0000000013130000
#0611b:1300130000131300
#0611b:13
#0611b:13
#06117:1313000000000000
#06115:00000000001613000000000000160000
#06118:0000000000000013
#04057:0023
#0405b:0000002300000000000000005300000000000000430000000000000000000000
#04056:0000002300000000000000005300000000000000430000000000000000000000
#04052:0023
#00352:0000000000000033
#00357:0000000000000043
#0055b:0000000000000043
#00556:0000000000000033
#00752:0000000000000033
#00757:0000000000000043
#01152:6313
#0115b:00000053000000000000000000000000
#0105b:0023
#01057:0000006300000000
#02056:0000001400000014
#04352:00000013000000000000000000000000
#0435b:1300004300000000
#04356:0034
#0515b:43000063000043000000000000000000
#05156:63000043000000000000000000000000
#05157:0000000000000000002300000000000000000000000000000000000000000000
#05152:0000002300000000000000000000000033000000000000000000000000000000
#04857:0000000043230000
#04852:0053
#0485b:53
#02652:0000005300000000
#02656:0023
#02657:00000053000000000000000000000000
#0265b:0000000000000000002300000000000000000000000000000000000000000000
#0685a:0034000034000000
#06852:4400000000440000
#06652:0036000036000000
#06658:4600000000460000
#03457:53000033000000000000000000000000
#0345b:0000002300000000000000000000000000000000000000000000000000000000
#03456:00000000000000006300004300000000
#03452:0000000000000000000000000000000000000023000000000000000000000000
#03557:53000033000000000000000000000000
#0355b:0000002300000000000000000000000000000000000043000000000000000000
#03556:00000000000000006300004300000000
#03552:0000000000000000000000000000000000000023000000000000000000000000
#03956:00000000000000006300004300000000
#03952:0000000000003300000000000000000000000023000000000000000000000000
#0395b:0000002300000000000000000000000000000000000043000000000000000000
#03957:53
#04257:00000053
#04252:0000002300000000
#04552:1300003300000000
#0455b:00000013000000000000000000000000
#04556:0044
#0445b:0000002300000000
#04456:00000063
#0475b:1300004300000000
#04752:00000013000000000000000000000000
#04756:0034
#04652:0000002300000000
#04657:00000053
#04952:63
#04956:0000000033230000
#0495b:0063
#05352:33000053000033000000000000000000
#05356:0000000000000000002300000000000000000000000000000000000000000000
#0535b:0000002300000000000000000000000043000000000000000000000000000000
#05357:53000033000000000000000000000000
#0555b:43000063000043000000000000000000
#05557:0000000000000000002300000000000000000000000000000000000000000000
#05552:0000002300000000000000000000000033000000000000000000000000000000
#05556:63000043000000000000000000000000
#05656:0000000033230000
#0565b:0063
#05652:63
#0575b:5300000000230000
#05756:0000000000230000
#05752:00005333
#05757:00005333
#01352:00000063000000000000000000000000
#0135b:5313
#01252:0023
#01256:0000005300000000
#0155b:00000053000000000000000000000000
#01552:6313
#0145b:0023
#01457:0000006300000000
#01852:0000001300000000
#0185b:0000000000000013
#01952:0000001300000033
#01957:0000000000000033
#02158:0000001400000000
#02154:0000000000000014
#02452:0000001400000000
#0245a:0000000000000014
#02256:0000001300000000
#02257:0000000000000013
#02552:0000001400000000
#0255a:0000001400000000
#02356:0000001300000000
#02352:0000000000000033
#02357:0000000000000043
#02757:0000002300000000002300000000000000000000000000000000000000000000
#02752:0000000000000000002300000000000000000000000000000000000000000000
#0275b:63000063000000001300000000000000
#02756:00000063000000000000000000000000
#0285b:0000006300000000
#02857:0023
#02856:00000063000000000000000000000000
#02852:0000000000000000002300000000000000000000000000000000000000000000
#02956:0000002300000000002300000000000000000000000000000000000000000000
#0295b:0000000000000000002300000000000000000000000000000000000000000000
#02952:53000053000000001300000000000000
#02957:00000053000000000000000000000000
#03052:0000005300000000
#03056:0023
#03057:00000053000000000000000000000000
#0305b:0000000000000000002300000000000000000000000000000000000000000000
#03157:0000002300000000002300000000000000000000000000000000000000000000
#03152:0000000000000000002300000000000000000000000000000000000000000000
#0315b:63000063000000001300000000000000
#03156:00000063000000000000000000000000
#0325b:0000006300000000
#03257:0023
#03256:00000063000000000000000000000000
#03252:0000000000000000002300000000000000000000000000000000000000000000
#05059:0043000000000000
#0505a:00000000004300000000000000000000
#05057:00000023000000000000000000000000
#05056:53
#05058:0000005300000000
#05254:0033000000000000
#05253:00000000003300000000000000000000
#05257:63
#05256:00000023000000000000000000000000
#05255:0000006300000000
#05459:0043000000000000
#0545a:00000000004300000000000000000000
#05456:53
#05457:00000023000000000000000000000000
#05458:0000005300000000
#0005b:43
#00052:0033000034000000
#0005a:0000000000440000
#00159:45
#00152:0035000000000000
#06758:4646
#06752:0036000036000000
#0365b:63000043000000000000000000000000
#03656:0000002300000000000000000000000000000000000000000000000000000000
#03652:00000000000000005300003300000000
#03657:0000000000000000000000000000000000000023000000000000000000000000
#0375b:63000043000000000000000000000000
#03756:0000002300000000000000000000000000000000000000000000000000000000
#03758:00000000000000000000003300000000
#03752:00000000000000005300003300000000
#03757:0000000000000000000000000000000000000023000000000000000000000000
#0695a:0034000000000000
#06952:44
#0335b:0000002300000000000000000000000000000000000000000000000000000000
#03357:53
#03352:4300000000000000002300000000000035000000000000000000000000000000
#03355:00000063000000000000000000000000
#03359:0045
#03358:00000033000000000000000000000000
#03356:0000004300000000
#01652:0023
#01656:0000005300000000
#03856:0063
#03852:0000000000003300000000000000000000000023000000000000000000000000
#0385b:0000002300000000000000000000000000000000000043000000000000000000
#03857:53
#0645b:0000004300000000
#06452:0000000000000033
#06256:0000003300000000
#06257:0000000000000043
#06356:0000003300000000
#06357:0000000000000043
#06352:0000000000000033
#06055:0000003300000000
#06058:0000000000000043
#05952:0000000000000033
#0595b:0000004300000043
#05852:0000000000000033
#0585b:0000004300000000
#06155:0000003300000000
#06158:0000000000000043
#001350:0000000000000000000000000000000000000000000000001252525222000000
#001340:00000000000000000000000000000000000000000000000000000000000000000000000000000000000000000000000000520052005200520000000000000000
#001391:0000000000000000000000000000000000000000000000001252525222000000
#0013a1:00000000000000000000000000000000000000000000000000000000000000000000000000000000000000000000000000520052005200520000000000000000
#002361:0013230000000000
#002371:0000000000132300
#003361:0013230000000000
#003371:0000000000132300
#0033b0:00000013
#003390:00000000000000000000000000330000
#003370:0000000000000023
#004320:0013230000000000
#0043b0:0000000000132300
#005320:0013230000000000
#0053b0:0000000000132300
#005321:00000013
#005341:00000000000000000000000000330000
#005361:0000000000000023
#006371:0013000000000000
#006321:00230000
#006361:0000000000130000
#0063b1:00000023
#007371:0013000000000000
#007321:00230000
#007361:0000000000130000
#0073b1:00000023
#007360:00000013
#007340:00000000000000000000000000330000
#007320:0000000000000023
#0093b0:0013
#009380:0000000000230000
#009321:0013
#009351:0000000000230000
#010371:0000001300230000
#0103b1:0053
#011321:13
#011361:00000023000000000000000000000000
#0113b0:00000013000000000000000000000000
#011370:0000002300000000
#011321:0000001323000000
#011370:00001323
#0113b0:0000000000330000
#012360:0000001300230000
#012320:0053
#0133b0:13
#013370:00000023000000000000000000000000
#013321:00000013000000000000000000000000
#013361:0000002300000000
#0133b0:0000001323000000
#013361:00001323
#013321:0000000000330000
#014371:0000001300230000
#0143b1:0053
#015321:13
#015361:00000023000000000000000000000000
#0153b0:00000013000000000000000000000000
#015370:0000002300000000
#015321:0000001323000000
#015370:00001323
#0153b0:0000000000330000
#016360:0000001300230000
#016320:0053
#018360:0013000000000000
#018320:00230000
#018371:0000132300000000
#0183b1:00000000003300000000000000000000
#018371:0000000000130000
#0183b1:00000023
#018360:0000000000001323
#018320:00000000000000000000000000330000
#019360:0013000000000000
#019320:00230000
#019371:0000132300000000
#0193b1:00000000003300000000000000000000
#019371:0000000000130000
#0193b1:00000023
#022321:0013000000000000
#022361:00230000
#0223b0:0000132300000000
#022370:00000000003300000000000000000000
#0223b0:0000000000130000
#022370:00000023
#022321:0000000000001323
#022361:00000000000000000000000000330000
#023321:0013000000000000
#023361:00230000
#0233b0:0000132300000000
#023370:00000000003300000000000000000000
#0233b0:0000000000130000
#023370:00000023
#023321:0000000000001323
#023361:00000000000000000000000000330000
#024371:13
#0243b1:0023000000000000
#024361:0013
#024321:0000000000230000
#025371:13
#0253b1:0023000000000000
#025351:0000000000000000000000000000000012525252220000000000000000000000
#025361:00000000000000000000000000000000000000000000000000000000000000000052005200520052000000000000000000000000000000000000000000000000
#025390:0000000000000000000000000000000000000000125252522200000000000000
#025380:00000000000000000000000000000000000000000000000000000000000000000000000000000000005200520052005200000000000000000000000000000000
#026370:00000013000023000000000000000000
#0263b0:0000000000000000005300000000000000000000000000000000000000000000
#026321:0000001300230000
#026361:0053
#0273b1:13000053000053002300000000000000
#027371:0000005300000000005300000000000000000000000000000000000000000000
#027360:00000013000023000000000000000000
#027320:0000000000000000005300000000000000000000000000000000000000000000
#028361:00000013000023000000000000000000
#028321:0000000000000000005300000000000000000000000000000000000000000000
#0283b0:0000001300230000
#028370:0053
#029320:13000053000053002300000000000000
#029360:0000005300000000005300000000000000000000000000000000000000000000
#029371:00000013000023000000000000000000
#0293b1:0000000000000000005300000000000000000000000000000000000000000000
#030370:00000013000023000000000000000000
#0303b0:0000000000000000005300000000000000000000000000000000000000000000
#030321:0000001300230000
#030361:0053
#0313b1:13000053000053002300000000000000
#031371:0000005300000000005300000000000000000000000000000000000000000000
#031360:00000013000023000000000000000000
#031320:0000000000000000005300000000000000000000000000000000000000000000
#032361:00000013000023000000000000000000
#032321:0000000000000000005300000000000000000000000000000000000000000000
#0323b0:0000001300230000
#032370:0053
#033370:13
#0333b0:0000005300000000000000000000000000000000000000000000000000000000
#033380:00000023000000000000000000000000
#033351:00000013000000000000000000000000
#033321:0000000000000000005300000000000000000000000000000000000000000000
#033361:0000002300000000
#034371:13000023000000000000000000000000
#0343b1:0000005300000000000000000000000000000000000000000000000000000000
#034361:00000000000000001300002300000000
#034321:0000000000000000000000000000000000000053000000000000000000000000
#035371:13000023000000000000000000000000
#0353b1:0000005300000000000000000000000000000000000000000000000000000000
#035361:00000000000000001300002300000000
#035321:0000000000000000000000000000000000000053000000000000000000000000
#0363b1:13000023000000000000000000000000
#036361:0000005300000000000000000000000000000000000000000000000000000000
#036321:00000000000000001300002300000000
#036371:0000000000000000000000000000000000000053000000000000000000000000
#0373b1:13000023000000000000000000000000
#037361:0000005300000000000000000000000000000000000000000000000000000000
#037321:00000000000000001300002300000000
#037371:0000000000000000000000000000000000000053000000000000000000000000
#038371:13000023000000000000000000000000
#0383b1:0000005300000000000000000000000000000000000000000000000000000000
#038361:00000000000000001300002300000000
#038321:0000000000000000000000000000000000000053000000000000000000000000
#039371:13000023000000000000000000000000
#0393b1:0000005300000000000000000000000000000000000000000000000000000000
#039361:00000000000000001300002300000000
#039321:0000000000000000000000000000000000000053000000000000000000000000
#0403b1:1300005300000000000000000000000000000000000000000000000000000000
#040371:00000023000000000000000000000000
#040360:1300005300000000000000000000000000000000000000000000000000000000
#040320:00000023000000000000000000000000
#0403b0:0000001300230000
#040370:0053
#040361:0000001300230000
#040321:0053
#042361:00000000001323000000000000000000
#042320:0000001300000000
#042360:0023
#042370:00000013
#0423b0:0000000000000023
#043360:13
#043320:00530023000000000000000000000000
#043371:00000013000000000000000000000000
#0433b1:0000532300000000
#044371:00000000001323000000000000000000
#0443b0:0000001300000000
#044370:0023
#044360:00000013
#044320:0000000000000023
#045370:13
#0453b0:00530023000000000000000000000000
#045361:00000013000000000000000000000000
#045321:0000532300000000
#046361:00000000001323000000000000000000
#046320:0000001300000000
#046360:0023
#046370:00000013
#0463b0:0000000000000023
#047360:13
#047320:00530023000000000000000000000000
#047371:00000013000000000000000000000000
#0473b1:0000532300000000
#0483b1:13
#048371:00000023000000000000000000000000
#0483b1:0000001300000000
#048371:0023
#048320:00001323
#048370:0000000000530000
#049320:13
#049360:00000023000000000000000000000000
#049320:0000001300000000
#049360:0023
#0493b1:00001323
#049361:0000000000530000
#050361:13
#050321:0023000000000000
#050371:00000013000000000000000000000000
#050331:00000000002300000000000000000000
#050381:0000001300000000
#050341:0023
#0503b1:00000013
#050371:0000000000000023
#051361:13000023000000000000000000000000
#051321:0000005300000000000000000000000000000000000000000000000000000000
#0513b0:00000013000023000000000000000000
#051370:0000000000000000005300000000000000000000000000000000000000000000
#052370:13
#0523b0:0023000000000000
#052360:00000013000000000000000000000000
#0523a0:00000000002300000000000000000000
#052350:0000001300000000
#052390:0023
#052320:00000013
#052360:0000000000000023
#053370:13000023000000000000000000000000
#0533b0:0000005300000000000000000000000000000000000000000000000000000000
#053321:00000013000023000000000000000000
#053361:0000000000000000005300000000000000000000000000000000000000000000
#054361:13
#054321:0023000000000000
#054371:00000013000000000000000000000000
#054331:00000000002300000000000000000000
#054381:0000001300000000
#054341:0023
#0543b1:00000013
#054371:0000000000000023
#0543b0:00000013
#054370:0000000000000023
#055360:13000023000000000000000000000000
#055320:0000005300000000000000000000000000000000000000000000000000000000
#0553b1:00000013000023000000000000000000
#055371:0000000000000000005300000000000000000000000000000000000000000000
#056321:13
#056361:00000023000000000000000000000000
#056321:0000001300000000
#056361:0023
#0563b0:00001323
#056360:0000000000530000
#0573b0:13
#057370:00000023000000000000000000000000
#057370:00001323
#0573b0:0000000000530000
#057321:00001323
#057361:0000000000530000
#058321:0013000000000000
#058371:00230000
#0583b1:0000000000130000
#058361:00000023
#059321:0013000000000000
#059371:00230000
#0593b1:0000000000130000
#059361:00000023
#062371:0013000000000000
#0623b1:00230000
#062361:0000000000130000
#062321:00000023
#063371:0013000000000000
#0633b1:00230000
#063361:0000000000130000
#063321:00000023
#065321:0013
#065351:0000000000230000
#0653b0:0013
#065380:0000000000230000
