This file was generated by Ched 2.6.4.0.
#TITLE ""
#ARTIST ""
#DESIGNER ""
#DIFFICULTY 0
#PLAYLEVEL
#SONGID ""
#WAVE ""
#WAVEOFFSET 0
#JACKET ""
#REQUEST "ticks_per_beat 480"
#00002: 4
#BPM01: 162
#00008: 01
#TIL00: ""
#HISPEED 00
#MEASUREHS 00
#00019:14140000
#00013:00001414
#00119:1414
#00113:00140000
#04212:00160000
#04218:26001414
#04214:0000000000140000
#0421f:21
#04418:0000160000140000
#04414:00001414
#04412:16
#04612:0000160000140000
#04618:16001414
#0481a:1414
#04814:00140000
#05012:00160000
#0501a:0014
#05014:0000000000140000
#05018:26000014
#05218:0000160000140000
#05212:1614
#05214:00000014
#05412:00160000
#05418:1614
#05414:0000000000140000
#0541a:00000014
#05616:00140000
#05612:14
#0561a:0014
#0381a:14
#03817:0014
#03912:14
#03915:0014
#0401a:14
#04014:00140000
#04112:14
#04118:00140000
#0021a:14141400
#00210:41
#00314:14141400
#00418:14141400
#00512:14141400
#0061a:1414
#00614:00140000
#00714:1414
#0071a:00140000
#00818:1414
#00812:00140000
#00912:1414
#00918:00140000
#0101a:1414
#01014:00140014
#01010:41
#01118:1414
#01112:00140000
#01212:1414
#01218:00140014
#01314:1414
#0131a:00140000
#0141a:14
#01412:00140000
#01418:0014
#01414:00000014
#0151a:14
#01512:00140000
#01518:0014
#01612:14
#0161a:00140000
#01614:0014
#01618:00000014
#01712:14
#0171a:00140000
#01714:0014
#0181a:14
#01814:00140000
#01818:0014
#01810:41
#01912:14
#01918:00140000
#01914:0014
#02018:14
#02014:00140000
#0201a:0014
#02114:14
#02118:00140000
#02112:0014
#0221a:14
#02212:00140000
#02218:0014
#02312:14
#0231a:00140000
#02314:0014
#02418:14
#02412:00140000
#0241a:0014
#02514:14
#0251a:00140000
#02512:0014
#02618:14
#02614:00140000
#0261a:0014
#02612:00000014
#02718:14
#02714:00140000
#0271a:0014
#02814:14
#02818:00140000
#02812:0014
#0281a:00000014
#02914:14
#02918:00140000
#02912:0014
#0301a:14
#03014:00140000
#03018:0014
#03012:00000014
#03010:41
#03118:14
#03114:00140000
#0311a:0014
#03212:14
#03218:00140000
#03214:0014
#0321a:00000014
#03314:14
#03318:00140000
#03312:0014
#0581a:1414
#05814:00140014
#05810:41
#05918:1414
#05912:00140014
#0601a:14
#06012:00000014
#06018:0014
#06014:00140000
#06218:14
#06212:00140000
#0621a:0014
#06214:00000014
#06114:00140000
#06118:0014
#0611a:14
#06112:00000014
#06318:14
#06312:00140000
#0631a:0014
#06314:00000014
#0641a:14
#06416:00140014
#06412:0014
#06512:14
#06516:00140014
#0651a:0014
#0661a:1414
#06612:00140014
#0671a:1414
#06712:00140000
#06714:1414
#06718:00140000
#06812:1414
#0681a:00140014
#06912:1414
#0691a:00140000
#06918:1414
#06914:00140000
#0341f:11
#04912:2424
#04918:00240000
#0571a:24
#05716:00240000
#05712:0024
#04310:41
#0485a:0014
#04952:0014
#05752:00000014
#03857:0054
#0385a:24
#03955:0064
#03952:24
#04152:00000014
#0405a:00000014
#0565a:0014
#0343a0:14000024
#034370:00343400
#035320:14000024
#035350:00343400
#036370:14000024
#0363a0:00343400
#037350:14000024
#037320:00343400
#0383a0:14000024
#038370:00343400
#039320:14000024
#039350:00343400
#0403a0:00001424
#041320:00001424
#043340:14240000
#0433a1:14240000
#043321:00001424
#043380:00001424
#045380:14240000
#045321:14240000
#0453a1:00001424
#045340:00001424
#047340:14240000
#0473a1:14240000
#047321:00001424
#047380:00001424
#051340:14
#051320:00240000
#0513a1:14
#051381:00240000
#051321:0014
#051341:00000024
#051380:0014
#0513a0:00000024
#053380:14
#0533a0:00240000
#053321:14
#053341:00240000
#0533a1:0014
#053381:00000024
#053340:0014
#053320:00000024
#055340:14
#055320:00240000
#0553a1:14
#055381:00240000
#055341:0014
#055321:00000024
#0553a0:0014
#055380:00000024
#057320:00001424
