This file was generated by Ched 2.7.0.0.
#TITLE ""
#ARTIST ""
#DESIGNER ""
#DIFFICULTY 0
#PLAYLEVEL
#SONGID ""
#WAVE ""
#WAVEOFFSET 0
#JACKET ""
#REQUEST "ticks_per_beat 480"
#00002: 4
#BPM01: 202
#00008: 01
#TIL00: "101'1440:0.1, 100'1440:0.9, 100'1680:0.8, 101'0:0.7, 101'240:0.6, 101'480:0.5, 101'720:0.4, 101'960:0.3, 101'1200:0.2, 102'0:16, 102'42:1"
#VOLUME: ""
#HISPEED 00
#MEASUREHS 00
#00418:2323000013001300
#00415:0000000000130013
#00412:2323000000000000
#00818:0000130000001313
#00815:00000000000000001300000000130013
#0081b:13
#00812:13
#0071b:00130000
#00718:0000001300000013
#00715:00001313
#00712:0000000000130000
#00915:00001313
#00912:0000260000130013
#00918:2600000000230023
#0091b:00002323
#0161b:0023000013000000
#01618:0000000000130000
#01615:00000013
#01612:0000002300000013
#01616:0023000000000000
#01617:0000002300000000
#01815:23132313
#01818:1300230013000013
#0181b:2323
#01812:00230000
#03518:1300001313000000
#03512:1300001313000000
#0991b:00230013
#09912:23002313
#09918:0013231300000000
#09915:2313001323000000
#01718:1313000023230000
#01715:2323000013130000
#0171b:2323000000000000
#01712:0000000023230000
#01018:0013001300002600
#0101b:00131300
#01012:0023002300002600
#01015:00232300
#01512:0000001300000023
#0151b:0000005300130000
#01516:0000000000130000
#01517:0000000000000023
#01518:0000005300000000
#01515:0000005300000000
#01112:1300000000000053
#01115:1353
#01118:13000053
#01110:41
#0111b:00530000
#01912:1313
#01915:00130013
#0191b:0053
#02012:1313
#02015:00130013
#0201b:1313
#02019:00130000
#02018:5300000000130013
#02112:1313
#02115:00130013
#0211b:00530053
#02118:0053
#0221c:12
#02218:1212
#0221a:00120000
#02216:00120012
#02214:0012
#02212:13000012
#0231b:1313
#02318:00130013
#02312:0053
#0241b:1313
#02418:00130013
#02412:1313
#02414:00130000
#02415:5300000000130013
#02712:1313
#02715:0013001300130013
#02718:00130013
#02710:41
#02818:0013001300130013
#02815:00130013
#0281b:5313
#02915:0013001300130013
#02918:00130013
#02912:5313
#03012:1312000000000000
#03014:00120000
#03018:0000121200001200
#03016:0000000012120000
#0301a:0012
#0301c:0000000000001212
#0301b:53
#0311b:13131313
#03118:0013001300130013
#03112:0053
#03212:13131313
#03215:5313001300130013
#0321b:0053
#03312:1300000013000024
#03315:0013000000130000
#03318:53130013
#0331b:0000001300000013
#03715:1300001313000000
#03712:1300001313000000
#03718:1300001313000000
#00216:00000014
#00212:2323000000000000
#00218:2323000000000000
#04116:0014001400140014
#0411b:23232323
#04112:23232323
#04115:53
#0441b:13
#04418:00001300000000000000000000130000
#04415:00000000130000000013000012001200
#04412:1300001300001212
#0441c:0000000012120000
#04419:0000000012120000
#0431b:13
#04318:1313000016130000
#04315:0013000013130000
#04312:1613
#04310:41
#0451b:1300000000000013
#04518:1313000016130000
#04515:0013000013130000
#04512:1613
#04612:13001316
#04615:0013001300000000
#04618:0000130000160000
#0461b:0013
#04616:0000000000000014
#04712:16131600
#04716:0014001400000000
#04718:00160013
#0471b:1313
#04715:00000013
#0501b:00001313
#05012:14001400240000001300001300130000
#05018:00000000000000000013000000000013
#05015:0000000000130013
#05212:1300000012120000
#05215:00001300000000001200120000130000
#05218:00000000130000000013000000000000
#0521b:1300001300000000
#0521c:0000000000001212
#05219:0000000000001212
#05312:1300000016000013
#05315:1313000000130000
#05318:1613000013130000
#0531b:0013
#0541b:1313
#05418:0013001300001600
#05415:00130000
#05412:0000000013160000
#0551a:14141414
#05516:0014001400140014
#05512:14181418
#05616:0014001400140014
#0561a:14141414
#05612:14181418
#05816:0014001400000000
#05812:13000000130000001300001300000013
#0581b:00131313
#05818:00000000000000000013000000130000
#05815:0000000000130013
#06012:5400005400140000
#06016:00000000005400540000000014000000
#0601a:0000140054000014
#06018:0000000000000000005400000000005400000000000000000000000000000000
#06014:0000000000000000000000540054000000000000000000000000000000000000
#0611b:0013001300000000
#06118:0000000013000000230000001300000000000000000000000054000000000054
#0611a:00000014
#06115:23232300
#06112:2300000023000054
#06116:00000000000000000000000000540054
#06114:0000000000000000000000000000000000000000000000000000005400540000
#0621b:0000000000130000
#06218:0000000000000000000000540054000000000000130000000000000000000000
#06215:00000013
#06212:00145413
#0621a:5400005400000000
#06214:0000000000000000005400000000005400000000000000000000000000000000
#06216:00000000005400540000000000000000
#06412:5400005400140000
#06416:00000000005400540000000014000000
#0641a:0000140054000014
#06418:0000000000000000005400000000005400000000000000000000000000000000
#06414:0000000000000000000000540054000000000000000000000000000000000000
#0651b:0013001300001300
#06515:23232313
#06518:0013231300000000
#06512:2323
#04812:0000130016001212
#04818:13000000130000001600000000120012
#04815:1313000000001212
#0481b:00000000000013000000000000120012
#05112:1316
#05115:1313000000130000
#05118:1613000013130000
#0511b:0013
#0491a:0014141424001400
#04912:1400000000000014
#04916:00000014
#06712:00001323
#06715:00231323
#06718:00231323
#0671a:14
#0671b:00230000
#0681b:13131323
#06818:13131323
#06815:13131323
#06819:0000001300130000
#06816:0000001300130000
#06813:0000001300130000
#0691b:00001323
#06918:13231323
#06915:13231323
#06912:13230000
#07012:13131323
#07015:13131323
#07018:13131323
#07014:0000001300130000
#07017:0000001300130000
#0701a:0000001300130000
#07115:13231323
#07118:13231323
#0711b:00230023
#07112:00230023
#07218:1300131313132300
#07215:1300131313132300
#0721b:00131323
#07212:0000001300130000
#07318:13231323
#07315:13231323
#07312:00230023
#0731b:00230023
#07415:1300131313132300
#07418:1300131313132300
#07412:00131323
#0741b:0000001300130000
#07518:1313000023230000
#07515:2323000013130000
#0751b:2323000000000000
#07512:0000000023230000
#07510:41
#07618:13231300
#07615:23132300
#0761b:2323
#07612:00230000
#0801a:14
#08016:1414
#08012:54
#07912:14
#07916:1414
#0791a:54
#0781a:14
#07816:1414
#07812:54
#07712:14
#07716:1414
#0771a:14
#0771f:11
#08112:2313130000001300
#0811b:0000130023131300
#08116:0013
#08119:0013000000000000
#08114:0000000000130000
#08117:13
#0811a:54
#0821b:13231313
#08218:0013130000000000
#08212:23132313
#08215:1300001313000000
#08312:1313131313002323
#08315:1313131313002323
#08318:1313131313002323
#0831b:1313131313002323
#08415:2323230013000013
#08412:2323230013000000
#08413:0000000000130000
#08416:0000000000130000
#08417:00000013
#08414:00000013
#08418:23002300230000000013000000001300
#08419:00000000000000000000001300000000
#0841a:00000000000000000000000000130000
#0841b:23002300230000000000000000000013
#0851b:0013230000132300
#08515:00000013000013002300001300001300
#08518:00001300230000130000130023000013
#08512:2400001323000013
#08516:24
#0851f:21
#08612:23001313
#08615:23000013000013000013000000130000
#08618:00001300230000130000130000001300
#0861b:00001300230000000000001300000013
#08610:0041
#08718:00000013000000130000001300000000
#08715:23000013000000130000001300000000
#0871b:0013230000132313
#08712:2300001323000013
#08818:00001300000013000000160000130013
#08815:00130000
#08812:23002c16
#0881b:2300000000000013
#08916:0014281418142814
#08912:26142414
#09318:0000000013000000230000001300000000000000000000000000005300530000
#09315:2300000013000000000000001300000023000000000000000053000000000053
#0931b:00230013
#09316:00000013
#09312:2300000023000053
#0931a:0000000000000000000000000000000000000000000000000053000000000053
#09319:00000000000000000000000000530053
#09317:0000000000000053
#09314:00000000000000000000000000530053
#09313:0000000000000000000000000000000000000000000000000000005300530000
#09016:1814281418142814
#09012:24142414
#05912:0013001300001400
#05915:0013231300000000
#05918:2300000000000000230000000000000023000000000000000000005400540000
#0591b:2323
#05910:41
#05914:0000000000000000000000000000000000000000000000000054000000000054
#05916:00000000000000000000000000540054
#0591a:0000000000000054
#06312:0013001300001400
#06315:0013231300000000
#06318:2300000000000000230000000000000023000000000000000000005400540000
#0631b:2323
#06314:0000000000000000000000000000000000000000000000000054000000000054
#06316:00000000000000000000000000540054
#0631a:0000000000000054
#0941a:0000000000000000000000530053000000000000140000000000000014000000
#09412:00135318
#09417:00135300
#0941b:5300005300000000
#09416:5300005300000000
#09413:0000000000000000005300000000005300000000000000000000000000000000
#09414:00000000005300530000000000000000
#09415:0000000000000000000000530053000000000000000000000000000000000000
#09418:0000000000000000005300000000005300000000000000000000000000000000
#09419:00000000005300530000000000000000
#03615:1300001313000000
#0361b:1300001313000000
#03818:1300001313000000
#0381b:1300001313000000
#03815:1300001313000000
#10012:1300000000000053
#10015:13000053
#10018:1300000000530000
#1001b:1353
#00512:13
#00518:1353
#0051b:00530000
#00515:00000053
#01418:0000000053001313
#01415:00000000000053000000000000130013
#0141b:0053000000530000
#01412:00530053
#01412:00530000
#0251b:1313
#02518:00130013
#0251a:0000000000000024
#02512:00530053
#02515:0053
#03915:0013000023000000
#03918:0000531300002300
#03912:2300000053130000
#0391b:0000230000005313
#04015:5313000023000000
#04018:0000531300002300
#04012:2300000053130000
#0401b:0000230000005313
#06612:13001300130013000000001300000013
#06615:1313130000130013
#06618:13001300000000000013000000130000
#0661b:13001313
#09216:0014001400000000
#0921b:13000000130000001300001300000013
#09212:00131313
#09215:00000000000000000013000000130000
#09218:0000000000130013
#09618:0000000000000000000000530053000000000000000000001300000000000000
#09615:0000000000000000005300000000005300000000130000000000000000000000
#0961b:00135313
#09612:5300005300130000
#09616:00135300
#09617:5300005300000000
#0961a:0000000000000000005300000000005300000000000000000000000000000000
#09619:00000000005300530000000000000000
#09614:00000000005300530000000000000000
#09613:0000000000000000000000530053000000000000000000000000000000000000
#09518:0000000013000000230000001300000000000000000000000053000000000053
#09515:2300000013000000000000001300000023000000000000000000005300530000
#09512:23002313
#09517:00000013
#0951b:0000230000000053
#09513:0000000000000000000000000000000000000000000000000053000000000053
#09514:00000000000000000000000000530053
#09516:0000000000000053
#09519:00000000000000000000000000530053
#0951a:0000000000000000000000000000000000000000000000000000005300530000
#09715:0000000013000000230000001300000000000000000000000053000000000053
#09718:2300000013000000000000001300000023000000000000000000005300530000
#0971b:23002313
#09716:00000013
#09712:0000230000000053
#0971a:0000000000000000000000000000000000000000000000000053000000000053
#09719:00000000000000000000000000530053
#09717:0000000000000053
#09714:00000000000000000000000000530053
#09713:0000000000000000000000000000000000000000000000000000005300530000
#05718:0013001300001300
#05715:0000130000130013
#0571b:00130000
#05712:00000013
#0571a:14
#09115:0013001300001300
#09118:0000130000130013
#09112:14130000
#0911b:00000013
#09812:00135318
#09817:00135300
#0981a:0000000000000000000000530053000000000000140000000000000014000000
#0981b:5300005300000000
#09816:5300005300000000
#09813:0000000000000000005300000000005300000000000000000000000000000000
#09814:00000000005300530000000000000000
#09815:0000000000000000000000530053000000000000000000000000000000000000
#09818:0000000000000000005300000000005300000000000000000000000000000000
#09819:00000000005300530000000000000000
#0011b:2323000000000000
#00115:2323000000000000
#0031b:2323000000000000
#00315:2323000000000000
#0421b:23232300
#04212:23232300
#04218:0023
#04215:0023
#02616:00240000
#02612:0024
#03416:00240000
#0341a:0024
#1011b:53535353
#10118:00530000005300000053000000530000
#10115:0053005300530053
#10112:00000053000000530000005300000053
#01312:5300000000000053
#01315:5353
#01318:53000053
#0131b:00530000
#01218:0000530000530000
#01215:0000005300000000
#0121b:0053000000530000
#01212:0053
#10216:000053000000000000000000000000000000000000000000000000000000000000000053000000000000000000000000000000000000000000000000000000000000000000000000000000000000000000000000000000000000000000000000000000000000000000000000000000000000000000000000000000000000000000000000000000000000000000000000000000000000000000000000000000000000000000000000000000000000000000000000000000000000000000000000000000000000000000000000000000000000000000000000000000000000000000000000000000000000000000000000000000000000000000000000000000000000000000000000000000000000000000000000000000000000000000000000000000000000000000000000000000000000000000000000000000000000000000000000000000000000000000000000000000000000000000000000000000000000000000000000000000000000000000000000000000000000000000000000000000000000000000000000000000000000000000000000000000000000000000000000000000000000000000000000000000000000000000000000000000000000000000000000000000000000000000000000000000000000000000000000000000000000000000000000000000000000000000000000000000000000000000000000000000000000000000000000000000000000000000000000000000000000000000000000000000000000000000000000000000000000000000000000000000000000000000000000000000000000000000000000000000000000000000000000000000000000000000000000000000000000000000000000000000000000000000000000000000000000000000000000000000000000000000000000000000000000000000000000000000000000000000000000000000000000000000000000000000000000000000000000000000000000000000000000000000000000000000000000000000000000000000000000000000000000000000000000000000000000000000000000000000000000000000000000000000000000000000000000000000000000000000000000000000000000000000000000000000000000000000000000000000000000000000000000000000000000000000000000000000000000000000000000000000000000000000000000000000000000000000000000000000000000000000000000000000000000000000000000000000000000000000000000000000000000000000000000000000000000000000000000000000000000000000000000000000000000000000000000000000000000000000000000000000000000000000000000000000000000000000000000000000000000000000000000000000000000000000000000000000000000000000000000000000000000000000000000000000000000000000000000000000000000000000000000000000000000000000000000000000000000000000000000000000000000000000000000000000000000000000000000000000000000000000000000000000000000000000000000000000000000000000000000000000000000000000000000000000000000000000000000000000000000000000000000000000000000000000000000000000000000000000000000000000000000000000000000000000000000000000000000000000000000000000000000000000000000000000000000000000000000000000000000000000000000000000000000000000000000000000000000000000000000000000000000000000000000000000000000000000000000000000000000000000000000000000000000000000000000000000000000000000000000000000000000000000000000000000000000000000000000000000000000000000000000000000000000000000000000000000000000000000000000000000000000000000000000000000000000000000000000000000000000000000000000000000000000000000000000000000000000000000000000000000000000000000000000000000000000000000000000000000000000000000000000000000000000000000000000000000000000000000000000000000000000000000000000000000000000000000000000000000000000000000000000000000000000000000000000000000000000000000000000000000000000000000000000000000000000000000000000000000000000000000000000000000000000000000000000000000000000000000000000000000000000000000000000000000000000000000000000000000000000000000000000000000000000000000000000000000000000000000000000000000000000000000000000000000000000000000000000000000000000000000000000000000000000000000000000000000000000000000000000000000000000000000000000000000000000000000000000000000000000000000000000000000000000000000000000000000000000000000000000000000000000000000000000000000000000000000000000000000000000000000000000000000000000000000000000000000000000
#10215:000000000055000000000000000000000000000053000000000000000000000053000000000000000000000000000000000000000000000000000000000000000000000000000000000000000000000000000000000000000000000000000000000000000000000000000000000000000000000000000000000000000000000000000000000000000000000000000000000000000000000000000000000000000000000000000000000000000000000000000000000000000000000000000000000000000000000000000000000000000000000000000000000000000000000000000000000000000000000000000000000000000000000000000000000000000000000000000000000000000000000000000000000000000000000000000000000000000000000000000000000000000000000000000000000000000000000000000000000000000000000000000000000000000000000000000000000000000000000000000000000000000000000000000000000000000000000000000000000000000000000000000000000000000000000000000000000000000000000000000000000000000000000000000000000000000000000000000000000000000000000000000000000000000000000000000000000000000000000000000000000000000000000000000000000000000000000000000000000000000000000000000000000000000000000000000000000000000000000000000000000000000000000000000000000000000000000000000000000000000000000000000000000000000000000000000000000000000000000000000000000000000000000000000000000000000000000000000000000000000000000000000000000000000000000000000000000000000000000000000000000000000000000000000000000000000000000000000000000000000000000000000000000000000000000000000000000000000000000000000000000000000000000000000000000000000000000000000000000000000000000000000000000000000000000000000000000000000000000000000000000000000000000000000000000000000000000000000000000000000000000000000000000000000000000000000000000000000000000000000000000000000000000000000000000000000000000000000000000000000000000000000000000000000000000000000000000000000000000000000000000000000000000000000000000000000000000000000000000000000000000000000000000000000000000000000000000000000000000000000000000000000000000000000000000000000000000000000000000000000000000000000000000000000000000000000000000000000000000000000000000000000000000000000000000000000000000000000000000000000000000000000000000000000000000000000000000000000000000000000000000000000000000000000000000000000000000000000000000000000000000000000000000000000000000000000000000000000000000000000000000000000000000000000000000000000000000000000000000000000000000000000000000000000000000000000000000000000000000000000000000000000000000000000000000000000000000000000000000000000000000000000000000000000000000000000000000000000000000000000000000000000000000000000000000000000000000000000000000000000000000000000000000000000000000000000000000000000000000000000000000000000000000000000000000000000000000000000000000000000000000000000000000000000000000000000000000000000000000000000000000000000000000000000000000000000000000000000000000000000000000000000000000000000000000000000000000000000000000000000000000000000000000000000000000000000000000000000000000000000000000000000000000000000000000000000000000000000000000000000000000000000000000000000000000000000000000000000000000000000000000000000000000000000000000000000000000000000000000000000000000000000000000000000000000000000000000000000000000000000000000000000000000000000000000000000000000000000000000000000000000000000000000000000000000000000000000000000000000000000000000000000000000000000000000000000000000000000000000000000000000000000000000000000000000000000000000000000000000000000000000000000000000000000000000000000000000000000000000000000000000000000000000000000000000000000000000000000000000000000000000000000000000000000000000000000000000000000000000000000000000000000000000000000000000000000000000000000000000000000000000000000000000000000000000000000000000000000000000000000000000000000000000000000000000000000000000000000000000000000000000000000000000000000000000000000000000000000000000000000000
#10219:000000000000005200000000000000000000000000000000000000000000000000000000000000000000000000000000000000000000000000000000000000000000000000000000000000000000000000000000000000000000000000000000000000000000000000000000000000000000000000000000000000000000000000000000000000000000000000000000000000000000000000000000000000000000000000000000000000000000000000000000000000000000000000000000000000000000000000000000000000000000000000000000000000000000000000000000000000000000000000000000000000000000000000000000000000000000000000000000000000000000000000000000000000000000000000000000000000000000000000000000000000000000000000000000000000000000000000000000000000000000000000000000000000000000000000000000000000000000000000000000000000000000000000000000000000000000000000000000000000000000000000000000000000000000000000000000000000000000000000000000000000000000000000000000000000000000000000000000000000000000000000000000000000000000000000000000000000000000000000000000000000000000000000000000000000000000000000000000000000000000000000000000000000000000000000000000000000000000000000000000000000000000000000000000000000000000000000000000000000000000000000000000000000000000000000000000000000000000000000000000000000000000000000000000000000000000000000000000000000000000000000000000000000000000000000000000000000000000000000000000000000000000000000000000000000000000000000000000000000000000000000000000000000000000000000000000000000000000000000000000000000000000000000000000000000000000000000000000000000000000000000000000000000000000000000000000000000000000000000000000000000000000000000000000000000000000000000000000000000000000000000000000000000000000000000000000000000000000000000000000000000000000000000000000000000000000000000000000000000000000000000000000000000000000000000000000000000000000000000000000000000000000000000000000000000000000000000000000000000000000000000000000000000000000000000000000000000000000000000000000000000000000000000000000000000000000000000000000000000000000000000000000000000000000000000000000000000000000000000000000000000000000000000000000000000000000000000000000000000000000000000000000000000000000000000000000000000000000000000000000000000000000000000000000000000000000000000000000000000000000000000000000000000000000000000000000000000000000000000000000000000000000000000000000000000000000000000000000000000000000000000000000000000000000000000000000000000000000000000000000000000000000000000000000000000000000000000000000000000000000000000000000000000000000000000000000000000000000000000000000000000000000000000000000000000000000000000000000000000000000000000000000000000000000000000000000000000000000000000000000000000000000000000000000000000000000000000000000000000000000000000000000000000000000000000000000000000000000000000000000000000000000000000000000000000000000000000000000000000000000000000000000000000000000000000000000000000000000000000000000000000000000000000000000000000000000000000000000000000000000000000000000000000000000000000000000000000000000000000000000000000000000000000000000000000000000000000000000000000000000000000000000000000000000000000000000000000000000000000000000000000000000000000000000000000000000000000000000000000000000000000000000000000000000000000000000000000000000000000000000000000000000000000000000000000000000000000000000000000000000000000000000000000000000000000000000000000000000000000000000000000000000000000000000000000000000000000000000000000000000000000000000000000000000000000000000000000000000000000000000000000000000000000000000000000000000000000000000000000000000000000000000000000000000000000000000000000000000000000000000000000000000000000000000000000000000000000000000000000000000000000000000000000000000000000000000000000000000000000000000000000000000000000000000000000000000000000000000000000000000000000000000000000000000000000000000000000000000000000000000
#10214:000000000000005300000000000000000053000000000000000000000000530000000000000000000000000000000000000000000000000000000000000000000000000000000000000000000000000000000000000000000000000000000000000000000000000000000000000000000000000000000000000000000000000000000000000000000000000000000000000000000000000000000000000000000000000000000000000000000000000000000000000000000000000000000000000000000000000000000000000000000000000000000000000000000000000000000000000000000000000000000000000000000000000000000000000000000000000000000000000000000000000000000000000000000000000000000000000000000000000000000000000000000000000000000000000000000000000000000000000000000000000000000000000000000000000000000000000000000000000000000000000000000000000000000000000000000000000000000000000000000000000000000000000000000000000000000000000000000000000000000000000000000000000000000000000000000000000000000000000000000000000000000000000000000000000000000000000000000000000000000000000000000000000000000000000000000000000000000000000000000000000000000000000000000000000000000000000000000000000000000000000000000000000000000000000000000000000000000000000000000000000000000000000000000000000000000000000000000000000000000000000000000000000000000000000000000000000000000000000000000000000000000000000000000000000000000000000000000000000000000000000000000000000000000000000000000000000000000000000000000000000000000000000000000000000000000000000000000000000000000000000000000000000000000000000000000000000000000000000000000000000000000000000000000000000000000000000000000000000000000000000000000000000000000000000000000000000000000000000000000000000000000000000000000000000000000000000000000000000000000000000000000000000000000000000000000000000000000000000000000000000000000000000000000000000000000000000000000000000000000000000000000000000000000000000000000000000000000000000000000000000000000000000000000000000000000000000000000000000000000000000000000000000000000000000000000000000000000000000000000000000000000000000000000000000000000000000000000000000000000000000000000000000000000000000000000000000000000000000000000000000000000000000000000000000000000000000000000000000000000000000000000000000000000000000000000000000000000000000000000000000000000000000000000000000000000000000000000000000000000000000000000000000000000000000000000000000000000000000000000000000000000000000000000000000000000000000000000000000000000000000000000000000000000000000000000000000000000000000000000000000000000000000000000000000000000000000000000000000000000000000000000000000000000000000000000000000000000000000000000000000000000000000000000000000000000000000000000000000000000000000000000000000000000000000000000000000000000000000000000000000000000000000000000000000000000000000000000000000000000000000000000000000000000000000000000000000000000000000000000000000000000000000000000000000000000000000000000000000000000000000000000000000000000000000000000000000000000000000000000000000000000000000000000000000000000000000000000000000000000000000000000000000000000000000000000000000000000000000000000000000000000000000000000000000000000000000000000000000000000000000000000000000000000000000000000000000000000000000000000000000000000000000000000000000000000000000000000000000000000000000000000000000000000000000000000000000000000000000000000000000000000000000000000000000000000000000000000000000000000000000000000000000000000000000000000000000000000000000000000000000000000000000000000000000000000000000000000000000000000000000000000000000000000000000000000000000000000000000000000000000000000000000000000000000000000000000000000000000000000000000000000000000000000000000000000000000000000000000000000000000000000000000000000000000000000000000000000000000000000000000000000000000000000000000000000000000000000000000000000000000000000000000000000000000000000000000000000000000000000000
#10213:000000000000000000005300530000530000000000000000000000000000000000000000005700005700570000000000000000000000000000000000000000000000000000000000000000000000000000000000000000000000000000000000000000000000000000000000000000000000000000000000000000000000000000000000000000000000000000000000000000000000000000000000000000000000000000000000000000000000000000000000000000000000000000000000000000000000000000000000000000000000000000000000000000000000000000000000000000000000000000000000000000000000000000000000000000000000000000000000000000000000000000000000000000000000000000000000000000000000000000000000000000000000000000000000000000000000000000000000000000000000000000000000000000000000000000000000000000000000000000000000000000000000000000000000000000000000000000000000000000000000000000000000000000000000000000000000000000000000000000000000000000000000000000000000000000000000000000000000000000000000000000000000000000000000000000000000000000000000000000000000000000000000000000000000000000000000000000000000000000000000000000000000000000000000000000000000000000000000000000000000000000000000000000000000000000000000000000000000000000000000000000000000000000000000000000000000000000000000000000000000000000000000000000000000000000000000000000000000000000000000000000000000000000000000000000000000000000000000000000000000000000000000000000000000000000000000000000000000000000000000000000000000000000000000000000000000000000000000000000000000000000000000000000000000000000000000000000000000000000000000000000000000000000000000000000000000000000000000000000000000000000000000000000000000000000000000000000000000000000000000000000000000000000000000000000000000000000000000000000000000000000000000000000000000000000000000000000000000000000000000000000000000000000000000000000000000000000000000000000000000000000000000000000000000000000000000000000000000000000000000000000000000000000000000000000000000000000000000000000000000000000000000000000000000000000000000000000000000000000000000000000000000000000000000000000000000000000000000000000000000000000000000000000000000000000000000000000000000000000000000000000000000000000000000000000000000000000000000000000000000000000000000000000000000000000000000000000000000000000000000000000000000000000000000000000000000000000000000000000000000000000000000000000000000000000000000000000000000000000000000000000000000000000000000000000000000000000000000000000000000000000000000000000000000000000000000000000000000000000000000000000000000000000000000000000000000000000000000000000000000000000000000000000000000000000000000000000000000000000000000000000000000000000000000000000000000000000000000000000000000000000000000000000000000000000000000000000000000000000000000000000000000000000000000000000000000000000000000000000000000000000000000000000000000000000000000000000000000000000000000000000000000000000000000000000000000000000000000000000000000000000000000000000000000000000000000000000000000000000000000000000000000000000000000000000000000000000000000000000000000000000000000000000000000000000000000000000000000000000000000000000000000000000000000000000000000000000000000000000000000000000000000000000000000000000000000000000000000000000000000000000000000000000000000000000000000000000000000000000000000000000000000000000000000000000000000000000000000000000000000000000000000000000000000000000000000000000000000000000000000000000000000000000000000000000000000000000000000000000000000000000000000000000000000000000000000000000000000000000000000000000000000000000000000000000000000000000000000000000000000000000000000000000000000000000000000000000000000000000000000000000000000000000000000000000000000000000000000000000000000000000000000000000000000000000000000000000000000000000000000000000000000000000000000000000000000000000000000000000000000000000000000000000000000000000000000000000000000000000000000
#10212:000000000000000000000000000000000000000000005900005900590000000000000000000000000000000000000000000000000000000000000000000000000000000000000000000000000000000000000000000000000000000000000000000000000000000000000000000000000000000000000000000000000000000000000000000000000000000000000000000000000000000000000000000000000000000000000000000000000000000000000000000000000000000000000000000000000000000000000000000000000000000000000000000000000000000000000000000000000000000000000000000000000000000000000000000000000000000000000000000000000000000000000000000000000000000000000000000000000000000000000000000000000000000000000000000000000000000000000000000000000000000000000000000000000000000000000000000000000000000000000000000000000000000000000000000000000000000000000000000000000000000000000000000000000000000000000000000000000000000000000000000000000000000000000000000000000000000000000000000000000000000000000000000000000000000000000000000000000000000000000000000000000000000000000000000000000000000000000000000000000000000000000000000000000000000000000000000000000000000000000000000000000000000000000000000000000000000000000000000000000000000000000000000000000000000000000000000000000000000000000000000000000000000000000000000000000000000000000000000000000000000000000000000000000000000000000000000000000000000000000000000000000000000000000000000000000000000000000000000000000000000000000000000000000000000000000000000000000000000000000000000000000000000000000000000000000000000000000000000000000000000000000000000000000000000000000000000000000000000000000000000000000000000000000000000000000000000000000000000000000000000000000000000000000000000000000000000000000000000000000000000000000000000000000000000000000000000000000000000000000000000000000000000000000000000000000000000000000000000000000000000000000000000000000000000000000000000000000000000000000000000000000000000000000000000000000000000000000000000000000000000000000000000000000000000000000000000000000000000000000000000000000000000000000000000000000000000000000000000000000000000000000000000000000000000000000000000000000000000000000000000000000000000000000000000000000000000000000000000000000000000000000000000000000000000000000000000000000000000000000000000000000000000000000000000000000000000000000000000000000000000000000000000000000000000000000000000000000000000000000000000000000000000000000000000000000000000000000000000000000000000000000000000000000000000000000000000000000000000000000000000000000000000000000000000000000000000000000000000000000000000000000000000000000000000000000000000000000000000000000000000000000000000000000000000000000000000000000000000000000000000000000000000000000000000000000000000000000000000000000000000000000000000000000000000000000000000000000000000000000000000000000000000000000000000000000000000000000000000000000000000000000000000000000000000000000000000000000000000000000000000000000000000000000000000000000000000000000000000000000000000000000000000000000000000000000000000000000000000000000000000000000000000000000000000000000000000000000000000000000000000000000000000000000000000000000000000000000000000000000000000000000000000000000000000000000000000000000000000000000000000000000000000000000000000000000000000000000000000000000000000000000000000000000000000000000000000000000000000000000000000000000000000000000000000000000000000000000000000000000000000000000000000000000000000000000000000000000000000000000000000000000000000000000000000000000000000000000000000000000000000000000000000000000000000000000000000000000000000000000000000000000000000000000000000000000000000000000000000000000000000000000000000000000000000000000000000000000000000000000000000000000000000000000000000000000000000000000000000000000000000000000000000000000000000000000000000000000000000000000000000000000000000000000000000000000000000000000000000000000000
#1021b:000000000000000000000000000000000000000000000000000000000000000000000000007100000000710000000000000000000000000000000000000000000000000000000000000000000000000000000000000000000000000000000000000000000000000000000000000000000000000000000000000000000000000000000000000000000000000000000000000000000000000000000000000000000000000000000000000000000000000000000000000000000000000000000000000000000000000000000000000000000000000000000000000000000000000000000000000000000000000000000000000000000000000000000000000000000000000000000000000000000000000000000000000000000000000000000000000000000000000000000000000000000000000000000000000000000000000000000000000000000000000000000000000000000000000000000000000000000000000000000000000000000000000000000000000000000000000000000000000000000000000000000000000000000000000000000000000000000000000000000000000000000000000000000000000000000000000000000000000000000000000000000000000000000000000000000000000000000000000000000000000000000000000000000000000000000000000000000000000000000000000000000000000000000000000000000000000000000000000000000000000000000000000000000000000000000000000000000000000000000000000000000000000000000000000000000000000000000000000000000000000000000000000000000000000000000000000000000000000000000000000000000000000000000000000000000000000000000000000000000000000000000000000000000000000000000000000000000000000000000000000000000000000000000000000000000000000000000000000000000000000000000000000000000000000000000000000000000000000000000000000000000000000000000000000000000000000000000000000000000000000000000000000000000000000000000000000000000000000000000000000000000000000000000000000000000000000000000000000000000000000000000000000000000000000000000000000000000000000000000000000000000000000000000000000000000000000000000000000000000000000000000000000000000000000000000000000000000000000000000000000000000000000000000000000000000000000000000000000000000000000000000000000000000000000000000000000000000000000000000000000000000000000000000000000000000000000000000000000000000000000000000000000000000000000000000000000000000000000000000000000000000000000000000000000000000000000000000000000000000000000000000000000000000000000000000000000000000000000000000000000000000000000000000000000000000000000000000000000000000000000000000000000000000000000000000000000000000000000000000000000000000000000000000000000000000000000000000000000000000000000000000000000000000000000000000000000000000000000000000000000000000000000000000000000000000000000000000000000000000000000000000000000000000000000000000000000000000000000000000000000000000000000000000000000000000000000000000000000000000000000000000000000000000000000000000000000000000000000000000000000000000000000000000000000000000000000000000000000000000000000000000000000000000000000000000000000000000000000000000000000000000000000000000000000000000000000000000000000000000000000000000000000000000000000000000000000000000000000000000000000000000000000000000000000000000000000000000000000000000000000000000000000000000000000000000000000000000000000000000000000000000000000000000000000000000000000000000000000000000000000000000000000000000000000000000000000000000000000000000000000000000000000000000000000000000000000000000000000000000000000000000000000000000000000000000000000000000000000000000000000000000000000000000000000000000000000000000000000000000000000000000000000000000000000000000000000000000000000000000000000000000000000000000000000000000000000000000000000000000000000000000000000000000000000000000000000000000000000000000000000000000000000000000000000000000000000000000000000000000000000000000000000000000000000000000000000000000000000000000000000000000000000000000000000000000000000000000000000000000000000000000000000000000000000000000000000000000000000000000000000000000000000000000000000000000000000000000000000000000000
#1021d:000000000000000000000000000000000000000000000000000000000000000000000000007100000000710000000000000000000000000000000000000000000000000000000000000000000000000000000000000000000000000000000000000000000000000000000000000000000000000000000000000000000000000000000000000000000000000000000000000000000000000000000000000000000000000000000000000000000000000000000000000000000000000000000000000000000000000000000000000000000000000000000000000000000000000000000000000000000000000000000000000000000000000000000000000000000000000000000000000000000000000000000000000000000000000000000000000000000000000000000000000000000000000000000000000000000000000000000000000000000000000000000000000000000000000000000000000000000000000000000000000000000000000000000000000000000000000000000000000000000000000000000000000000000000000000000000000000000000000000000000000000000000000000000000000000000000000000000000000000000000000000000000000000000000000000000000000000000000000000000000000000000000000000000000000000000000000000000000000000000000000000000000000000000000000000000000000000000000000000000000000000000000000000000000000000000000000000000000000000000000000000000000000000000000000000000000000000000000000000000000000000000000000000000000000000000000000000000000000000000000000000000000000000000000000000000000000000000000000000000000000000000000000000000000000000000000000000000000000000000000000000000000000000000000000000000000000000000000000000000000000000000000000000000000000000000000000000000000000000000000000000000000000000000000000000000000000000000000000000000000000000000000000000000000000000000000000000000000000000000000000000000000000000000000000000000000000000000000000000000000000000000000000000000000000000000000000000000000000000000000000000000000000000000000000000000000000000000000000000000000000000000000000000000000000000000000000000000000000000000000000000000000000000000000000000000000000000000000000000000000000000000000000000000000000000000000000000000000000000000000000000000000000000000000000000000000000000000000000000000000000000000000000000000000000000000000000000000000000000000000000000000000000000000000000000000000000000000000000000000000000000000000000000000000000000000000000000000000000000000000000000000000000000000000000000000000000000000000000000000000000000000000000000000000000000000000000000000000000000000000000000000000000000000000000000000000000000000000000000000000000000000000000000000000000000000000000000000000000000000000000000000000000000000000000000000000000000000000000000000000000000000000000000000000000000000000000000000000000000000000000000000000000000000000000000000000000000000000000000000000000000000000000000000000000000000000000000000000000000000000000000000000000000000000000000000000000000000000000000000000000000000000000000000000000000000000000000000000000000000000000000000000000000000000000000000000000000000000000000000000000000000000000000000000000000000000000000000000000000000000000000000000000000000000000000000000000000000000000000000000000000000000000000000000000000000000000000000000000000000000000000000000000000000000000000000000000000000000000000000000000000000000000000000000000000000000000000000000000000000000000000000000000000000000000000000000000000000000000000000000000000000000000000000000000000000000000000000000000000000000000000000000000000000000000000000000000000000000000000000000000000000000000000000000000000000000000000000000000000000000000000000000000000000000000000000000000000000000000000000000000000000000000000000000000000000000000000000000000000000000000000000000000000000000000000000000000000000000000000000000000000000000000000000000000000000000000000000000000000000000000000000000000000000000000000000000000000000000000000000000000000000000000000000000000000000000000000000000000000000000000000000000000000000000000000000000000000000000000000000000
#00612:53
#01058:00000016
#01052:00000016
#0355b:00000013
#03555:00000013
#03558:0053
#03552:0053
#03758:00005313
#03755:00005313
#0375b:00000013
#03752:0053
#04252:13131300
#0425b:13131300
#04255:0013
#04258:0013
#00256:00000014
#0415b:1313
#04152:00130013
#0435b:53430000
#04358:5323430000230000
#04355:0023000063233300
#04352:00006333
#04658:0000000000460000
#04652:00000036
#0475b:0013
#04752:0016
#04956:0014
#0495a:00001454
#04952:54
#05452:0000000000360000
#05458:00000046
#05552:00380038
#05652:00380038
#06155:1313
#06152:1313
#0625b:0000000000130000
#06258:0000000000130000
#06255:00000013
#06252:00001413
#0625a:14
#0455b:53430000
#04558:5323430000230000
#04555:0023000063233300
#04552:00006333
#05152:63330000
#05155:6323330000230000
#05158:0023000053234300
#0515b:00005343
#05352:63330000
#05355:6323330000230000
#05358:0023000053234300
#0535b:00005343
#05052:00140000
#05056:00140000
#06758:00130013
#0675b:00130000
#06755:00130013
#06752:00000013
#0675a:14
#06955:00130013
#06952:00130000
#06958:00130013
#0695b:00000013
#06855:00636313
#06858:00636313
#0685b:00636313
#06859:0000002300230000
#06856:0000002300230000
#06853:0000002300230000
#07058:00535313
#07055:00535313
#07052:00535313
#07054:0000002300230000
#07057:0000002300230000
#0705a:0000002300230000
#07255:0000632363231300
#07258:0000632363231300
#0725b:00636313
#07252:0000002300230000
#07158:00130013
#0715b:00130013
#07155:00130013
#07152:00130013
#07458:0000532353231300
#07455:0000532353231300
#07452:00535313
#0745b:0000002300230000
#07355:00130013
#07352:00130013
#07358:00130013
#0735b:00130013
#07752:54
#07756:0024
#0785a:54
#07856:0024
#07952:54
#07956:0024
#0805a:54
#08056:0024
#08352:0013
#08355:0013
#08358:0013
#0835b:0013
#08452:00130000
#08455:00130000
#08458:00130000
#0845b:00130000
#08556:14
#08552:14
#08852:00001c36
#08858:0000000000460000
#09355:1313
#09352:1313
#08956:00480048
#09056:00480048
#05958:1313
#0595b:1313
#06358:1313
#0635b:1313
#06555:1313
#06552:1313
#0365b:0063
#03655:0063
#03652:00000013
#03658:00000013
#0385b:0063
#03858:00006313
#03855:00006313
#03852:00000013
#04858:0016
#04852:0016
#06052:14
#0605a:0014
#09658:00000013
#09655:0000000000130000
#0965b:00001313
#09652:1300000000130000
#09657:13
#09656:0013
#09555:1313
#09552:1313
#09758:1313
#0975b:1313
#06452:14
#0645a:0014
#0945b:13
#09456:13
#09452:0013
#09457:0013
#0985b:13
#09856:13
#09852:0013
#09857:0013
#09955:1313
#09952:1313
#0265a:00000014
#02656:00000014
#02652:00000014
#03452:00000014
#03456:00000014
#0345a:00000014
#0053b0:13230000
#005381:00132300
#005350:00001323
#005321:00000013
#006321:23
#0063b0:13
#0073b0:23
#006381:00130000
#007381:23
#006352:0013
#007352:23
#006323:00000013
#007323:23
#0113b1:13230000
#011352:00132300
#011381:00001323
#011322:0000000000001323
#0113b1:0000000000000013
#0123b1:0023000000000000
#012382:0013230000000000
#012351:0000132300000000
#012322:0000001323000000
#0123b1:0000000013230000
#012383:0000000013230000
#012322:0000000000130000
#013322:23
#012351:00000013
#013351:23
#012383:0000000000000013
#013383:23
#0133b0:13230000
#013353:00132300
#013380:00001323
#013323:0000000000001323
#0133b0:0000000000000013
#0143b0:0023000000000000
#014323:0013230000000000
#014350:0000132300000000
#014383:0000001323000000
#0143b0:0000000013230000
#014323:0000000000132300
#0153b3:1300002300000000
#015380:0013002300000000
#015351:0000132300000000
#0193b0:1300003323000000
#019381:0000000013000033
#020381:23
#0213b1:13230000
#021380:00132300
#0213b1:00001323
#023321:1300003323000000
#023350:0000000013000033
#024350:23
#025320:13230000
#025351:00132300
#025320:00001323
#0253a0:0000000000000014
#0263a0:00000024
#026361:00140024
#026323:00001424
#0273b1:13
#0283b1:23
#028323:13
#029323:23
#0293b1:13
#0303b1:23
#031321:1323
#031353:0013
#032353:23
#0323b1:1323
#032383:0013
#033383:23
#033323:0000000000000014
#034323:00000024
#034361:00140024
#0343a0:00001424
#035381:0013
#0353b1:00000023
#035320:0013
#035350:00000023
#036350:0013
#036320:00000023
#0363b1:0013
#036381:00000023
#037351:0013
#037381:00000023
#037320:0013
#037350:00000023
#037383:0013
#0373b3:00000023
#038380:0013
#038350:00000023
#0383b3:0013
#038383:00000023
#038351:0013
#038321:00000023
#039383:13230000
#039321:00132300
#0393b3:00001323
#039351:00000013
#040351:23
#040383:13230000
#040321:00132300
#0403b3:00001323
#040351:00000013
#041351:23
#0433b1:13230000
#043381:0053000000000000
#043383:13230000
#043353:0053000000000000
#043323:00001323
#043353:0000000000530000
#043351:00001323
#043381:0000000000530000
#0453b1:13230000
#045381:0053000000000000
#045383:13230000
#045353:0053000000000000
#045323:00001323
#045353:0000000000530000
#045351:00001323
#045381:0000000000530000
#0473b1:00000013
#0483b1:23
#047323:00000013
#048323:23
#049323:14
#049363:0054000024000000
#0493a3:00000014
#049363:0000000000000054
#050363:00240000
#051323:13230000
#051353:0053000000000000
#051351:13230000
#051381:0053000000000000
#0513b1:00001323
#051381:0000000000530000
#051383:00001323
#051353:0000000000530000
#053323:13230000
#053353:0053000000000000
#053351:13230000
#053381:0053000000000000
#0533b1:00001323
#053381:0000000000530000
#053383:00001323
#053353:0000000000530000
#057323:1323
#0573b1:0013
#0583b1:23
#0683b1:00133323
#068391:0000005300530000
#068383:00133323
#068363:0000005300530000
#068350:00133323
#068330:0000005300530000
#070323:00133323
#070343:0000005300530000
#070350:00133323
#070370:0000005300530000
#070381:00133323
#0703a1:0000005300530000
#0723b0:00133323
#072380:0000005300530000
#072381:00133323
#072351:0000005300530000
#072353:00133323
#072323:0000005300530000
#074321:00133323
#074351:0000005300530000
#074353:00133323
#074383:0000005300530000
#074380:00133323
#0743b0:0000005300530000
#077323:14
#077363:0054
#078323:24
#0783a0:14
#078360:0054
#0793a0:24
#079323:14
#079363:0054
#080323:24
#0803a0:14
#080360:0054
#0813a0:24
#0913b0:1323
#091323:0013
#092323:23
#1003b3:0013000000000000
#1013b3:00000023
#100380:00130000
#101380:00000000000000000000000000230000
#100351:0000001300000000
#101351:0000000000000023
#100322:0013
#101322:00000000000000000000000000000023
#1023b2:000000000000000000000000000000000000000000000000000000000000000000000000001100000000210000000000000000000000000000000000000000000000000000000000000000000000000000000000000000000000000000000000000000000000000000000000000000000000000000000000000000000000000000000000000000000000000000000000000000000000000000000000000000000000000000000000000000000000000000000000000000000000000000000000000000000000000000000000000000000000000000000000000000000000000000000000000000000000000000000000000000000000000000000000000000000000000000000000000000000000000000000000000000000000000000000000000000000000000000000000000000000000000000000000000000000000000000000000000000000000000000000000000000000000000000000000000000000000000000000000000000000000000000000000000000000000000000000000000000000000000000000000000000000000000000000000000000000000000000000000000000000000000000000000000000000000000000000000000000000000000000000000000000000000000000000000000000000000000000000000000000000000000000000000000000000000000000000000000000000000000000000000000000000000000000000000000000000000000000000000000000000000000000000000000000000000000000000000000000000000000000000000000000000000000000000000000000000000000000000000000000000000000000000000000000000000000000000000000000000000000000000000000000000000000000000000000000000000000000000000000000000000000000000000000000000000000000000000000000000000000000000000000000000000000000000000000000000000000000000000000000000000000000000000000000000000000000000000000000000000000000000000000000000000000000000000000000000000000000000000000000000000000000000000000000000000000000000000000000000000000000000000000000000000000000000000000000000000000000000000000000000000000000000000000000000000000000000000000000000000000000000000000000000000000000000000000000000000000000000000000000000000000000000000000000000000000000000000000000000000000000000000000000000000000000000000000000000000000000000000000000000000000000000000000000000000000000000000000000000000000000000000000000000000000000000000000000000000000000000000000000000000000000000000000000000000000000000000000000000000000000000000000000000000000000000000000000000000000000000000000000000000000000000000000000000000000000000000000000000000000000000000000000000000000000000000000000000000000000000000000000000000000000000000000000000000000000000000000000000000000000000000000000000000000000000000000000000000000000000000000000000000000000000000000000000000000000000000000000000000000000000000000000000000000000000000000000000000000000000000000000000000000000000000000000000000000000000000000000000000000000000000000000000000000000000000000000000000000000000000000000000000000000000000000000000000000000000000000000000000000000000000000000000000000000000000000000000000000000000000000000000000000000000000000000000000000000000000000000000000000000000000000000000000000000000000000000000000000000000000000000000000000000000000000000000000000000000000000000000000000000000000000000000000000000000000000000000000000000000000000000000000000000000000000000000000000000000000000000000000000000000000000000000000000000000000000000000000000000000000000000000000000000000000000000000000000000000000000000000000000000000000000000000000000000000000000000000000000000000000000000000000000000000000000000000000000000000000000000000000000000000000000000000000000000000000000000000000000000000000000000000000000000000000000000000000000000000000000000000000000000000000000000000000000000000000000000000000000000000000000000000000000000000000000000000000000000000000000000000000000000000000000000000000000000000000000000000000000000000000000000000000000000000000000000000000000000000000000000000000000000000000000000000000000000000000000000000000000000000000000000000000000000000000000000000000000000000000000000000000000000000000000000000000000000000000000000000000000000000000
#1023d1:000000000000000000000000000000000000000000000000000000000000000000000000001100000000210000000000000000000000000000000000000000000000000000000000000000000000000000000000000000000000000000000000000000000000000000000000000000000000000000000000000000000000000000000000000000000000000000000000000000000000000000000000000000000000000000000000000000000000000000000000000000000000000000000000000000000000000000000000000000000000000000000000000000000000000000000000000000000000000000000000000000000000000000000000000000000000000000000000000000000000000000000000000000000000000000000000000000000000000000000000000000000000000000000000000000000000000000000000000000000000000000000000000000000000000000000000000000000000000000000000000000000000000000000000000000000000000000000000000000000000000000000000000000000000000000000000000000000000000000000000000000000000000000000000000000000000000000000000000000000000000000000000000000000000000000000000000000000000000000000000000000000000000000000000000000000000000000000000000000000000000000000000000000000000000000000000000000000000000000000000000000000000000000000000000000000000000000000000000000000000000000000000000000000000000000000000000000000000000000000000000000000000000000000000000000000000000000000000000000000000000000000000000000000000000000000000000000000000000000000000000000000000000000000000000000000000000000000000000000000000000000000000000000000000000000000000000000000000000000000000000000000000000000000000000000000000000000000000000000000000000000000000000000000000000000000000000000000000000000000000000000000000000000000000000000000000000000000000000000000000000000000000000000000000000000000000000000000000000000000000000000000000000000000000000000000000000000000000000000000000000000000000000000000000000000000000000000000000000000000000000000000000000000000000000000000000000000000000000000000000000000000000000000000000000000000000000000000000000000000000000000000000000000000000000000000000000000000000000000000000000000000000000000000000000000000000000000000000000000000000000000000000000000000000000000000000000000000000000000000000000000000000000000000000000000000000000000000000000000000000000000000000000000000000000000000000000000000000000000000000000000000000000000000000000000000000000000000000000000000000000000000000000000000000000000000000000000000000000000000000000000000000000000000000000000000000000000000000000000000000000000000000000000000000000000000000000000000000000000000000000000000000000000000000000000000000000000000000000000000000000000000000000000000000000000000000000000000000000000000000000000000000000000000000000000000000000000000000000000000000000000000000000000000000000000000000000000000000000000000000000000000000000000000000000000000000000000000000000000000000000000000000000000000000000000000000000000000000000000000000000000000000000000000000000000000000000000000000000000000000000000000000000000000000000000000000000000000000000000000000000000000000000000000000000000000000000000000000000000000000000000000000000000000000000000000000000000000000000000000000000000000000000000000000000000000000000000000000000000000000000000000000000000000000000000000000000000000000000000000000000000000000000000000000000000000000000000000000000000000000000000000000000000000000000000000000000000000000000000000000000000000000000000000000000000000000000000000000000000000000000000000000000000000000000000000000000000000000000000000000000000000000000000000000000000000000000000000000000000000000000000000000000000000000000000000000000000000000000000000000000000000000000000000000000000000000000000000000000000000000000000000000000000000000000000000000000000000000000000000000000000000000000000000000000000000000000000000000000000000000000000000000000000000000000000000000000000000000000000000000000000000000000000000000000000000000000000000000000000000000
