This file was generated by Ched 2.6.4.0.
#TITLE ""
#ARTIST ""
#DESIGNER ""
#DIFFICULTY 0
#PLAYLEVEL
#SONGID ""
#WAVE ""
#WAVEOFFSET 0
#JACKET ""
#REQUEST "ticks_per_beat 480"
#00002: 4
#BPM01: 202
#00008: 01
#TIL00: ""
#HISPEED 00
#MEASUREHS 00
#00118:16
#00218:16
#00318:16
#00418:16
#01119:14
#01110:41
#01319:14
#0151a:14
#0171a:14
#01918:14
#02114:14
#0231a:14
#02512:14
#02718:14
#02710:41
#0291a:14
#03118:14
#0331a:14
#07518:16
#07512:0016
#07510:41
#08512:0016
#08518:26
#0851f:21
#08618:16
#08612:0016
#08610:0041
#08718:16
#08712:0016
#08818:16
#08812:0016
#02814:14
#03012:14
#03214:14
#00719:14
#00513:14
#03412:14
#00613:14
#00819:14
#01213:14
#01413:14
#01612:14
#01812:14
#07618:16
#07612:0016
#00913:14
#00919:14
#02018:14
#02214:14
#0241a:14
#02612:14
#04318:2616
#04310:41
#04518:1616
#04412:1616
#04612:1616
#06012:16
#06018:0016
#06218:16
#06212:0016
#06412:16
#06418:0016
#06618:16
#06612:0016
#05112:2616
#05312:1616
#05218:1616
#05418:1616
#06718:16
#06812:14
#06918:14
#07012:14
#0711a:14
#07214:14
#0731a:14
#07414:14
#10018:16
#09412:1616
#09812:1616
#09618:1616
#0771f:11
#05918:2626
#05910:41
#06112:2626
#06318:2626
#06512:2626
#09312:26
#09318:0026
#09518:26
#09512:0026
#09712:26
#09718:0026
#09918:26
#09912:0026
#0353a0:14
#0363a0:24
#037320:14
#038320:24
#039380:14
#040380:24
#041340:14
#042340:24
#047380:1626
#048320:1626
#049380:16
#050380:26
#055320:1626
#056380:1626
#057320:16
#058320:26
#077380:14
#078380:24
#079340:14
#080340:24
#0813a0:14
#0823a0:24
#083320:14
#084320:24
#089380:1626
#090320:1626
#091380:16
#092380:26
#100380:0016
#102380:26
