This file was generated by Ched 2.6.4.0.
#TITLE ""
#ARTIST ""
#DESIGNER ""
#DIFFICULTY 0
#PLAYLEVEL
#SONGID ""
#WAVE ""
#WAVEOFFSET 0
#JACKET ""
#REQUEST "ticks_per_beat 480"
#00002: 4
#BPM01: 202
#00008: 01
#TIL00: ""
#HISPEED 00
#MEASUREHS 00
#00018:0000000000130013
#00015:00000013
#00112:1313000000000000
#00115:0000000000000013
#0011b:2323000000000000
#00215:0013000000130013
#0021b:00130013
#00212:0000001300000000
#00218:0013
#0031b:1313000000000000
#00318:0000000000000013
#00312:2323000000000000
#00415:13130000
#00418:0013001300000000
#00412:0013
#0041b:0013
#0071b:00130013
#00712:0000001300000013
#00718:0013
#00715:0000000000130000
#00618:13
#00615:0000001313000000
#00918:2600130013000013
#00915:00130013
#00912:0000001300000000
#0091b:0000000000130000
#01015:0013001300000000
#01018:00130000
#0101b:00001323
#01012:00001323
#0151b:1300000000130000
#01518:0013000000000000
#01515:00130000
#01512:0000001300130013
#01516:00001414
#0161b:0013000013000000
#01612:0000001300000013
#01616:14140000
#01618:0000000000130000
#01615:00000013
#0171b:1313000000000000
#01715:0000000013130000
#01712:2323000000000000
#01718:0000000023230000
#01818:00000013
#01815:0000000000000013
#0181a:13231300
#01813:23132300
#01918:1300001300001313
#01915:00131300
#02017:00000013
#02012:1300000013000013
#02018:1300000013000013
#02015:00130000
#0201b:00130000
#02119:13
#02114:0013000000000000
#0211b:00130000
#02116:0000001300000000
#02115:00130000
#0221b:1300000000000013
#0221a:00130000
#02219:0013
#02218:00000013
#02315:1300001300000013
#02318:00131300
#02312:00000013
#02415:0000130000130000
#0241b:0000130000000013
#02418:13001313
#02412:13
#02512:13
#02518:00130000
#02515:0000001300000000
#0251b:0000000000000013
#02615:0013001300000000
#02618:00131300
#0261b:00000023
#02612:00000023
#02812:00130000
#0281b:1300000013000013
#02816:00000013
#02818:00130000
#02815:1300000013000013
#02914:13
#02919:0013000000000000
#02912:00130000
#02917:0000001300000000
#02918:00130000
#03012:1300000000000013
#03013:00130000
#03014:0013
#03015:00000013
#03118:1300001300000013
#03115:00131300
#0311b:00000013
#03215:13001313
#03218:0000130000130000
#03212:0000130000000013
#0321b:13
#0331b:13
#03315:00130000
#03318:0000001300000000
#03312:0000000000000013
#03418:0013001300000000
#03415:00131300
#03412:00000013
#0341b:00000013
#0351a:1400001414001400
#03512:13
#03616:13
#0361a:1400001414001400
#03712:1400001414001400
#0371b:13
#03817:13
#03812:1400001414001400
#03918:0013000000130000
#03912:0000001300000013
#03915:13231323
#0391b:23132313
#04018:0013000000130013
#04012:0000001300000000
#04015:13232323
#0401b:23130000
#04115:1313
#0411b:1313
#04112:00130013
#04118:00130013
#0421b:0000000000130000
#04218:00000013
#04215:0000000000000013
#04212:24242400
#0421a:24242400
#04318:0013000000000013
#0431b:23132313
#04312:23132313
#04315:0000000000130000
#04310:41
#04415:1300000013000013
#04412:00130000
#04418:3333333300001300
#0441b:00000013000000000000130000000000
#04515:0013000000000013
#04512:23132313
#0451b:23132313
#04518:0000000000130000
#04618:1300130000130013
#0461b:0013000000000000
#04615:0000001300001300
#04612:0013
#04718:1300001313000000
#04715:0013130000000000
#04712:1313
#0471b:00130013
#04716:00000013
#04812:13130000
#04815:00001300000013000000000000130013
#0481b:00130000
#0481a:0013001300000000
#04817:0013
#04818:0000000000001313
#0491a:14
#04918:0014000000000000
#04916:00140000
#04914:0000001400000014
#04912:00002414
#05016:14
#05018:0014000000001600
#05012:0016
#0501a:00240000
#05218:1300000013000013
#0521b:00130000
#05212:00000013000000000000130000000000
#05215:3333333300001300
#05318:0000000000000013
#05315:0016000000160000
#0531b:23132313
#05312:23132313
#05415:1300130000130000
#05412:0013000000000000
#05418:0000001300001300
#0541b:0013
#05712:00130000
#05713:0013
#05714:00000013
#0571b:0000001300000000
#0571a:0000000000130000
#05719:0000000000000013
#05914:0014000000000000
#05912:0000001400001300
#05918:0000240000000013
#0591a:24
#05916:0024
#05910:41
#06015:1300001300000000
#0601b:00130000
#06018:0013
#06118:0014000000000000
#0611a:0000001400000000
#0611b:00000013
#06115:0000000000000013
#06112:24
#06114:00240000
#06116:0024
#06218:1300001300000000
#06212:00130014
#06215:0013
#0621a:0000000000140000
#06316:0014001400000000
#06315:00000013
#06318:0000000000000013
#0631a:2424
#06312:00240000
#06418:00130000
#06415:0000001300000000
#0641b:1313
#06412:1313
#0651b:00000013
#06515:0000000000000013
#06516:0014001400000000
#06512:2424
#0651a:00240000
#06618:13130000
#06615:0000001300000000
#0661b:0013
#06612:0013000013000013
#00518:1313
#00515:13130013
#0051b:0013000000130000
#00512:0000001300000013
#05615:13
#05618:0000001313000000
#05515:1313
#05518:13130013
#05512:0013000000130000
#0551b:0000001300000013
#06718:00160016
#06712:23131313
#06717:2313
#06812:13130000
#06817:13130000
#06819:0013
#06814:0013
#06816:00000018
#06818:0000001300000000
#06815:0000000000130000
#06918:00160016
#06912:00131313
#06917:0013
#07012:13130000
#07017:13130000
#07019:0013
#07014:0013
#07016:00000018
#07018:0000001300000000
#07015:0000000000130000
#07112:00160016
#0711b:00131313
#07116:0013
#0721b:13130000
#07216:13130000
#07214:0013
#07219:0013
#07212:00000018
#07215:0000001300000000
#07218:0000000000130000
#07312:00160016
#0731b:00131313
#07316:0013
#0741b:13130000
#07416:13130000
#07414:0013
#07419:0013
#07412:00000018
#07415:0000001300000000
#07418:0000000000130000
#07512:1626000016260000
#07518:2616000026160000
#07510:41
#0761b:13131300
#07612:13131300
#07618:0013000000000000
#07615:0000001300000000
#08314:1424142414000000
#08318:2414241424000000
#08312:0000000000001424
#0831a:0000000000002414
#08412:1424140000000000
#0841a:2414240000000000
#0841b:0000000000130000
#08418:00000013
#08415:0000000000000013
#07718:13
#0771f:11
#07815:13
#0791b:13
#08012:13
#0811b:1300130013131300
#08115:1313130013001300
#08218:1300130013131300
#08212:1313130013001300
#08512:23130000
#08517:2313130000000000
#08516:0000000023131313
#0851b:00002313
#0851f:21
#08717:2313130000000000
#08712:2300130000000014
#08716:0000000023131300
#0871b:00002313
#0871a:0000000000000014
#08812:0013000013000000
#0881b:0013000013000000
#08815:00130000
#08818:0000001300000000
#08914:0013000026000000
#08912:0000001300002600
#0891a:0000000000130000
#08918:2600000000000013
#08916:00260000
#0901b:13000013
#09012:13000013
#09018:00130000
#09015:00130000
#09118:13
#09115:13
#09112:00130000
#0911b:00130000
#09114:0000000000000013
#0931b:0013001300001300
#09317:0000000000000013
#09316:00000013
#09312:2600000000000013
#09313:00260000
#09314:0026
#09416:13130000
#09412:0000001300000000
#0941b:00131300
#09417:0000001300000000
#0951b:0013001300001300
#09517:0000000000000013
#09516:00000013
#09512:0000000026000013
#09514:26
#09513:00260000
#09912:0013001300001300
#0991b:00000013
#09918:0000000026000013
#09916:26
#09917:00260000
#10015:13130033
#10012:0013000013000000
#1001b:13131300
#10018:0000001300330033
#09712:0013001300001300
#09716:0000000026000013
#09717:00260013
#0971b:0000000000000013
#09718:26
#09616:13130000
#09612:0000001300001400
#0961b:00131300
#09617:0000001300000000
#0961a:0000000000140000
#09817:13130000
#0981b:0000001300000000
#09812:00131300
#09816:0000001300000000
#05115:0016000000160013
#05112:23132313
#0511b:23132313
#08612:0000130000330000
#08617:0000001313000000
#0861b:3333000000001300
#08614:0000000000000013
#08610:0041
#02715:1300001300001313
#02718:00131300
#02710:41
#00818:2626
#00812:00260026
#05812:2600000026000026
#05818:00260026
#10215:23
#10218:23
#09218:2600000026000026
#09212:00260026
#10115:33000033003300330033003300330033
#10118:0033333333333333
#01110:41
#00658:53
#00655:0053
#01552:0000000000000013
#0165b:0013000000000000
#01652:0000001300000000
#01958:53
#01955:0053
#02156:0000005300000000
#02355:63
#02358:0063
#02957:0000006300000000
#03158:53
#03155:0053
#03452:00000013
#0345b:00000013
#0355a:00000014
#03552:53
#03656:23
#0365a:00000014
#03752:00000014
#0375b:63
#03857:23
#03852:00000014
#04658:0000000000430000
#04655:00000033
#04852:53530000
#04855:0023002300000000
#0475b:00000053
#04952:0034
#0505a:00440000
#05052:0036
#05058:00000046
#05455:0000000000330000
#05458:00000043
#0595a:44
#05958:00440000
#05956:0044
#06152:34
#06154:00340000
#06156:0034
#0625a:0000000000440000
#06252:00000034
#06258:13
#06255:0013
#0635a:4444
#06352:00340000
#0645b:0013
#06452:13
#06058:0013
#06055:13
#0665b:0053
#02555:0000005300000000
#03358:0000006300000000
#00558:5353
#00555:00530053
#0055b:0023000000230000
#00552:0000002300000023
#05655:63
#05658:0063
#05555:6363
#05552:0023000000230000
#0555b:0000002300000023
#05558:00630063
#06758:00460046
#06752:13
#06757:13
#06856:00000048
#06958:00460046
#07152:00360036
#07352:00360036
#07652:1313
#0765b:00130000
#07758:53
#07855:53
#0795b:53
#08052:53
#0875a:0000000000000014
#08752:0000000000000014
#0885b:0013
#08852:0013
#09158:53
#09155:53
#0915b:00230000
#09152:00230000
#0935b:00000053
#09352:36
#09353:00360000
#09354:0036
#09357:0000000000000023
#09456:00530000
#09452:0000002300000000
#10052:0053
#1005b:0053
#06552:3434
#0655a:00440000
#09554:36
#09553:00360000
#09552:0036
#0955b:00000053
#09557:0000000000000023
#09758:46
#09757:00460000
#09756:0000000046000023
#09752:00000063
#09956:46
#09957:00460000
#09958:0046
#10258:13
#10255:13
#09656:00530000
#09652:0000002300003400
#0965a:0000000000440000
#09857:00630000
#0985b:0000002300000000
#05252:00000023000000000000000000000000
#05155:0000000000000053
#01853:3333
#0185a:00430000
#07056:00000048
#07252:00000038
#07452:00000038
#08155:00130000
#0815b:00000013
#08252:00130000
#08258:00000013
#04155:1313
#04158:00130013
#0425a:14141400
#04252:14141400
#0905b:53
#09052:53
#09055:00230000
#09058:00230000
#0325b:53
#03258:00530000
#02455:00630000
#02452:63
#0075b:13
#00752:13
#00955:00530000
#00958:0053
#00952:0000002300000000
#0095b:0000000000230000
#01052:00000013
#0105b:00000013
#05752:13
#0575b:13
#00452:0013
#0045b:0013
#0445b:00000023000000000000000000000000
#04358:0000000000000053
#02755:63
#02758:0063
#0265b:00000013
#02652:00000013
#001380:0000000000000013
#002380:0023000000000000
#005380:13230000
#0053b0:0053000000000000
#005351:00132300
#005321:0000005300000000
#005380:00001323
#0053b0:0000000000530000
#005351:00000013
#005321:0000000000000053
#006351:23
#006380:13
#0073b0:23
#006351:0013
#007321:23
#009351:00132300
#009321:0000005300000000
#009380:00001323
#0093b0:0000000000530000
#0113b0:13230000
#011351:00132300
#011380:00001323
#011321:0000000000001323
#0113b0:0000000000000013
#0123b0:0023000000000000
#012321:0013230000000000
#012370:0000132300000000
#012341:0000001323000000
#012390:0000000013230000
#012361:0000000000132300
#0123b0:0000000000001323
#012321:0000000000000013
#013321:23
#013380:13230000
#013351:00132300
#0133b0:00001323
#013321:0000000000001323
#013380:0000000000000013
#014380:0023000000000000
#014321:0013230000000000
#0143b0:0000132300000000
#014361:0000001323000000
#014390:0000000013230000
#014341:0000000000132300
#014370:0000000000001323
#014321:0000000000000013
#015321:23
#019381:13
#0193b1:00230000
#019351:0013
#019321:00000023
#021361:0000001300000000
#022321:00000023
#023351:13
#023321:00230000
#023381:0013
#0233b1:00000023
#024321:1323
#024351:00330000
#025351:0000001300000000
#025321:0000000000000023
#027351:13
#027321:00230000
#027381:0013
#0273b1:00000023
#029371:0000001300000000
#0303b1:00000023
#031381:13
#0313b1:00230000
#031351:0013
#031321:00000023
#0323b1:1323
#032381:00330000
#033381:0000001300000000
#0333b1:0000000000000023
#035321:13
#035361:00000023
#036361:13
#036321:00000023
#0373b1:13
#037371:00000023
#038371:13
#0383b1:00000023
#043381:0000000000000013
#044381:3333333323000000
#0443b1:00000053000000000000000000000000
#0473b1:00000013
#048371:23
#048320:13332300
#048350:0053005300000000
#051350:0000000000000013
#052350:3333333323000000
#052320:00000053000000000000000000000000
#055350:13230000
#055320:0053000000000000
#055381:00132300
#0553b1:0000005300000000
#055350:00001323
#055320:0000000000530000
#055381:00000013
#0553b1:0000000000000053
#056381:23
#056350:13
#057320:23
#056381:0013
#0573b1:23
#0663b1:0013
#066371:0000000000000033
#067371:23
#077381:13
#0783b1:33
#0793b1:33
#080381:3323
#077350:13
#078350:33
#079320:33
#080320:33
#080350:0023
#0853b0:0000000000000013
#0863b0:3333000000000000
#086370:00230000
#086320:0000000013330000
#086360:00000023
#090320:1323
#090350:00530000
#0903b1:1323
#090381:00530000
#091381:1323
#0913b1:00530000
#091350:1323
#091320:00530000
#0933b0:00000013
#093370:0000000000000033
#0943b0:23
#094360:00132300
#094320:0000003300000000
#0953b0:00000013
#095370:0000000000000033
#0963b0:23
#096360:00132300
#096320:0000003300000000
#097320:00000013
#097360:0000000000000033
#098320:23
#098370:00132300
#0983b0:0000003300000000
#100320:0013
#100350:00000033
#101350:33000033003300330033003300330033
#102350:23
#1003b1:0013
#100381:0000000000330033
#101381:0033333333333333
#102381:23
