This file was generated by Ched 2.6.4.0.
#TITLE ""
#ARTIST ""
#DESIGNER ""
#DIFFICULTY 0
#PLAYLEVEL
#SONGID ""
#WAVE ""
#WAVEOFFSET 0
#JACKET ""
#REQUEST "ticks_per_beat 480"
#00002: 4
#BPM01: 202
#00008: 01
#TIL00: ""
#HISPEED 00
#MEASUREHS 00
#00114:1313000000000000
#00119:2323000000000000
#0031b:1313000000000000
#00318:0000000000000013
#00312:2323000000000000
#00415:13131300
#00418:0013001300000000
#0071b:13
#00712:13
#01118:1313
#01115:00130013
#01110:41
#01315:1313
#01318:00130013
#0151b:13
#01515:0013000000000000
#01518:0000130000140000
#01512:0000001300000014
#0161a:0014000000000000
#01614:0000001400000000
#0161b:0013
#01615:0000000000130000
#01618:00000013
#01612:0000000000000013
#01718:1400000000240000
#01714:0024000014000000
#01819:14241400
#01813:24142400
#01818:00000013
#01815:0000000000000013
#01018:00131300
#01015:0013001300000000
#01012:00000023
#0101b:00000023
#00918:2600000000000013
#00915:00000013
#0091b:0013
#00912:00130000
#01915:00131300
#01912:0000000000000013
#0191b:0000001300000000
#01918:13000013
#0201b:00130013
#02015:0000130000000013
#02018:1313
#02012:0013
#02118:13
#02112:0013000000000000
#0211b:00130000
#0221b:13
#02218:0000130000000013
#02215:0013
#02212:00000013
#02318:00131300
#02312:0000001300000000
#02315:13000013
#0231b:0000000000000013
#0241b:0013
#02415:0000000000130000
#02412:0000000000000013
#02418:00000013
#0251b:1300000000000013
#02515:00130000
#02518:0000001300000000
#02512:0000000000000013
#02615:00130000
#02618:0013
#0261b:00000023
#02612:00000023
#03012:13
#03015:0000130000000013
#03018:0013
#0301b:00000013
#03115:00131300
#0311b:0000001300000000
#03118:13000013
#03112:0000000000000013
#03212:0013
#03218:0000000000130000
#0321b:0000000000000013
#03215:00000013
#03312:1300000000000013
#03318:00130000
#03315:0000001300000000
#0331b:0000000000000013
#03418:00130000
#03415:0013
#0341b:00000013
#03412:00000013
#03915:1313
#03918:00130013
#0391b:2323
#03912:00230023
#04015:1300000000130000
#04018:00130023
#04012:0000230000000013
#0401b:2323
#04115:1313
#04118:00130013
#04112:00130013
#0411b:1313
#0431b:23130000
#04315:23130000
#04318:00002313
#04312:00002313
#04310:41
#04415:13130013
#04412:0013
#0441b:0013000000000013
#04418:0000001300130000
#0461b:0000001300000013
#04612:1313
#04618:0013000000000000
#04615:00130000
#04718:0013000000000000
#0471b:0000001300001300
#04712:13001313
#04715:00130000
#0491a:14
#04914:0014000000000000
#04919:00140000
#04913:0000001400000000
#04912:00000014
#04918:0000000024000014
#05013:14
#05019:0014000000000000
#05018:0016
#05012:00000016
#05014:00240000
#05912:00240013
#05918:2400000000000013
#0591a:0024
#05910:41
#06015:1300001300000000
#0601b:00130000
#06018:0013
#0611b:00000013
#06115:0000000000000013
#06114:24
#0611a:00240000
#06112:0024
#06218:1300001300000000
#06212:00130000
#06215:0013
#06318:00000013
#06315:0000000000000013
#0631a:24
#06316:00240000
#06312:0024
#0641b:13
#06415:00130000
#06412:0013
#06418:0000001300000000
#06515:00000013
#06518:0000000000000013
#06512:24
#06516:00240000
#0651a:0024
#06612:1313
#06615:00130000
#06618:0000001300000000
#0661b:0013000000000000
#0671a:00140000
#06718:00000014
#06715:2313
#0681b:00130000
#06815:0000001300000000
#06818:00001316
#06812:1300000000130000
#0691a:00140000
#06918:00000014
#06915:0013
#0701b:00130000
#07015:0000001300000000
#07018:00001316
#07012:1300000000130000
#07112:00140000
#07114:00000014
#07118:0013
#07212:00130016
#07218:0000001300000000
#0721b:1300000000130000
#07215:0013
#07312:00140000
#07314:00000014
#07318:0013
#07412:00130016
#07418:0000001300000000
#0741b:1300000000130000
#07415:0013
#0761a:14
#07612:00140000
#07616:0014
#0771b:13
#0771f:11
#07812:13
#07918:13
#08015:13
#0811b:1313
#08115:00130013
#08218:1313
#08212:00130013
#09018:00000013
#0901b:13
#09012:00000013
#09015:13
#08915:1323
#08912:00130023
#0891b:2313
#08918:00230013
#09118:13
#09112:1300000000000013
#0911b:0000000000000013
#09412:00130000
#09415:1300001300000000
#09418:0013
#0991b:00000013
#09912:2400000000000013
#09918:24
#09919:00240000
#09913:00240000
#0991a:0024
#09914:0024
#10018:1316
#10015:0013000000363636
#1001b:00130000
#10012:0000001300000000
#08515:00132300
#0851b:00132300
#08518:23000013
#08512:23000013
#0851f:21
#08718:00132300
#08712:00132300
#08715:23000013
#0871b:23000013
#08818:0013000000000000
#08815:00130000
#0881b:0000001300000000
#08812:1313
#0861b:13130000
#08615:0013001300000000
#08618:00001313
#08612:0000000000130013
#08610:0041
#04512:23130000
#04518:23130000
#0451b:00002313
#04515:00002313
#05115:00130013
#0511b:00130013
#05112:2323
#05118:2323
#05218:13130013
#0521b:0013
#05212:0013000000000013
#05215:0000001300130000
#05318:00130013
#05312:00130013
#0531b:2323
#05315:2323
#0541b:1313
#05412:0000001300000000
#05415:0013000000000000
#05418:00130000
#09318:2300000023000013
#0931b:00230013
#09315:23230000
#09312:0023
#0961b:00130000
#09618:1300001300000000
#09615:0013
#09515:0000000023000013
#09512:23230013
#0951b:2323
#09518:00230000
#0971a:24000014
#09716:0000000000000014
#09714:24
#09713:00240000
#09719:00240000
#09712:0024
#09718:0024
#09812:14140000
#09816:0000001400000000
#0981a:0014
#03815:13
#03718:13
#03612:13
#0351b:13
#02718:00131300
#0271b:0000000000000013
#02712:0000001300000000
#02715:13000013
#02710:41
#02812:00130013
#02818:0000130000000013
#02815:1313
#0281b:0013
#02915:13
#0291b:0013000000000000
#02912:00130000
#0921b:13
#09212:13
#09218:00330000
#09215:00330000
#05715:13
#0571b:13
#05714:0000000000000014
#05618:13
#05612:13
#0581a:14
#05818:00340000
#00818:2626
#00812:00260026
#04218:24
#0421a:0024
#04212:0024
#04214:00240000
#0751a:24
#07514:0024000000000000
#07512:0000000000240000
#07518:0024
#07510:41
#08318:24242400
#08314:0024002400000000
#08312:00000024
#0831a:0000000000000024
#08412:24240000
#0841a:0024000000000000
#10215:26
#0121a:0033000000000000
#0121b:0000333333330000
#01413:0033000000000000
#01412:0000333333330000
#04814:33
#04815:0033333300000000
#04819:33
#04818:0033333300000000
#10115:36003636363636363636363636363636
#00455:0013
#00752:13
#0075b:13
#01052:00000013
#0105b:00000013
#0345b:00000013
#03452:00000013
#0425a:0014
#04252:0014
#04258:14
#04254:00140000
#04752:00000053
#0475b:00000063
#04958:0014
#05054:00140000
#05058:0016
#05052:00000016
#0595a:0014
#05952:00140000
#05958:14
#06154:14
#0615a:00140000
#06152:0014
#0635a:14
#06356:00140000
#06352:0014
#06552:14
#06556:00140000
#0655a:0014
#06652:0053
#0675a:00140000
#06758:00000014
#06755:13
#06858:00000016
#0695a:00140000
#06958:00000014
#07058:00000016
#07152:00140000
#07154:00000014
#07252:00000016
#07352:00140000
#07354:00000014
#07452:00000016
#0765a:14
#07652:00140000
#07656:0014
#0775b:63
#07852:53
#07958:53
#08055:63
#0905b:63
#09055:63
#09158:53
#09152:53
#10255:16
#08852:0013
#0935b:00130000
#09355:13130000
#09358:1313
#09352:0013
#09552:13130000
#0955b:1313
#09558:00130000
#09555:0013
#09754:14
#0975a:14
#09753:00140000
#09759:00140000
#09752:0014
#09758:0014
#09958:14
#09952:14
#09959:00140000
#09953:00140000
#0995a:0014
#09954:0014
#10058:0066
#03852:00000013
#03855:63
#0375b:00000013
#03758:53
#03655:00000013
#03652:53
#03558:00000013
#0355b:63
#0925b:63
#09252:53
#05755:63
#0575b:63
#05658:53
#05652:53
#0585a:64
#0265b:00000013
#02652:00000013
#001380:0000000000000013
#002380:0023000000000000
#002350:00001323
#0053b0:13230000
#005320:00001323
#006380:13
#0063b0:0023
#011380:0000000000000013
#0123a0:0033000000000000
#0123b0:0000333333332300
#013350:0000000000000013
#014330:0033000000000000
#014320:0000333333332300
#021350:0000001300000000
#021320:00000023
#024350:13230000
#029380:0000001300000000
#0293b0:00000023
#032380:13230000
#0353b0:13
#035380:0000003333002300
#036320:13
#036350:0000003333002300
#037380:13
#0373b0:0000003333002300
#038350:13
#038320:0000003333002300
#047320:00000013
#048340:33
#048350:0033333323000000
#0473b1:00000013
#048391:33
#048381:0033333323000000
#055381:13
#0553b1:00230000
#055351:0013
#055321:00000023
#056381:13
#0563b1:0023
#056320:13
#056350:0023
#057350:13
#057320:0023
#0573b1:13
#057381:0023
#0583a1:14
#058381:0000340034343434
#059381:24
#066321:0013
#066351:0000000000000033
#067351:23
#077321:13
#078321:33
#078351:0053
#079351:33
#080351:33
#080321:0023
#0773b0:13
#077380:0053
#078380:33
#079380:33
#0793b0:0053
#0803b0:3323
#0903b0:13
#090380:0023
#090351:13
#090321:0023
#091381:13
#0913b1:0023
#091320:13
#091350:0023
#0923b0:13
#092380:0000330033333333
#093380:23
#092321:13
#092351:0000330033333333
#093351:23
#100381:0016
#100351:0000000000363636
#101351:36003636363636363636363636363636
#102351:26
