This file was generated by Ched 2.6.4.0.
#TITLE ""
#ARTIST ""
#DESIGNER ""
#DIFFICULTY 0
#PLAYLEVEL
#SONGID ""
#WAVE ""
#WAVEOFFSET 0
#JACKET ""
#REQUEST "ticks_per_beat 480"
#00002: 4
#BPM01: 202
#00008: 01
#TIL00: ""
#HISPEED 00
#MEASUREHS 00
#00018:00000013
#0001b:0000000000130000
#00015:0000000000000013
#00012:0000000000130000
#00112:1313000000000013
#0011b:2323000000000000
#0021b:0000130013130000
#00215:1313001300000000
#00216:00000000000000000013000000000000
#00212:00000000130000000000000000130000
#00217:0000000000001313
#00218:2323000000000000
#0031b:1313000000000000
#00318:0000000000000013
#00312:2323000000000013
#00418:1300131300130013
#0041b:0013000013000000
#00412:0000001313000000
#00415:2323000000001300
#0071b:00131313
#00715:0000001300000013
#00718:0000000000130000
#00712:00131313
#01012:0013000013002600
#01018:00130026
#01015:0000001300000000
#0101b:0013000013000000
#01512:0000000000000013
#01516:00000014
#01517:0000000000000013
#01619:0013000000000000
#01616:1400141300000000
#01614:0013000000000000
#0161b:0000001300000000
#01712:0013000026260000
#01718:2626000013130000
#0221b:1313000013001313
#02218:0000131300000000
#02215:0000000013130000
#02212:1300130000001313
#03517:14
#0351a:0000001414001400
#03512:13
#03513:0013000000000000
#03514:00130000
#03515:0000001300000000
#03612:14
#03615:0000001414001400
#03618:13
#03619:0013000000000000
#0361a:00130000
#0361b:0000001300000000
#0371a:1400001414001400
#03712:0000001300000000
#03715:0000000000000013
#03812:1400001414001400
#0381b:13
#03819:00000013000000000000000000000000
#03817:0000001313000000
#04118:1313
#04112:1313
#0411b:00130013
#04115:0016131600161316
#04612:0013000000160000
#04618:0000001300001613
#04615:13000000130000000000000000130013
#0461b:0013
#04718:1313
#04715:0016131600161300
#04712:1313
#0471b:00130013
#04812:13000000130000000000000000000013
#04815:00001300000013000000130000130000
#04819:0013000000000000
#0481b:00130013
#04818:0000001300000013
#0491a:14
#04919:00001400000000000000000000000013
#04918:00000000140000000000000000130000
#04917:0000001400000000
#04915:00130000000000000000000000000000
#04914:00000013000000000000000000000000
#04913:00000000001300000000000000001400
#04912:00000000000000130000000014000000
#04916:0024
#05018:0000000016131613
#05014:14
#05015:00001400000000000013001300000013
#0501a:00130000000000000000000000000000
#0501b:00000013000000000000000000000000
#05012:00000000000000000000000000130000
#05016:00240000
#05712:0000130000000013
#05716:0013
#0571b:0000130000130000
#05717:0000000000000013
#05714:0000001300000000
#05719:00000013
#05912:00141413
#05914:0000001400000013
#05918:00000000240000000000000000130000
#0591a:24000000000000000000000000000013
#05916:0024
#05910:41
#06016:13
#0601b:0000130000130000
#06019:0000001300000000
#06017:0013
#06015:00000000001300000000000000001300
#06013:00000000000000130000000000000000
#06012:00000013
#06018:00000000000000000000000000130013
#06218:00000000001300000000160000000000
#06212:00130016
#06217:13
#06214:0000001300000000
#06216:0013
#0621a:00000000000000130000000000000000
#0651b:00000013
#06515:0000001400000013
#06517:0014000000130000
#06514:00140000
#0651a:0014
#06512:2400000000130000
#06518:00240000
#06516:0024
#06618:1300000026131313
#0661b:0013131300000000
#06612:0013131300000000
#06615:00000000000000000013001300130013
#06718:00161300
#06715:0000001300130013
#06712:2c130013
#0671b:0000000000130000
#06812:0000131313000000
#06818:13131300
#06815:0013000000130000
#0681b:0000001300130000
#07512:1626000016260000
#07518:2616000026160000
#07510:41
#08314:1424142414000000
#08318:2414241424000000
#08312:0000000000001424
#0831a:0000000000002414
#08412:14002400140000000000000000120000
#0841a:2414240000120012
#0841c:0012
#08416:00000000000000000012000000000000
#08414:00000000000000000000001200000012
#08418:00000012
#0811b:13130000
#08116:1318130000000000
#08112:0000000013181300
#08117:00001313
#0851b:23000013000000000000001300000000
#08516:0013130000131300
#08517:0000001323000000
#08512:00000000000000130000000000000000
#08518:0000000000000013
#08515:00000000000000000000000000000013
#0851f:21
#08912:2c132c002c132c13
#08915:0000001300000000
#08918:0000000000130000
#0891b:0013001300000013
#0901b:00000013
#09012:1c000013
#09016:00140000
#09015:0000000000130000
#09018:0000000000000013
#0931b:00000013
#09318:0000260000130013
#09316:0014001400000000
#0931a:0014
#09312:2600140026000013
#09315:00000013
#0941b:00130000
#09416:0000001300000000
#09415:13131313
#09412:0000001300000000
#09418:0000000000130013
#01813:1313
#0181a:24132400
#01816:0014001400000000
#01818:00000013
#01815:0000000000000013
#01812:00240000
#09618:0000000000160013
#09612:0000001300001600
#0961b:00130000
#09616:0000001300000000
#09615:13131300
#05318:00001300000000000000001300000000
#0531b:23132313
#05312:00132313
#05315:00000013000000000000130000001300
#05316:0000001300000000
#0051b:13
#00518:0013130000131300
#00512:1300001313000013
#00618:0000001300000000
#00612:13
#0061b:0013
#00816:0014001400140000
#00818:26000000000000002600000000130013
#00815:0000000000000013
#00812:00260026
#00912:23131313
#00918:00000000000013000013000000000000
#00915:0013000000130016
#0091b:23130013
#01115:0000000000130000
#01112:13
#01110:41
#01215:13
#01315:0000000000130000
#01415:13
#01918:1300000013000013
#01912:13000013
#01915:00130000
#0191b:0000001300000000
#02012:13001313
#02015:0000130000130000
#02018:0000001313000000
#0201b:0000130000001313
#02112:13
#02115:0013130000000000
#02118:1313
#0211b:00000013
#02315:1300000013000013
#0231b:13000013
#02318:00130000
#02312:0000001300000000
#0241b:13001313
#02418:0000130000130000
#02415:0000001313000000
#02412:0000130000001313
#0251b:13
#02518:0013130000000000
#02515:1300000013000023
#02512:00000013
#02712:13001300000000000000001300000000
#02718:1300000013130000
#0271b:00000013000000000000000000000000
#02715:0013
#02710:41
#03415:00130000000013000000000000000000
#03412:00131300
#03418:00130000000013000000000000000000
#0341b:00131300
#0331b:1313000000001313
#03315:0000130013130000
#03312:1300000000001313
#02812:1313000013000000
#02818:1300000013130000
#0281b:00130000
#02815:00000013
#02912:1313000013130000
#02918:0000130013130000
#0291b:1313000000000000
#02915:00000013
#03012:1313000000000013
#03018:0000000013130000
#0311b:1313000000000013
#03115:0000000013130000
#0321b:1313000013000000
#03215:0000130013130000
#03212:13
#03218:00000013
#02618:0000250000002613
#02612:0026
#0391b:1300001300000000
#03915:0013000000132300
#03912:2300130023000013
#03918:00231313
#04012:1300001300000000
#04018:0013000000132300
#0401b:2300130023000013
#04015:00231313
#04515:00001300000000000000001300000000
#04512:23132313
#0451b:00132313
#04518:00000013000000000000130000001300
#04517:0000001300000000
#05418:13000000130000000000160000130013
#05412:00001316
#05415:0000001300000013
#0541b:0013000000000000
#05512:13
#05515:0013130000131300
#0551b:1300001313000013
#05615:0000001300000000
#0561b:13
#05612:0013
#05816:0014001400000000
#05815:00000000000000000013000000000000
#05814:00000000000000000000001300000000
#05813:00000000000000000000000000130000
#05812:00000000260000000000000000000013
#05818:2600000000000023
#0581b:0023
#05819:00000023
#0581a:0000000000230000
#0611b:00000013
#06119:0000000000000013
#06118:0000001400000000
#0611a:00141400
#06115:00000000000000000000000000130000
#06113:00000000000000000000000000000013
#06112:24
#06114:00240000
#06116:0024
#06312:00001413
#06314:0000240000000013
#06315:0014000000000000
#06317:0000001400000000
#06318:00140000
#0631b:00000000000000000000000000130000
#06319:00000000000000000000000000000013
#06316:1424
#0631a:24
#06416:13
#0641b:00000000130000000000000000130000
#06419:0000001300000000
#06417:0013
#06412:00000000001300000000000000001300
#06414:00000000000000130000000000000000
#06415:00000013
#06418:00000000000000000000000000000013
#06918:13161300
#06915:0013001300130013
#06912:00130013
#0691b:0000000000130000
#07012:0000131313000000
#07018:13131300
#07015:0013000000130000
#0701b:0000001300130000
#07112:0000160000130000
#07118:0013001300130013
#07115:1313
#0711b:00130013
#0721b:0000131313000000
#07215:13131300
#07218:0013000000130000
#07212:0000001300130000
#07312:0000160000130000
#07318:0013001300130013
#07315:1313
#0731b:00130013
#0741b:0000131313000000
#07415:13131300
#07418:0013000000130000
#07412:0000001300130000
#07612:13130000
#0761b:1313
#07617:0013000000000000
#07616:0000001300000000
#0771b:13
#07716:13000013
#07712:00130000
#07714:0013
#0771f:11
#0781b:13000013
#07817:00130000
#07819:0013
#07912:13000013
#07916:00130000
#07914:0013
#0801b:13
#08017:0013
#08012:0013
#0821b:13000013
#08216:13000013
#08217:00131300
#08212:00131300
#08214:0018000000180000
#0861b:13001313
#08615:00001300000000130000001300000013
#08618:00000013000013000000130000001300
#08612:00000000130000000013000000130000
#08610:0041
#08712:0013000000130013
#08718:00000013000000002300001300000000
#08715:00000000130000130000000013000000
#0871b:2300001300000013
#08812:0013000013000000
#0881b:0013000013000000
#08818:0000131300001313
#08815:00000000001300130000130000130013
#09112:16120000
#09118:16
#0911c:00120000
#09116:0000000000000013
#0911b:0000000000000013
#09216:0014001400000000
#09218:00000000260000000013000000000000
#09219:00000000000000000000001300000000
#0921a:00000000000000000000000000130000
#0921b:00000000000000000000000000000013
#09212:2623
#09214:00000023
#09215:0000000000000023
#09213:0000000000230000
#0951b:00000013
#09518:0000260000130013
#09516:0014001400000000
#0951a:1414
#09512:2600140026000013
#09515:00000013
#09712:14261413
#09715:0000000000130013
#09716:0014001400000000
#0971a:00140000
#09718:26002613
#0971b:0000000000000013
#09812:00130000
#09817:0000001300000000
#09818:13131313
#0981b:0000001300000000
#09815:0000000000130013
#09916:0014001400000000
#09912:14261413
#0991a:00140000
#0991b:00000013
#09917:0000000000000013
#09918:2626
#1001b:13131313
#10012:13131300
#10016:0013000000000000
#10017:0000001300000000
#10015:0000000000130013
#10118:13
#10112:0013000013000013
#1011b:00000013000000000013000000000013
#10116:0000130000130000
#10119:00000000001300000000001300000000
#10114:0000001300001300
#10117:00000000000000130000000000130000
#04218:2600260026160000
#04215:00000016
#04212:2600260026000016
#05212:00000000001300000000000000000000
#05216:00130000000000000000000000000000
#05217:0000131300000000
#0521b:1313000000000000
#05116:0000000000000013
#05115:00001300000000000000001300000000
#05117:0000001300000000
#05118:00000013000000000000130000000000
#05112:23132313
#0511b:23132313
#0441b:00000000001300000000000000000000
#04417:00130000000000000000000000000000
#04416:0000131300000000
#04412:1313000000000000
#04317:0000000000000013
#04318:00001300000000000000001300000000
#04316:0000001300000000
#04315:00000013000000000000130000000000
#0431b:23132313
#04312:23132313
#04310:41
#10212:2c
#01552:0000000000000013
#01659:0013000000000000
#01656:0000001300000000
#0355a:00000014
#03555:00000013
#03655:00000014
#0365b:00000013
#0375a:00000014
#03852:00000014
#0385b:00000013
#03857:0053
#04652:0000000000360000
#04658:00000046
#04852:53530000
#04855:0023002300000000
#0485b:00530000
#04858:0000002300000000
#0475b:00000053
#05058:00004646
#05056:00340000
#0595a:44
#05958:00440000
#05956:0044
#06258:0000000000460000
#06252:00000036
#06257:13
#06256:0013
#06056:13
#06057:0013
#06758:00465343
#06752:1c
#0675b:0000000000230000
#0935b:00000053
#09358:0000460000000023
#09352:3636
#0945b:00530000
#09456:0000002300000000
#0185a:4444
#01852:00340000
#08156:00130000
#08157:00000013
#09658:0000000000460000
#09652:00000036
#0965b:00530000
#09656:0000002300000000
#04158:1313
#04155:00130013
#00452:0013
#0045b:0013
#00552:2323
#00558:00530053
#00652:53
#0065b:0053
#00755:13
#00758:13
#00858:4646
#00852:00360036
#01052:0013000013003600
#0105b:0013000013000000
#01058:00000046
#01758:4646000000000000
#01752:0000000036360000
#01958:53
#02355:63
#02658:00000046
#02652:00000036
#0345a:00000014
#03452:00535314
#03455:00230000000023000000000000000000
#03458:00230000000023000000000000000000
#0345b:00636300
#0335b:0000000000000063
#03352:1300000000000053
#03358:0000001300000000
#03355:00130000
#02758:53
#02755:0053
#0275b:00000023000000000000000000000000
#02752:00000000000000000000002300000000
#03252:13
#03255:00130000
#0325b:0013
#03258:00000013
#0395b:13
#03952:00130000
#03958:00001313
#04052:13
#0405b:00130000
#04055:00001313
#04252:36363600
#04258:46464600
#04956:0044
#05458:0000000000460000
#05452:00000036
#0555b:2323
#05555:00630063
#0565b:63
#05652:0063
#05758:13
#05755:13
#06152:34
#06154:00340000
#06156:0034
#06456:13
#06457:0013
#0635a:44
#06354:00340000
#06356:0044
#06552:34
#06558:00440000
#06556:0034
#06658:0016
#06858:00535343
#0685b:0000002300230000
#06852:00005343
#06855:0000000000230000
#06958:00465343
#0695b:0000000000230000
#07058:00535343
#0705b:0000002300230000
#07052:00005343
#07055:0000000000230000
#07152:0000360000230000
#07155:00006333
#07255:00636333
#07252:0000002300230000
#0725b:00006333
#07258:0000000000230000
#07352:0000360000230000
#07355:00006333
#07455:00636333
#07452:0000002300230000
#0745b:00006333
#07458:0000000000230000
#07558:1616
#07552:0016000000160000
#07652:33533300
#0765b:53434300
#07657:0023000000000000
#07656:0000002300000000
#07756:53000023
#07754:0053
#07752:00230000
#0785b:53000023
#07857:00230000
#07859:0053
#07952:63000023
#07956:00230000
#07954:0063
#0805b:53
#08057:0053
#08052:0053
#08252:00130000
#0825b:00000013
#0845a:44440000
#08452:0034000000000000
#0835a:00000044
#08352:0000000000000034
#0875b:0000000000000043
#08752:0000000000000033
#0885b:0043
#08852:0033
#09052:5c
#09056:00240000
#09152:56220000
#09158:66
#0915c:00220000
#0955b:00000053
#09558:0000460000000023
#09552:3636
#09752:00360063
#09755:0000000000000023
#09758:4646
#09852:00630000
#09857:0000002300000000
#09958:4646
#09952:00360000
#10252:1c
#005320:13
#005350:00230000
#005381:00130000
#0053b1:0023
#005320:0013
#005350:00000023
#005381:00000013
#0063b1:23
#006320:13
#006350:0053
#007350:23
#0063b1:0013
#007381:23
#0113b1:1323000000000000
#011350:0013230000000000
#011381:0000132300000000
#011320:0000001323000000
#0113b1:0000000013332300
#011350:0000000000001323
#011381:0000000000000013
#012381:3323000000000000
#012320:00001333230000000000000000000000
#0123b1:00000000133323000000000000000000
#012350:00000000000013332300000000000000
#012381:00000000000000001323000000000000
#012320:00000000000000000013230000000000
#0123b1:00000000000000000000132300000000
#012350:00000000000000000000001323000000
#012381:0000000000001323
#012320:0000000000000013
#013320:23
#0133b1:1323000000000000
#013350:0013230000000000
#013381:0000132300000000
#013320:0000001323000000
#0133b1:0000000013332300
#013350:0000000000001323
#013381:0000000000000013
#014381:3323000000000000
#014320:00001333230000000000000000000000
#0143b1:00000000133323000000000000000000
#014350:00000000000013332300000000000000
#014381:00000000000000001323000000000000
#014350:00000000000000000013230000000000
#0143b1:00000000000000000000132300000000
#014320:00000000000000000000001323000000
#014381:0000000000001323
#014350:0000000000000013
#015350:23
#0153b1:130000000000000000000000000000000000000000000000000000000000000000000000000000000000000000000000000000000000000000000000000000000000000000000000000000000000000000000000000000000053000000000000000000000000000000000000000000000000000000000000000000000000000000000000000000000000000000000000000000000000000000000000000000000000000000000000000000000000000000000000000000000000000000000000000000000000000000000000000000000000000000000000000000000000000000000000000000000000000000000000000000000000000000000000000000000000000000000000000000000000000000000000000000000000000000000000000000000000000000000000000000000000000000000000000000000000000000000000000000000000000000000000000000000000000000000000000000000000000000000000000000000000000000000000000000000000000000000000000000000000000000000000000000000000000000000000000000000000000000000000000000000000000000000000000000000000000000000000000000000000000000000000000000000000000000000000000000000000000000000000000000000000000000000000000000000000000000000000000000000000000000000000000000000000000000000000000000000000000000000000000000000000000000000000000000000000000000000000000000000000000000000000000000000000000000000000000000000000000000000000000000000000000000000000000000000000000000000000000000000000000000000000000000000000000000000000000000000000000000000000000000000000000000000000000000000000000000000000000000000000000000000000000000000000000000000000000000000000000000000000000000000000000000000000000000000000000000000000000000000000000000000000000000000000000000000000000000000000000000000000000000000000000000000000000000000000000000000000000000000000000000000000000000000000000000000000000000000000000000000000000000000000000000000000000000000000000000000000000000000000000000000000000000000000000000000000000000000000000000000000000000000000000000000000000000000000000000000000000000000000000000000000000000000000000000000000000000000000000000000000
#015381:000000000000000000000000000000000000000000000000000000000000000000000000000000000000000000000000000000000000000000000000000000000000000000000000000000000000000000000000000000000000560000000000000000000000000000000000000000000000000000000000360000000000000000000000000000000000000000000000000000000000565300000000000000000000000000000000000000000000000000000000000000000000000000000000000000000000000000000000000000000000000000000000000000000000000000000000000000000000000000000000230000000000000000000000000000000000000000000000000000000000000000000000000000000000000000000000000000000000000000000000000000000000000000000000000000000000000000000000000000000000000000000000000000000000000000000000000000000000000000000000000000000000000000000000000000000000000000000000000000000000000000000000000000000000000000000000000000000000000000000000000000000000000000000000000000000000000000000000000000000000000000000000000000000000000000000000000000000000000000000000000000000000000000000000000000000000000000000000000000000000000000000000000000000000000000000000000000000000000000000000000000000000000000000000000000000000000000000000000000000000000000000000000000000000000000000000000000000000000000000000000000000000000000000000000000000000000000000000000000000000000000000000000000000000000000000000000000000000000000000000000000000000000000000000000000000000000000000000000000000000000000000000000000000000000000000000000000000000000000000000000000000000000000000000000000000000000000000000000000000000000000000000000000000000000000000000000000000000000000000000000000000000000000000000000000000000000000000000000000000000000000000000000000000000000000000000000000000000000000000000000000000000000000000000000000000000000000000000000000000000000000000000000000000000000000000000000000000000000000000000000000000000000000000000000000000000000000000000000000000000000000000000000000000000000000000000000000000000000000000000
#015350:000000000000000000000000000000000000000000000000000000000000000000000000000000000000000000000000000000000000000000000000000000000000000000000000000000000000000000000000000000000000000000000000000000000000000000000000000000000000000000000000000000000000000000000000000000000000000000000000000000000000000000000000000000000000000000000000000000000000000000000000000000000000000000000000000000000000000000000000000000000000000000000000000000000000000000000000000000000000000000000000130000000000000000000000000000000000000000000000000000000000000000000000000000000000000000000000000000000000000000000000000000000000000000000000000000000000000000000000000000000053000000000000000000000000000000000000000000000000000000000000000000000000000000000000000000000000000000000000000000000000000000000000000000000000000000000000000000000000000000000000000000000000000000000000000000000000000000000000000000000000000000000000000000000000000000000000000000000000000000000000000000000000000000000000000000000000000000000000000000000000000000000000000000000000000000000000000000000000000000000000000000000000000000000000000000000000000000000000000000000000000000000000000000000000000000000000000000000000000000000000000000000000000000000000000000000000000000000000000000000000000000000000000000000000000000000000000000000000000000000000000000000000000000000000000000000000000000000000000000000000000000000000000000000000000000000000000000000000000000000000000000000000000000000000000000000000000000000000000000000000000000000000000000000000000000000000000000000000000000000000000000000000000000000000000000000000000000000000000000000000000000000000000000000000000000000000000000000000000000000000000000000000000000000000000000000000000000000000000000000000000000000000000000000000000000000000000000000000000000000000000000000000000000000000000000000000000000000000000000000000000000000000000000000000000000000000000000000000000000000000
#015320:000000000000000000000000000000000000000000000000000000000000000000000000000000000000000000000000000000000000000000000000000000000000000000000000000000000000000000000000000000000000000000000000000000000000000000000000000000000000000000000000000000000000000000000000000000000000000000000000000000000000000000000000000000000000000000000000000000000000000000000000000000000000000000000000000000000000000000000000000000000000000000000000000000000000000000000000000000000000000000000000000000000000000000000000000000000000000000000000000000000000000000000000000000000000000000000000000000000000000000000000000000000000000000000000000000000000000000000000000000000000560000000000000000000000000000000000000000000000000000000000360000000000000000000000000000000000000000000000000000000000565300000000000000000000000000000000000000000000000000000000000000000000000000000000000000000000000000000000000000000000000000000000000000000000000000000000000000000000000000000000330000000000000000000000000000000000000000000000000000000000000000000000000000000000000000000000000000000000000000000000000000000000000000000000000000000000000000000000000000000000000000000000000000000000000000000000000000000000000000000000230000000000000000000000000000000000000000000000000000000000000000000000000000000000000000000000000000000000000000000000000000000000000000000000000000000000000000000000000000000000000000000000000000000000000000000000000000000000000000000000000000000000000000000000000000000000000000000000000000000000000000000000000000000000000000000000000000000000000000000000000000000000000000000000000000000000000000000000000000000000000000000000000000000000000000000000000000000000000000000000000000000000000000000000000000000000000000000000000000000000000000000000000000000000000000000000000000000000000000000000000000000000000000000000000000000000000000000000000000000000000000000000000000000000000000000000000000000000000000000000
#0153b1:0000000000132300
#0163b1:000000000000000000000000000000000000000000000000000000000000000000000000000000000000000000000000000000000000000000000000000000000000000000000000000000000000000000000000000000000000000000000000000000000000000000000000000000000000000000000000000000000000000000000000000000000000000000000000000000000000000000000000000000000000000000000000000000000000000000000000000000000000000000000000000000000000000000000000000000000000000000000000000000000000000000000000000000000000000000000000000000000000000000000000000000000000000000000000000000000000000000000000000000000000000000000000000000000000000000000000000000000000000000000000000000000000000000000000000000000000000000000000000000000000000000000000000000000000000000000000000000000000000000000000000000000000000000000000000000000000000000000000000000000000000000000000000000000000000000000000000000000000000000000000000000000000000000000000000000000000000000000000000000000000000000000000000000000000000000000000130000000000000000000000000000000000000000000000000000000000000000000000000000000000000000000000000000000000000000000000000000000000000000000000000000000000000000000000000000000053000000000000000000000000000000000000000000000000000000000000000000000000000000000000000000000000000000000000000000000000000000000000000000000000000000000000000000000000000000000000000000000000000000000000000000000000000000000000000000000000000000000000000000000000000000000000000000000000000000000000000000000000000000000000000000000000000000000000000000000000000000000000000000000000000000000000000000000000000000000000000000000000000000000000000000000000000000000000000000000000000000000000000000000000000000000000000000000000000000000000000000000000000000000000000000000000000000000000000000000000000000000000000000000000000000000000000000000000000000000000000000000000000000000000000000000000000000000000000000000000000000000000000000000000000000000000000000000000000000000000
#016381:000000000000000000000000000000000000000000000000000000000000000000000000000000000000000000000000000000000000000000000000000000000000000000000000000000000000000000000000000000000000000000000000000000000000000000000000000000000000000000000000000000000000000000000000000000000000000000000000000000000000000000000000000000000000000000000000000000000000000000000000000000000000000000000000000000000000000000000000000000000000000000000000000000000000000000000000000000000000000000000000000000000000000000000000000000000000000000000000000000000000000000000000000000000000000000000000000000000000000000000000000000000000000000000000000000000000000000000000000000000000000000000000000000000000000000000000000000000000000000000000000000000000000000000000000000000000000000000000000000000000000000000000000000000000000000000000000000000000000000000000000000000000000000000000000000000000000000000000000000000000000000000000000000000000000000000000000000000000000000000000000000000000000000000000000000000000000000000000000000000000000000000000000000000000000000000000000000000000000000000000000000000000000000000000000000000000000000000000000000000000560000000000000000000000000000000000000000000000000000000000360000000000000000000000000000000000000000000000000000000000565300000000000000000000000000000000000000000000000000000000000000000000000000000000000000000000000000000000000000000000000000000000000000000000000000000000000000000000000000000000230000000000000000000000000000000000000000000000000000000000000000000000000000000000000000000000000000000000000000000000000000000000000000000000000000000000000000000000000000000000000000000000000000000000000000000000000000000000000000000000000000000000000000000000000000000000000000000000000000000000000000000000000000000000000000000000000000000000000000000000000000000000000000000000000000000000000000000000000000000000000000000000000000000000000000000000000000000000000000000000
#016350:000000000000000000000000000000000000000000000000000000000000000000000000000000000000000000000000000000000000000000000000000000000000000000000000000000000000000000000000000000000000000000000000000000000000000000000000000000000000000000000000000000000000000000000000000000000000000000000000000000000000000000000000000000000000000000000000000000000000000000000000000000000000000000000000000000000000000000000000000000000000000000000000000000000000000000000000000000000000000000000000000000000000000000000000000000000000000000000000000000000000000000000000000000000000000000000000000000000000000000000000000000000000000000000000000000000000000000000000000000000000000000000000000000000000000000000000000000000000000000000000000000000000000000000000000000000000000000000000000000000000000000000000000000000000000000000000000000000000000000000000000000000000000000000000000000000000000000000000000000000000000000000000000000000000000000000000000000000000000000000000000000000000000000000000000000000000000000000000000000000000000000000000000000000000000000000000000000000000000000000000000000000000000000000000000000000000000000000000000000000000000000000000000000000000000000000000000000000000000000000000000000000000000000000000000000000000000000000000000000000000000000000000000000000000000000000000000000000000000000000000000000000000000000000000000000000000000000000000000000000000000000000000000000000000000000000000000000000000000000000000130000000000000000000000000000000000000000000000000000000000000000000000000000000000000000000000000000000000000000000000000000000000000000000000000000000000000000000000000000000053000000000000000000000000000000000000000000000000000000000000000000000000000000000000000000000000000000000000000000000000000000000000000000000000000000000000000000000000000000000000000000000000000000000000000000000000000000000000000000000000000000000000000000000000000000000000000000000000000000000000
#016320:000000000000000000000000000000000000000000000000000000000000000000000000000000000000000000000000000000000000000000000000000000000000000000000000000000000000000000000000000000000000000000000000000000000000000000000000000000000000000000000000000000000000000000000000000000000000000000000000000000000000000000000000000000000000000000000000000000000000000000000000000000000000000000000000000000000000000000000000000000000000000000000000000000000000000000000000000000000000000000000000000000000000000000000000000000000000000000000000000000000000000000000000000000000000000000000000000000000000000000000000000000000000000000000000000000000000000000000000000000000000000000000000000000000000000000000000000000000000000000000000000000000000000000000000000000000000000000000000000000000000000000000000000000000000000000000000000000000000000000000000000000000000000000000000000000000000000000000000000000000000000000000000000000000000000000000000000000000000000000000000000000000000000000000000000000000000000000000000000000000000000000000000000000000000000000000000000000000000000000000000000000000000000000000000000000000000000000000000000000000000000000000000000000000000000000000000000000000000000000000000000000000000000000000000000000000000000000000000000000000000000000000000000000000000000000000000000000000000000000000000000000000000000000000000000000000000000000000000000000000000000000000000000000000000000000000000000000000000000000000000000000000000000000000000000000000000000000000000000000000000000000000000000000000000000000000000000000000000000000000000000000000000000000000000000000000000000000000000000000000000560000000000000000000000000000000000000000000000000000000000360000000000000000000000000000000000000000000000000000000000565300000000000000000000000000000000000000000000000000000000000000000000000000000000000000000000000000000000000000000000000000000000000000000000000000000000000000000000000000000000
#017320:23
#019380:13
#0193b0:00230000
#021320:0000001300002300
#023350:13
#023320:00230000
#0253b0:0000001300000023
#025351:0000000000000013
#026351:000000000000005300000000000000230000000000000000000000000000000000000000000000000000000000000000000000000000000000000000000000000000000000000000000000000000000000000000000000000000000000000000000000000000000000000000000000000000000000000000
#026331:00550000000000000000000000000000
#026381:000000000000000000000000000000000000000000000000000000000000000000000000000000000000000000000000000000000000000000000000000000000000000000000000000000000000000000000000000000000000000000000000000000000000000000000000000000000000000000000000000000000000000000000000000000000000000000000000000000000000000000000000000000000000000000000000000000000000000000000000000000000000000000000000000000000000000000000000000000000000000000000000000000000000000000000000000000000000000000000000000000000000000000000000000000000000000000000000000000000000000000000000000000000000000000000000000000000000000000000000000000000000000000000000000000000000000000000000000000000000000000000000000000000000000000000000000000000000000000000000000000000000000000000000000000000000000000000000000000000000000000000000000000000000000000000000000000000000000000000000000000000000000000000000000000000000000000000000000000000000000000000000000000000000000000000000000000000000000000000000150000000000000000000000000000000000000000000000000000000000000000000000000000000000000000000000000000000000000000000000000000000000000000000000000000000000000000000000000000000000000000000000000000000000000000555200000000000000000000000000000000000000000000000000000000000000000000000000000000000000000000000000000000000000000000000000000000000000000000000000000000000000000052005500000000000000000000000000000000000000000000000000000000000000000000000000000000000000000000000000550000000000000000000000000000000000000000000000000000000000000000000000000000000000000000000000000055000000000000000000000000000000000000000000000000000000000000000000000000000000000000000000000000000000000000000000000000000000000000000000000000000000000000000000000000550000000000000000000000000000000000000000000000000000000000000000000000000000000000000000000000000000000000000000000000000000000000000000000000000000000000000000000000000000000000000000000000000000000000000000250000000000000000000000000000000000000000000000000000000000000000000000000000000000000000000000000000000000000000000000000000000000000000000000000000000000000000000000000000000000000000000000000000000000000000000000000000000000000000000000000000000000000000000000000000000000000000000000000000000000000000000000000000000000000000000000000000000000000000000000000000000000000000000000000000000000000000000000000000000000000000000000000000000000000000000000000000000000000000000000000000000000000000000000000000000000000000000000000000000000000000000000000000000000000000000000000000000000000000000000000000000000000000000000000000000000000000000000000000000000000000000000000000000000000000000000000000000000000000000000000000000000000000000000000000000000000000000000000000000000000000000000000000000000000000000000000000000000000000000000000000000000000000000000000000000000000000000000000000000000000000000000000000000000000000000000000000000000000000000000000000000000000000000000000000000000000000000000000000000000000000000000000000000000000000000000000000000000000000000000000000000000000000000000000000000000000000000000000000000000000000000000000000000000000000000000000000000000000000000000000000000000000000000000000000000000000000000000000000000000000000000000000000000000000000000000000000000000000000000000000000000000000000000000000000000000000000000000000000000000000000000000000000000000000000000000000000000000000000000000000000000000000000000000000000000000000000000000000000000000000000000000000000000000000000000000000000000000000000000000000000000000000000000000000000000000000000000000000000000000000000000000000000000000000000000000000000000000000000000000000000000000000000000000000000000000000000000000000000000000000000000000000000000000000000000000000000000000000000000000000000000000000000000000000000000000000000000000000000000000000000000000000000000000000000000000000000000000000000000000
#0263b1:000000000000000000000000000000000000000000000000000000000000000000000000000000000000000000000000000000000000000000000000000000000000000000000000000000000000000000000000000000000000000000000000000000000000000000000000000000000000000000000000000000000000000000000000000000000000000000000000000000000000000000000000000000000000000000000000000000000000000000000000000000000000000000000000005200000000000000000000000000000000000000520000000000000000000000000000000000000000000000000000000000000000000000000000000000000000000000000000000000000000000000000000000000000000000000000000000000000000000000000000000000000000000000000000000000000000000000000000000000000000000000000000000000000000000000000000000000000000000000000000000000000000000000000000000000000000000000000000000000000000000000000000000000000000000000000000000000000000000000000000000000000000000000000000000000000000000000000000000000000000000000000000000000000000000000000000000000000000000000000000
#026320:000000000000000000000000000000000000000000000000000000000000000000000000000000000000000000000000000000000000000000000000000000000000000000000000000000000000000000000000000000000000000000000000000000000000000000000000000000000000000000000000000000000000000000000000000000000000000000000000000000000000000000000000000000000000000000000000000000000000000000000000000000000000000000000000160000000000000000000000000000000000000000560000000000000000000000000000000056000000000000000000560000000000000000005600000000000000000000000000000000560000000000000000000000000000000000000000260000000000000000000000000000000000000000000000000000000000000000000000000000000000000000000000000000000000000000000000000000000000000000000000000000000000000000000000000000000000000000000000
#026350:000000000000000000000000000000000000000000000000000000000000000000000000000000000000000000000000000000000000000000000000000000000000000000000000000000000000000000000000000000000000000000000000000000000000000000000000000000000000000000000000000000000000000000000000000000000000000000000000000000000000000000000000000000000000000000000000000000000000000000000000000000000000000000000000000000000000000000000000000000000000000000000000000000000000000000000000000000000000000000000000000000000000000000000000000000000000000000000000000000000000000000000000000000000000000000000000000000000000000000000000000000000000000000000000000000000000000000000000000000000000000000000000000000000000000000000000000000000000000000000000000000000000000000000000000000000000000000000000000000000000000000000000000000000000000000000000000000000000000000000000000000000000000000000000000000000000000000000000000000000000000000000000000000000000000000000000000000000000000000000000000000000000000000000000000000000000000000000000000000000000000000000000000000000000000000000000000000000053000000000000000000000000000000000000000000000000000000000000000000000000000000005300000000000000000000000000000000000000000000000000000000000000000000000000000000000000000000000000000053000000000000000000000000000000000000000000000000000000000000000000000000000000530000000000000000000000000000000000000000000000000000000000000000000000000000000000000000000000000000000000000000000000000000000000000000000000000000000000000000000000000000000000000000000000000000000000000000000000000000000000000000000000000000000000000000000000000000000000000000000000000000000000000000000000000000000000000000000000000000000000000000000000000000000000000000000000000000000000000000000000000000000000000000000000000000000000000000000000000000000000000000000000000000000000000000000000000000000000000000000000000000000000000000000000000000000000000000000000000000000000
#027380:1300002300000000
#0273b0:00000053000000000000000000000000
#027351:0000132300000000
#027351:0000000013000023
#027321:00000000000000000000005300000000
#0273b0:0000000000001323
#028350:0000132300000000
#0283b0:0000000000001323
#029350:0000132300000000
#0293b0:0000000000001323
#0303b0:13
#030380:00230000
#030351:0000132300000000
#030351:0013
#030321:00000023
#0303b0:0000000000001323
#031320:13
#031350:00230000
#031381:0000132300000000
#031381:0013
#0313b1:00000023
#031320:0000000000001323
#032380:0000132300000000
#032320:0000000000001323
#033380:0000132300000000
#033320:0000000000000013
#034350:00530000000053000000000000000000
#034320:00333300
#0343a0:00000024
#0333b1:0000000000000013
#034381:00530000000053000000000000000000
#0343b1:00333300
#034321:00000024
#035351:00001323
#0363b1:00001323
#037321:13000023000000000000000000000000
#037351:00000000000000001300002300000000
#038371:0013
#0383b1:00000023
#044321:00000000000000001323000000000000
#044380:00000000000000000013230000000000
#044331:00000000000000000000132300000000
#044390:00000000000000000000001323000000
#044341:00000000000000000000000013230000
#0443a0:00000000000000000000000000132300
#044351:00000000000000000000000000001323
#0443b0:00000000000000000000000000000013
#0453b0:23
#046380:13230000
#0473b0:00000013
#048370:23
#048321:13332300
#048351:0053005300000000
#0483b0:00132300
#048380:0000005300000000
#0523b0:00000000000000001323000000000000
#052351:00000000000000000013230000000000
#0523a0:00000000000000000000132300000000
#052341:00000000000000000000001323000000
#052390:00000000000000000000000013230000
#052331:00000000000000000000000000132300
#052380:00000000000000000000000000001323
#052321:00000000000000000000000000000013
#053321:23
#054351:13230000
#0553b1:13
#055381:00230000
#055350:00130000
#055320:0023
#0553b1:0013
#055381:00000023
#055350:00000013
#056320:23
#0563b1:13
#056381:0053
#057381:23
#056320:0013
#057350:23
#067380:00001323
#0673b0:0000000000530000
#068380:00133323
#0683b0:0000005300530000
#068321:00001323
#068351:0000000000530000
#069381:00001323
#0693b1:0000000000530000
#070381:00133323
#0703b1:0000005300530000
#070320:00001323
#070350:0000000000530000
#071350:00001323
#071320:0000000000530000
#072350:00133323
#072320:0000005300530000
#0723b1:00001323
#072381:0000000000530000
#073351:00001323
#073321:0000000000530000
#074351:00133323
#074321:0000005300530000
#0743b0:00001323
#074380:0000000000530000
#0763b0:13230000
#076370:0053000000000000
#076321:00132300
#076361:0000005300000000
#077361:13000053
#077321:00530000
#077341:0053
#078321:23
#0783b0:13000053
#078370:00530000
#078390:0053
#079370:23
#079321:13000053
#079361:00530000
#079341:0053
#080361:23
#0803b0:13000023
#080370:0053
#080321:0013
#080361:00000023
#090321:1c2c
#090361:00540000
#091321:16522600
#091380:1626
#0913c0:00520000
#0933b0:00000013
#093380:0000000000000033
#0943b0:33332300
#094360:0000005300000000
#0953b0:00000013
#095380:0000000000000033
#0963b0:33332300
#096360:0000005300000000
#097320:00000013
#097350:0000000000000033
#098320:33332300
#098370:0000005300000000
