This file was generated by Ched 2.6.4.0.
#TITLE ""
#ARTIST ""
#DESIGNER ""
#DIFFICULTY 0
#PLAYLEVEL
#SONGID ""
#WAVE ""
#WAVEOFFSET 0
#JACKET ""
#REQUEST "ticks_per_beat 480"
#00002: 4
#BPM01: 202
#00008: 01
#TIL00: ""
#HISPEED 00
#MEASUREHS 00
#01312:1414
#01518:1414
#01918:14
#01912:0014
#0241a:14
#02414:0014
#02718:14
#02714:0014
#02710:41
#03114:14
#03118:0014
#03214:14
#03218:00140000
#03212:0014
#0321a:00000014
#04312:0016
#04318:26
#04310:41
#0441a:14
#04414:00140000
#04418:0014
#04412:00000014
#04518:16
#04512:0016
#0461a:14
#04614:00140000
#04618:0014
#0471a:1414
#04712:1414
#04814:1414
#04818:00140000
#0551a:14
#05514:00000014
#05512:00140000
#05518:0014
#05818:14
#05814:00140000
#05812:00000014
#0581a:0014
#06719:14
#06712:00260026
#07519:1414
#07513:1414
#07510:41
#08512:0016
#08518:26
#0851f:21
#0861a:14
#08612:00140000
#08618:0014
#08614:00000014
#08610:0041
#08718:16
#08712:0016
#0881a:14
#08812:00140000
#08819:0014
#08813:0014
#08918:16
#08912:0016
#09018:16000016
#09012:0016
#02818:14
#0281a:0014
#02814:00140000
#02812:00000014
#00518:14
#00514:0014
#0761a:1414
#07612:00140000
#0061a:14
#00612:0014
#0121a:14
#01214:00140000
#01218:0014
#01412:14
#01418:00140000
#01414:0014
#01618:14
#0161a:0014
#01612:00140000
#10018:1616
#10012:00160000
#0081a:0014
#00814:14
#0111a:2414
#01110:41
#01719:1414
#01713:1414
#02018:14
#02012:0014
#0231a:14
#02314:0014
#09218:1616
#09212:00160016
#09412:16
#09418:0016
#09415:00160000
#09618:16
#09612:0016
#09615:00160000
#09812:16
#09818:0016
#09815:00160000
#03418:1616
#03412:00160016
#04012:0016
#04018:00000016
#03915:0016
#03918:16
#04115:0016
#04112:16360036
#05118:0016
#05112:26
#05212:14
#05218:00140000
#05214:0014
#0521a:00000014
#05312:16
#05318:0016
#05412:14
#05418:00140000
#05414:0014
#10115:00160000
#02212:1616
#03012:1616
#03018:00160016
#06013:14
#06019:0014
#06219:14
#06213:0014
#06413:14
#06419:0014
#06619:14
#06613:0014
#0811a:14
#08117:00000014
#08118:0034
#08119:00340000
#0771f:11
#05918:26262600
#05910:41
#06112:26262600
#06318:2626
#06312:00260000
#06512:2626
#06518:00260000
#09318:26262600
#09512:26262600
#09718:2626
#09712:00260000
#09912:2626
#09918:00260000
#00118:26
#00216:28
#00314:2a
#00412:2c
#01812:24242400
#0181a:24242400
#06812:00262626
#06918:00260026
#07018:00262626
#07112:00260000
#07118:00000026
#07212:00262626
#07318:00260000
#07312:00000026
#07418:00262626
#05014:3434000000000000
#04914:0000000000000034
#04918:0034343400000000
#08218:34
#08219:00340000
#08014:34
#07818:34
#08314:0034343400000000
#08318:0000000000000034
#08418:3434000000000000
#06358:0016
#06552:0016
#05958:0016
#06152:0016
#09952:0016
#09758:0016
#09552:0016
#09358:0016
#03558:00000014
#03654:00000014
#03958:56
#03955:0026
#04152:56
#04155:0026
#10155:00260000
#10058:0056
#0375a:00000014
#03852:00000014
#01052:00000016
#02652:00000016
#08157:00000024
#0815a:64
#007380:1424
#009320:1600360036003636
#010320:0036363636002600
#021380:1424
#0253a0:1424
#025320:0000000000000016
#026320:00363626
#029380:1424
#033340:1424
#035380:1400003434002400
#036340:1400003434002400
#0373a0:1400003434002400
#038320:1400003434002400
#039380:16
#039350:0056
#040380:26
#041320:16360036
#041350:0036
#042320:26
#049380:1434343400000000
#0493a0:0024
#049340:0000000000001434
#050340:3434000000000000
#050320:00240000
#0563a0:14
#056380:0024
#057320:14
#057340:0024
#077380:14
#078380:34
#0783a0:0024
#079340:14
#080340:34
#080320:0024
#0813a0:14
#081390:00340000
#081380:0034
#081370:00000034
#082380:34
#082390:00340000
#0823a0:0024
#083340:1434343400000000
#083320:0024
#083380:0000000000001434
#084380:3434000000000000
#0843a0:00240000
#091320:1626
#100380:0016
#101350:00560000
#102380:26
