This file was generated by Ched 2.7.0.0.
#TITLE ""
#ARTIST ""
#DESIGNER ""
#DIFFICULTY 0
#PLAYLEVEL
#SONGID ""
#WAVE ""
#WAVEOFFSET 0
#JACKET ""
#REQUEST "ticks_per_beat 480"
#00002: 4
#BPM01: 140
#00008: 01
#TIL00: ""
#HISPEED 00
#MEASUREHS 00
#0001a:14
#0011a:14
#00212:14
#00312:14
#00418:14
#00410:41
#00514:14
#00618:14
#00714:14
#0081a:14
#00912:14
#0101a:14
#01112:14
#01110:41
#02018:2616
#0201f:21
#02112:1616
#02110:41
#02218:16
#02212:0016
#02412:2616
#02518:1616
#02612:16
#02618:0016
#02818:2616
#02912:1616
#03418:14
#03514:14
#03612:0016
#03618:26
#03718:16
#03712:0016
#04018:0016
#04012:16
#04112:16
#04118:0016
#04110:41
#0441a:14
#04514:14
#04618:14
#04712:14
#0481a:14
#04914:14
#04910:41
#05018:14
#05112:14
#0121f:11
#03215:26
#04314:28
#03310:41
#012380:14
#013380:24
#014320:14
#015320:24
#0163a0:14
#0173a0:24
#018340:14
#019340:24
#023380:1626
#027320:1626
#030380:1626
#031320:1626
#032350:16
#033350:26
#038380:1626
#039320:1626
#042320:1626
#043340:1828
#0523a0:14
#0533a0:24
#054320:14
#056320:24
