This file was generated by Ched 2.7.0.0.
#TITLE ""
#ARTIST ""
#DESIGNER ""
#DIFFICULTY 0
#PLAYLEVEL
#SONGID ""
#WAVE ""
#WAVEOFFSET 0
#JACKET ""
#REQUEST "ticks_per_beat 480"
#00002: 4
#BPM01: 140
#00008: 01
#TIL00: ""
#HISPEED 00
#MEASUREHS 00
#00415:0000130000000013
#0041a:0000000000000013
#00418:0000000000140000
#00412:0014
#0041b:00130000
#00417:0013000000000000
#00419:2300001300000000
#00413:23
#00410:41
#0081b:0013000000001300
#00815:0000000000000013
#00812:00000013
#00817:00130000
#0081a:0000001400000000
#00814:0014
#00918:1300001300000000
#00915:0013000000130000
#00912:0000130000000013
#0091b:0013000000000000
#0101b:00130013
#01012:0000001300001300
#01018:0000000000000013
#01016:1313
#01017:0013000000000000
#01115:1300001300000000
#01118:0013000000001300
#0111b:00130000
#01112:00001300000000000013000000000000
#01110:41
#02715:0000000013000013
#0271b:0000000000000013
#0521c:0012
#05212:12
#05314:12
#0531a:0012
#02214:0013000000130000
#02219:0000001300000013
#02216:13
#02318:0000000013000013
#02315:00000013
#02619:0013000000130000
#02614:0000001300000013
#0261b:13
#0161b:00130000
#01618:1300001300000000
#01612:13
#01615:00000013000000000000130000000000
#01712:00130000
#0171b:13
#01718:00000013000000000000130000000000
#01715:0000001300000000
#01818:00130000
#01815:13
#01812:00000013000000000000130000000000
#0181b:0000001300000000
#01915:0000000013000013
#01918:13000013
#01518:23132300
#01512:00231300
#01515:0013001300000000
#0151b:0013001300000000
#02112:13131300
#02115:0016001600130000
#0211b:13131300
#02118:0000000000130000
#02110:41
#02512:0013001300130000
#02515:16161300
#0251b:0013001300130000
#02518:0013
#0001a:1200000000120000
#00018:0012000000000000
#00013:00120000
#00019:0000001200000000
#00015:00000012
#0001b:0000000000000012
#00014:1212
#0011a:1212
#00114:1200000000120000
#00116:0012000000000000
#0011b:00120000
#00115:0000001200000000
#00119:00000012
#00113:0000000000000012
#0021c:12
#00212:12
#00218:0012000000000000
#00215:00120000
#00219:0000001200000000
#00214:0012
#0021a:0000000000120000
#00213:00000012
#0021b:0000000000000012
#00312:12
#0031c:12
#00313:0012000000000000
#00314:0000001200000000
#0031b:00120013
#0031a:0012
#00315:0000000000120013
#02815:0013001300000000
#0281b:0013001300000000
#02812:1300130000000013
#02818:1300130000000013
#03516:0000000000000013
#0351b:1300000013000013
#03512:1313
#03515:0016131600160000
#03518:00000013
#03616:0013001300000000
#0361b:0013001300000000
#03612:1300130000000013
#03617:1300130000000013
#03717:0013001300000000
#03712:0013001300000000
#0371b:13130000
#03716:13130000
#03916:0000000000000014
#0391b:1300000000130013
#03914:0013000013000000
#03912:1300000000130000
#03919:0013000013000000
#03915:0000161600000000
#04016:1414141400000014
#0401b:0013001300000000
#04012:1300130000000013
#04116:1414141400000000
#04112:0013001300000000
#0411b:13130000
#04110:41
#03412:24130000
#03418:0000001300000013
#03415:0000000016131600
#0341b:00130000
#0341a:24
#00512:13
#00514:0013000000000000
#00519:0013000000000000
#0051b:0000130000000013
#00518:0000001300000000
#00513:0000001300000000
#00517:13
#00516:0000130000000013
#04218:12141600
#04214:00140000
#04216:12
#0421b:0013000000000000
#04212:0013001516000000
#04213:00000000000000000000000000000000000000000000000000000000000000000000000000000000000000000000000000000000000000000000001600000016
#04215:0000000000000000000000000000000000000000000000000000000026161616
#04217:00000000000000000000000000000000000000000000000000000000000000000000000000000000000000000000000000000000000000000016000000160000
#04219:0000001500000000
#03114:0013000013000000
#03112:0000131300000000
#03119:0013000013000000
#0311b:0000131300000000
#03115:1600000000160000
#0201b:23131300
#02015:00131300
#02018:0000001300130000
#02012:2300001300130000
#0201f:21
#02412:23131300
#02418:00131300
#02415:0000001300130000
#0241b:2300001300130000
#0441b:00130000
#0441a:2400001300000000
#04419:0013
#04413:00000013
#04414:0000000000000013
#04412:24
#04513:0000000000130000
#04514:00000013
#04515:0000000000000013
#0451a:0013000000000000
#04519:00130000
#04518:0000001300000000
#0071b:13
#00712:1313000000000013
#00716:00000013
#03312:1313
#0331b:1313
#03315:0013160000001613
#03318:0000001300130000
#03310:41
#04313:00000016000000160000000000000000000000000000000000000000000000000000000000000000000000000000000000000000000000000000000000000000
#04315:1616161600000000260000000000000023000000000000000000000000000000
#04317:00160000001600000000000000000000000000000000000000000000000000000000000000000000000000000000000000000000000000000000000000000000
#04312:0000000000130000
#0431b:0000000000130000
#04316:0000002400000000
#04318:0023
#0121b:00130000
#01218:1300001300000000
#01215:13
#01212:0000000000130000
#0121f:11
#01312:00130000
#01318:13
#0131b:0000000000130000
#01315:0000001300000000
#01418:00130000
#01415:0000000000130000
#01412:13
#0141b:0000001300000000
#02918:0013001300000000
#02912:0013001300000000
#0291b:13130000
#02915:13130000
#04818:0000130000000013
#0481b:0000001300000000
#04812:0000000000130000
#04817:23
#04915:0013000000000000
#04912:0000000000130000
#04918:0000000000000013
#0491b:0000001300000000
#04910:41
#05015:0000130000000013
#05012:0000001300000000
#0501b:2300000000130000
#05118:0013000000000000
#0511b:0000000000130000
#05115:0000000000000013
#05112:0000001300000000
#0301b:1313
#03012:00130000
#03016:1313
#03014:0013001300000000
#03017:00130000
#03019:0013001300000000
#03015:0000000000000016
#04612:00130000
#04613:0000001300000000
#04614:0013
#0461a:00000013
#04619:0000000000000013
#04616:23
#0471a:0000000000130000
#04719:00000013
#04718:0000000000000013
#04713:0013000000000000
#04714:00130000
#04715:0000001300000000
#0381b:0000130000000013
#03812:1300000013000013
#03817:1313
#03819:0013001300000000
#03816:00130000
#03814:0013001300000000
#00618:13
#0061a:0013000000000000
#00615:0013000000000000
#00612:00130000
#00614:0000001300000000
#00619:0000001300000000
#00613:13
#00617:00130000
#0061b:0013
#00616:0013
#03214:28280000
#0215b:00006343
#02152:00005333
#02158:0000000000230000
#02155:0000000000230000
#02358:0013
#01658:1300002300000000
#01652:53
#01655:00000023000000000000630000000000
#0165b:0000000000430000
#01752:1300000000330000
#01758:00000023000000000000530000000000
#0175b:63
#01755:0000002300000000
#0185b:1300002300000000
#01852:00000023000000000000530000000000
#01855:63
#01858:0000000000330000
#01958:53
#01955:13
#02555:00006343
#02552:0000000000230000
#02558:00005333
#0255b:0000000000230000
#02852:0000000000130000
#02855:0000006300000000
#0285b:0000006300000000
#02858:0000000000130000
#03657:0000000000130000
#0365b:0000006300000000
#03652:0000000000330000
#03656:0000002300000000
#03756:0000000000130000
#03752:0000005300000000
#0375b:0000000000430000
#03757:0000002300000000
#04056:0000006400000000
#04052:0000000000140000
#0405b:0000002300000000
#04057:0000000000330000
#04156:0000005400430000
#0415a:0000000000140000
#04152:0000002300000000
#01558:00130000
#01552:1313
#01158:0053000000000000
#01155:0000006300000000
#0115b:00230000
#01152:00000000000000000023000000000000
#00955:0063000000000000
#00958:0000005300000000
#00952:00230000
#04258:1216
#04254:00140000
#04255:0000000000000000000000000000000000000000000000000000000056565656
#04253:00000000000000000000000000000000000000000000000000000000000000000000000000000000000000000000000000000000000000000000002600000026
#04257:00000000000000000000000000000000000000000000000000000000000000000000000000000000000000000000000000000000000000000026000000260000
#0205b:00006343
#02058:0000000000230000
#02055:00006343
#02052:0000000000230000
#02452:00005333
#02455:0000000000230000
#02458:00005333
#0245b:0000000000230000
#00758:0000001300000000
#00755:0000001300000000
#00752:0053000000000000
#0075b:63
#04353:00000026000000260000000000000000000000000000000000000000000000000000000000000000000000000000000000000000000000000000000000000000
#04355:5656565600000000000000000000000063000000000000000000000000000000
#04357:00260000002600000000000000000000000000000000000000000000000000000000000000000000000000000000000000000000000000000000000000000000
#04352:0000000000230000
#0435b:0000000000230000
#04358:0053
#0085a:0000001400000000
#00854:0014
#00452:0014
#00458:0000000000140000
#03254:18
#01258:1300005300000000
#01255:63
#01252:0000000000530000
#0125b:0000000000130000
#01358:53
#01352:0000000000130000
#01355:1300006300000000
#0135b:0000000000630000
#01455:0000000000630000
#01452:53
#01458:1300000000130000
#0145b:0000006300000000
#02958:0000005300000000
#02952:0000005300000000
#0295b:0000000000130000
#02955:0000000000130000
#0305b:1313
#03052:00130000
#03852:1313
#0385b:00130000
#02755:0013
#0073b0:13
#007380:0000002300000000
#007321:0013000000000000
#007351:0000002300000000
#0073b1:00000013
#008381:23
#008350:13
#008320:00230000
#009350:0013002300000000
#009320:00530000
#009381:0000001300000000
#0093b1:0000000000230000
#009371:0000000000000013
#0103b1:23
#010321:0013000000000000
#010361:00230000
#010371:0000001300000000
#0103b1:0023
#011381:0013002300000000
#0113b1:00530000
#011350:0000001300002300
#011320:00000000000000000053000000000000
#012350:13
#012320:0000002300000000
#012381:0000001300000000
#0123b1:0000000000230000
#012320:0000000000130000
#013350:23
#013381:13
#0133b1:0000002300000000
#013350:0000001300000000
#013320:0000000000230000
#0133b1:0000000000130000
#014381:23
#014320:13
#014350:0000002300000000
#0143b1:0000001300000000
#014381:0000000000230000
#014350:0000000000130000
#015320:23
#016320:1300002300000000
#016350:00000053000000000000000000000000
#016381:0000001300000000
#0163b1:0000000000230000
#016350:0000000000130000
#017320:23
#0173b1:1300002300000000
#017381:00000053000000000000000000000000
#017350:0000001300000000
#017320:0000000000230000
#017381:0000000000130000
#0183b1:23
#018350:1300002300000000
#018320:00000053000000000000000000000000
#0183b1:0000001300000000
#018381:0000000000230000
#018320:0000000000130000
#019350:23
#019381:13
#0193b1:0023
#0203b1:00001323
#020381:0000000000530000
#020350:00001323
#020320:0000000000530000
#021320:00001323
#021350:0000000000530000
#0213b1:00001323
#021381:0000000000530000
#0223b1:13
#022371:00230000
#022320:00130000
#022360:0023
#0223b1:0013
#022371:00000023
#022320:00000013
#023360:23
#0233b1:13
#023381:0023000000000000
#023350:0013000000000000
#023320:00230000
#023381:00130000
#0233b1:0000002300000000
#023320:0000001300000000
#023350:0023
#024320:00001323
#024350:0000000000530000
#024381:00001323
#0243b1:0000000000530000
#025351:00001323
#025321:0000000000530000
#025380:00001323
#0253b0:0000000000530000
#026360:13
#026320:00230000
#026371:00130000
#0263b1:0023
#026360:0013
#026320:00000023
#026371:00000013
#0273b1:23
#027320:13
#027350:0023000000000000
#027381:0013000000000000
#0273b1:00230000
#027350:00130000
#027320:0000002300000000
#0273b1:0000001300000000
#027381:0023
#028351:0000001300000000
#028321:0000000000230000
#0283b0:0000001300000000
#028380:0000000000230000
#029380:0000001300000000
#0293b0:0000000000230000
#029321:0000001300000000
#029351:0000000000230000
#032341:00000000000000000000000000000000180000000000000000000000000000000055005500550055000000000000000000000000000000000000000000000000
#032321:00000000000000000000000000000000005700570057005700000000000000000000000000000000000000000000000000000000000000000000000000000000
#032371:0000000000000000005757575756565656555555555454540000000000000000
#032331:00000000000000000000000000000000000000000000000000560056005600560000000000000000000000000000000000000000000000000000000000000000
#032351:00000000000000000000000000000000000000000000000000000000000000000000000000000000005400540054005400000000000000000000000000000000
#032361:00000024
#036361:0000001300000000
#036321:0000000000230000
#0363b0:0000001300000000
#036370:0000000000230000
#037370:0000001300000000
#0373b0:0000000000230000
#037321:0000001300000000
#037361:0000000000230000
#040361:0000001400000000
#040321:0000000000240000
#0403b0:0000001300000000
#040370:0000000000230000
#041360:0000001400000000
#0413a0:0000000000240000
#041321:0000001300000000
#041361:0000000000230000
#042351:0000000000000000000000000000000000000000000000000000000016565656
#042371:00000000000000000000000000000000000000000000000000000000000000000000000000000000000000000000000000000000000000000056000000560000
#042331:00000000000000000000000000000000000000000000000000000000000000000000000000000000000000000000000000000000000000000000005600000056
#043351:5656565626000000000000000000000000000000000000000000000000000000
#043371:00560000005600000000000000000000000000000000000000000000000000000000000000000000000000000000000000000000000000000000000000000000
#043331:00000056000000560000000000000000000000000000000000000000000000000000000000000000000000000000000000000000000000000000000000000000
#043351:00001323
#043321:0000000000530000
#043380:00001323
#0433b0:0000000000530000
#044350:00130000
#044320:0000000000230000
#044381:0000000000130000
#0453b1:23
#045350:13
#045320:0023
#045371:0013
#0463b1:23
#046381:00130000
#0463b1:0000000000230000
#046350:0000000000130000
#047320:23
#047381:13
#0473b1:0023
#047360:0013
#048320:23
#048320:00130000
#048350:0023
#048381:0013
#0483b1:00000023
#048350:00000013
#049320:23
#0493b1:13
#049381:00230000
#049320:00130000
#049350:0023
#049381:0013
#0493b1:00000023
#049350:00000013
#050320:23
#0503b0:00130000
#050380:0023
#050351:0013
#050321:00000023
#050380:00000013
#0513b0:23
#051321:13
#051351:00230000
#0513b0:00130000
#051380:0023
#051351:0013
#051321:00000023
#051380:00000013
#0523b0:23
#052320:0012000000220000
#0523c1:0000000000120000
#0533c1:0022000000000000
#053340:0012000000220000
#0533a1:0000000000120000
#0543a1:22
#054360:12
#056360:22
