This file was generated by Ched 2.7.0.0.
#TITLE ""
#ARTIST ""
#DESIGNER ""
#DIFFICULTY 0
#PLAYLEVEL
#SONGID ""
#WAVE ""
#WAVEOFFSET 0
#JACKET ""
#REQUEST "ticks_per_beat 480"
#00002: 4
#BPM01: 140
#00008: 01
#TIL00: ""
#HISPEED 00
#MEASUREHS 00
#0041b:2300130000000013
#00414:0000000000140000
#00418:0014
#00412:23130000
#00410:41
#00818:0000000013000013
#00812:00000013
#0081b:00130000
#00815:0000001300000000
#00915:1300000000000013
#0091b:0013000000000000
#00918:0000001300000000
#0521c:1212000000000000
#05212:0000000012120000
#02215:0013001300000000
#02212:0000000000130013
#0221b:13130000
#02218:00001313
#01612:00130000
#01615:13
#0161b:13
#01218:1300001300000000
#01215:00130000
#01212:1300000000130000
#0121f:11
#0191b:00000013
#01915:1300000000000013
#02112:1313
#0211b:0000001300000000
#02118:0013000000000000
#02115:00130000
#02110:41
#0001a:1212000000000000
#00016:0000121200000000
#00019:0000000012120000
#00015:0000000000001212
#00318:00001213
#00315:0000000000000013
#0031a:12120000
#00316:0012001200000000
#00314:0000000000120000
#0441b:23130000
#04415:2300001300000000
#0441a:0013
#04414:0000000000130000
#04419:00000013
#04413:0000000000000013
#04512:0013000000000000
#04519:00130000
#04513:0000001300000000
#0451a:0013
#04514:0000000000130000
#0451b:00000013
#04515:0000000000000013
#04518:13
#0271b:0000000000000013
#02712:13
#0271a:0000001300000000
#02718:0013000000000000
#02714:00130000
#02716:0013
#0281b:0000001300000000
#02812:0000130000000013
#02818:0013000000000000
#02815:13
#0391a:0000000000000014
#03918:13130000
#03915:0013001300000000
#03912:0013
#0401a:0000001400000000
#04016:14140000
#04012:0014000000000014
#03415:00131313
#0341b:0000001300130013
#03412:24
#0341a:24
#03512:13130000
#03518:0013001300000000
#0351b:0000000000130013
#03515:00001313
#00515:13
#00513:00130000
#00512:0000000000000013
#00517:0000001300000000
#00519:0013000000000000
#00617:13
#00616:0000001300000000
#0061b:0013
#00619:00130000
#00614:0013000000000000
#01018:1313
#01015:0000001300000013
#0101b:00130013
#01012:0013000000000000
#0201b:00130000
#02015:0000001300000000
#02018:2313
#02012:23
#0201f:21
#03115:13130000
#03118:0013001300000000
#0311b:0013
#04314:00000016000000160000000000000000000000000000000000000000000000000000000000000000000000000000000000000000000000000000000000000000
#04315:1616161600000000000000000000000000000000130000000000000000000000
#04316:00160000001600000000000000000000000000000000000000000000000000000000000000000000000000000000000000000000000000000000000000000000
#04318:0000000000130000
#0431b:0023
#04312:0000252423000000
#0431a:0000002400000000
#04319:00250000
#04214:00000000000000000000000000000000000000000000000000000000000000000000000000000000000000000000000000000000000000000000001600000016
#04215:0000000000000000000000000000000000000000000000000000000026161616
#04216:00000000000000001400000000000000000000000000000014000000000000000000000000000000000000000000000000000000000000000016000000160000
#04212:13131300
#0421b:13131300
#00118:12120000
#00114:0012001200000000
#00116:0000000000120012
#0011a:00001212
#0071b:13
#00712:13
#0071a:0033000000000000
#00713:0033000000000000
#01118:13
#01112:0013000000000000
#01115:0000001300000000
#01110:41
#01315:1300001300000000
#01318:00130000
#0131b:1300000000130000
#0141b:1300001300000000
#01415:0000130000130000
#01412:13
#0171b:00130000
#01718:13
#01712:13
#01815:00130000
#01812:13
#0181b:13
#0231b:13
#02313:0000001300000000
#02315:0013000000000000
#02319:00130000
#02317:0013
#02312:00000013
#02318:00000013
#02618:0013001300000000
#0261b:0000000000130013
#02612:13130000
#02615:00001313
#0251b:1313
#02512:0000001300000000
#02515:0013000000000000
#02518:00130000
#02412:00130000
#02418:0000001300000000
#02415:2313
#0241b:23
#02912:0000001300000000
#0291b:00130000
#02915:0013000000000000
#02918:13
#03715:1300001300000000
#0371b:00130000
#03718:0013000000000000
#03612:0000130000000013
#03615:0013000000000000
#03618:1300001300000000
#04112:0000001400000000
#04116:14140000
#0411a:0014000000000000
#04110:41
#05314:0000000012120000
#0531a:1212000000000000
#04612:23130000
#04618:2300001300000000
#04613:0013
#04619:0000000000130000
#04614:00000013
#0461a:0000000000000013
#0471b:0013000000000000
#04714:00130000
#0471a:0000001300000000
#04713:0013
#04719:0000000000130000
#04712:00000013
#04718:0000000000000013
#04715:13
#04812:00130000
#04818:00001313
#04815:2300001300000013
#0481b:2300000000130000
#04915:0013000000130000
#04918:00130013
#0491b:0000001300000013
#04912:1313
#04910:41
#0501b:00130000
#05015:00001313
#05018:2300001300000013
#05012:2300000000130000
#05118:0013000000130000
#05115:00130013
#05112:0000001300000013
#0511b:1313
#03012:1300130013000013
#0301b:13131300
#03018:0013000000000000
#03015:0000001300000000
#0381b:1300130013000013
#03812:13131300
#03815:0013000000000000
#03818:0000001300000000
#0331b:13130000
#03315:0013001300000000
#03312:0000000000130013
#03318:00001313
#03310:41
#01514:14
#01519:00140000
#01512:0014
#01518:0024
#0151a:24
#01513:00240000
#00218:1212000000000000
#00214:0000121200000000
#00219:0000000012120000
#00215:0000000000001212
#03214:28280000
#01252:0000000000130000
#02152:0053
#02155:00000013
#0285b:0000006300000000
#02858:0000000000130000
#0405a:0000006400000000
#04056:0000000000140000
#0095b:0063000000000000
#00958:0000005300000000
#04354:00000026000000260000000000000000000000000000000000000000000000000000000000000000000000000000000000000000000000000000000000000000
#04355:5656565600000000000000000000000000000000230000000000000000000000
#04356:00260000002600000000000000000000000000000000000000000000000000000000000000000000000000000000000000000000000000000000000000000000
#04358:0000000000230000
#0435b:0063
#04352:0053
#04254:00000000000000000000000000000000000000000000000000000000000000000000000000000000000000000000000000000000000000000000002600000026
#04255:0000000000000000000000000000000000000000000000000000000056565656
#04256:00000000000000000000000000000000000000000000000000000000000000000000000000000000000000000000000000000000000000000026000000260000
#01658:0000000000130000
#0075b:63
#00752:53
#00755:0000001300000000
#00758:0000001300000000
#01152:0053000000000000
#01155:0000006300000000
#0135b:0000000000130000
#01455:0000000000130000
#01755:0000000000130000
#0185b:0000000000130000
#01955:63
#02058:0053
#0205b:00000013
#0255b:0063
#02558:00000013
#02455:0063
#02452:00000013
#03254:18680000
#02952:0000005300000000
#02955:0000000000130000
#03755:0000006300000000
#03752:0000000000130000
#03658:0000005300000000
#0365b:0000000000130000
#04152:0000005400000000
#04156:0000000000140000
#02357:0013
#02756:0013
#0073b0:13
#0073a0:0033000000000000
#007380:0000002300000000
#007321:13
#007331:0033000000000000
#007351:0000002300000000
#0073b1:00000013
#008381:23
#007350:00000013
#008320:23
#0093b0:0013000000230000
#009380:0000003300000000
#011320:0013000000002300
#011350:0000003300000000
#016380:0000001300230000
#017350:0000001300230000
#0183b0:0000001300230000
#019350:13
#019320:0023
#020380:0013
#0203b0:00000023
#021320:0013
#021350:00000023
#024350:0013
#024320:00000023
#0253b0:0013
#025380:00000023
#0283b0:0000001300000000
#028380:0000000000230000
#029320:0000001300000000
#029350:0000000000230000
#032340:00180000
#032370:00000022
#036380:0000001300000000
#0363b0:0000000000230000
#037350:0000001300000000
#037320:0000000000230000
#0403a0:0000001400000000
#040360:0000000000240000
#041320:0000001400000000
#041360:0000000000240000
#042350:0000000000000000000000000000000000000000000000000000000016565656
#042360:00000000000000000000000000000000000000000000000000000000000000000000000000000000000000000000000000000000000000000056000000560000
#042340:00000000000000000000000000000000000000000000000000000000000000000000000000000000000000000000000000000000000000000000005600000056
#043350:5656565626000000000000000000000000000000000000000000000000000000
#043360:00560000005600000000000000000000000000000000000000000000000000000000000000000000000000000000000000000000000000000000000000000000
#043340:00000056000000560000000000000000000000000000000000000000000000000000000000000000000000000000000000000000000000000000000000000000
#0433b0:00001323
#043380:0000000000530000
#043321:00001323
#043351:0000000000530000
#054381:12
#056381:22
