This file was generated by Ched 2.7.0.0.
#TITLE ""
#ARTIST ""
#DESIGNER ""
#DIFFICULTY 0
#PLAYLEVEL
#SONGID ""
#WAVE ""
#WAVEOFFSET 0
#JACKET ""
#REQUEST "ticks_per_beat 480"
#00002: 4
#BPM01: 140
#00008: 01
#TIL00: ""
#HISPEED 00
#MEASUREHS 00
#00512:1300000000000013
#0051b:00130000
#00516:0000001300000000
#00417:0000000000000013
#00412:0000000000130000
#0041b:0013
#00414:0013000000000000
#00416:2300000000130000
#00419:0000001300000000
#00410:41
#00816:0000001300001300
#00817:0000000013000013
#00812:00131313
#00814:0013000000000000
#0081b:0000001300000013
#00916:13
#0091b:0013130000000013
#00912:1313
#00917:0000000000130000
#02712:0000000013000013
#02717:0000001313000013
#0271b:0013000000000000
#05212:12
#0521c:12
#02214:0013000000000000
#02218:0000001300000000
#02213:0000000000130000
#02217:0000000000000013
#0231b:0000000013000013
#02312:0013000000001300
#02316:0000001313001300
#02317:0000000000000013
#01212:13000000001300000013000000001300
#01215:0013130013000000
#0121b:13000000000000130000000000000000
#01218:00130000000013000000130000000000
#01216:00000013
#0121f:11
#01512:0013130000000000
#0151b:0000001313000000
#01518:0013000000000000
#01515:2600261326000000
#01917:00131313
#01912:1300000000000013
#01919:0013001300000000
#0191b:00130013
#01916:0000000000000013
#00214:0012000000000000
#00215:00120000
#00212:0000001200000000
#0021a:0000000000120000
#00219:00000012
#0021c:0000000000000012
#00217:1212
#00318:0000000000000013
#00314:00120000
#00312:12
#00315:0012000000000000
#00317:0000001200000000
#00319:0000000000120000
#0031a:00000013
#0031c:0012
#02816:1300000000000013
#02814:0013000000000000
#02812:00130000
#0281b:0000001300000013
#02819:0013
#02817:0000000000130000
#02818:00000016
#03416:00130000
#03418:0000000000130000
#03417:00000013
#0341b:0000000013000013
#03412:2400001313000000
#03415:0000000000130000
#0341a:24
#03512:13001313
#0351b:13131300
#03518:0013000000130000
#03517:0000001300000000
#03515:0013000000130000
#03516:0000000000000013
#00615:13
#0061b:00131300
#00618:0000001300000000
#00612:0013000000002500
#01016:0000000013000013
#0101b:0013001300001300
#01017:00130013
#01018:13
#01012:0000000000000013
#02012:00131313
#02016:0000130000130000
#02017:2300001300000000
#0201b:2300001300000000
#0201f:21
#03315:1313
#03318:1313
#03316:0000000000000013
#0331b:0013000000130000
#03317:0000001300000000
#03312:0013000000130000
#03319:00130000
#03314:00000013
#03310:41
#04312:00000013000000130000000000000000000000000000000000000000000000000000000000000000130000000000000000000000000000000000000000000000
#04314:1313131300000000000000000000000000000000000000000000000000000000
#04316:00130000001300000000000000000000000000000000000022000000000000000000000000000000000000000000000000000000000000000000000000000000
#0431b:00130000001300000000000000000000000000000000000000000000000000000000000000000000130000000000000000000000000000000000000000000000
#04317:00000013000000130000000000000000000000000000000000000000000000000000000000000000000000000000000000000000000000000000000000000000
#04319:1313131300000000000000000000000000000000000000000000000000000000
#04315:00232300
#04318:0000232223000000
#04212:12000000000000000000000000000000000000000000000000000000000000000000000000000000000000000000000000000000000000000000001300000013
#04214:0000000000000000000000000000000000000000000000000000000023131313
#04216:00000000000000000000000000000000000000000000000000000000000000000000000000000000000000000000000000000000000000000013000000130000
#0421a:00000014
#04217:00000000000000000000000000000000000000000000000000000000000000000000000000000000000000000000000000000000000000000000001300000013
#04219:0000000000000000000000000000000000000000000000000000000023131313
#0421b:00000000000000000000000000000000000000000000000000000000000000000000000000000000000000000000000000000000000000000013000000130000
#00017:1212
#00014:0012001200000000
#00012:00120000
#0001a:0000000000120012
#0001c:00000012
#00117:00120012
#00112:12
#00115:0012000000000000
#00114:0000001200000000
#00119:0000000000120000
#0011c:0012
#0011a:0000000000000012
#0071a:00130000000000000000000000000000
#00719:0000000000000013
#00717:23000013
#00714:23
#00715:00230000
#0071b:00230000
#01318:0013130013000000
#01312:13000000000000130000000000000000
#01315:00130000000013000000130000000000
#0131b:00000000001300000013000000001300
#01317:00000013
#01415:0013000000000000
#0141b:00130000000013000000000000000000
#01417:00000000000000130000000000000000
#01418:1300000000130000
#01412:0000130013000013
#01416:00000000001300000013000013000000
#01612:1313000000001300
#0161b:13130000
#01617:00131300
#01616:0000001300130000
#01615:0000000000000013
#0171b:0013000000001300
#01712:13130000
#01716:00131300
#01717:0000001300130000
#01718:0000000000000013
#01812:0013130013000013
#0181b:1300131300130000
#01814:00000013
#02115:13
#02112:0013001300130000
#02116:00130013
#02117:0013
#02110:41
#0241b:00131313
#02417:0000130000130000
#02416:2300001300000000
#02412:2300001300000000
#02518:13
#0251b:0013001300130000
#02517:00130013
#02516:0013
#02619:0013000000000000
#02615:0000001300000000
#0261a:0000000000130000
#02616:0000000000000013
#02912:0000001300001600
#02917:13
#02919:0013000000000000
#0291b:00130000
#02914:0013
#02916:0000000000130000
#03012:12
#03016:0000000000001414
#03612:13130013
#03617:0013000000130000
#03616:0000001300000013
#0361b:1300000013000013
#0371b:13130013
#03716:0013000000130000
#03717:0000001300000013
#03712:1300000013000013
#0381c:12
#03816:0000000000001414
#03912:0000000000120013
#0391b:00000013
#03916:00000013
#03917:0000000000000013
#04012:13140014
#04017:0014000000140000
#04015:0000001400000000
#0401a:0014
#0401b:1300000000000013
#04016:0000000000000013
#0411b:13
#04115:0014000000140000
#0411a:00140014
#04117:0000001400000013
#04112:1300000014000013
#04110:41
#04415:00131313
#04412:0000001300160013
#04418:2513
#04413:25
#04515:1300001313000013
#04518:1313
#04512:0016130000161300
#0311c:0000000000120000
#04812:0000161300160000
#04815:2313
#0481b:0000000000000013
#04818:23001316
#04918:1316000013001600
#04915:1313
#04912:0000161300160000
#0491b:0000000000000013
#04910:41
#04618:2400130013161300
#04615:0013
#0461b:0000001300000013
#04614:24
#04718:1316001313160013
#04715:1313
#0471b:00130013
#05018:2200001613000000
#05015:0013
#0501b:00130000
#05012:0000000000161316
#05016:22
#05118:1316001613000000
#05115:1313
#0511b:00130000
#05112:0000000000161316
#01117:1300000000130000
#01112:0013130000000000
#0111b:13001313
#01110:41
#03212:2c
#03217:00220000
#01252:13000000002300000023000000000000
#01258:00230000000053000000530000000000
#0125b:63000000000000230000000000000000
#01255:0000630063430000
#01552:00130000
#0155b:1313
#00452:0000000000130000
#0045b:0013
#04352:00000023000000230000000000000000000000000000000000000000000000000000000000000000230000000000000000000000000000000000000000000000
#04354:5353535300000000000000000000000000000000000000000000000000000000
#04356:00230000002300000000000000000000000000000000000000000000000000000000000000000000000000000000000000000000000000000000000000000000
#0435b:00230000002300000000000000000000000000000000000000000000000000000000000000000000230000000000000000000000000000000000000000000000
#04355:0053
#04357:00000023000000230000000000000000000000000000000000000000000000000000000000000000000000000000000000000000000000000000000000000000
#04359:5353535300000000000000000000000000000000000000000000000000000000
#04358:0063
#04252:32000000000000000000000000000000320000000000000000000000000000003300000000000000000000000000000000000000000000000000002300000023
#04254:0000000000000000000000000000000000000000000000000000000053535353
#04256:00000000000000000000000000000000000000000000000000000000000000000000000000000000000000000000000000000000000000000023000000230000
#04257:00000000000000000000000000000000000000000000000000000000000000000000000000000000000000000000000000000000000000000000002300000023
#04259:0000000000000000000000000000000000000000000000000000000053535353
#0425b:00000000000000000000000000000000000000000000000043000000000000000000000000000000000000000000000000000000000000000023000000230000
#0425c:0042000000000000
#0425a:0000000000440000
#03252:1c
#02852:0000000000130000
#02858:00000046
#0075a:00230000000000000000000000000000
#00757:53
#00755:0000001300000000
#0075b:0000001300000000
#00856:0000001300000000
#00857:0013
#01352:53000000000000230000000000000000
#01355:00230000000063000000630000000000
#01358:0000530053330000
#0135b:13000000002300000023000000000000
#0145b:00230000000063000000000000000000
#01457:00000000000000230000000000000000
#01458:5300000000530000
#01452:1300530053330000
#01456:00000000002300000023000000000000
#01652:1300000000130000
#0165b:63
#01657:00636300
#01656:0000005300530000
#0175b:1300000000130000
#01752:53
#01756:00535300
#01757:0000006300630000
#01852:13535300
#0185b:6300006300630000
#01857:0000000000130000
#01956:13
#01957:00230000
#01952:53
#0215b:00000043
#02156:00000043
#02557:00000033
#02552:00000033
#02952:00000036
#0295b:0000000000130000
#03657:0000000000330000
#03652:00000033
#03756:0000000000430000
#0375b:00000043
#04057:0000000000340000
#04052:00000034
#04155:0000000000440000
#0415a:00000044
#02356:0043
#0235b:0043
#02752:0033
#02757:0033
#03052:32323300
#0385c:42420000
#0385b:0043
#0245b:00000043
#02457:00000043
#02056:00000033
#02052:00000033
#0003c0:12
#000370:0000002200000000
#000320:0012
#000370:0000000000000022
#001370:12
#0013c0:0000002200000000
#001370:0012
#001320:0000000000000022
#0023c0:12
#002370:0000002200000000
#002320:0012
#002370:0000000000000022
#003370:12
#0033c0:0000002200000000
#003370:0012
#003320:0000000000000022
#0043b0:13
#004360:00230000
#004321:00130000
#004371:0023
#0043b1:0000000000000013
#005361:53
#0053b1:0023000000000000
#005320:0013002300000000
#005370:00530000
#005360:0000000000000013
#0063b0:53
#006360:0023000000000000
#006370:00132300
#006320:0000005300000000
#006320:000000000000000000000000000000000000000000000000000000000000000000000000155500000055250000000000
#006330:0000000000000000000000000000000000000000000000000000000000000000000000000000000000000000000000000000000000000000000000000000000000000000000000000000000000000000000000000000000000000000000000000000000000000000000000000000000000000000000000000000000000000000000000000000000000000000000000000000000000000000000000000000000000000000000000000000000000000000000000000000000000000000000000000000000000000000000000000000000000000000000000000000000000000000000000000000000000000000000000000000000000000053000000000000000000000000000000000000000000000000005300000000000000000000000000000000000000000000000000000000000000000000000000000000000000000000
#007340:1323000000000000
#007371:1323000000000000
#0073a1:00530000000000000000000000000000
#0073b1:0000132300000000
#007381:00000000005300000000000000000000
#007350:0000132300000000
#007320:00000013
#008370:23
#0083b1:13
#008371:00230000
#009371:0013000000000000
#009321:0000532300000000
#009360:0000001300000000
#0093b0:0000000053230000
#009350:0000000000000013
#010320:23
#010360:0013000000000000
#010320:00230000
#010370:0000001300000000
#010320:0023
#011360:0013000000000000
#0113b0:0000532300000000
#011371:0000001300002300
#011321:0000000053530000
#0123b1:1323000000000000
#012381:00530000000000000000000000000000
#012351:0000132300000000
#012321:00000000005300000000000000000000
#012380:0000001323000000
#0123b0:00000000000000530000000000000000
#012351:0000000013230000
#012321:00000000000000000053000000000000
#012380:0000000000130000
#0133b0:23
#013321:1323000000000000
#013351:00530000000000000000000000000000
#013381:0000132300000000
#0133b1:00000000005300000000000000000000
#013350:0000001323000000
#013320:00000000000000530000000000000000
#013381:0000000013230000
#0133b1:00000000000000000053000000000000
#013350:0000000000130000
#014320:23
#014381:1323000000000000
#0143b1:00530000000000000000000000000000
#014321:0000132300000000
#014361:00000000005300000000000000000000
#0143b0:0000001323000000
#014370:00000000000000530000000000000000
#014321:0000000013230000
#014361:00000000000000000053000000000000
#014380:0000000000130000
#0153b0:23
#0163b0:13
#016360:0023000000000000
#016370:00130000
#016320:0000002300000000
#016361:0000001300000000
#0163b1:0023
#016370:0013
#016320:0000000000230000
#016361:0000000000130000
#0173b1:23
#017320:13
#017370:0023000000000000
#017360:00130000
#0173b0:0000002300000000
#017371:0000001300000000
#017321:0023
#017360:0013
#0173b0:0000000000230000
#017371:0000000000130000
#018321:23
#0183b0:13
#018360:0023000000000000
#018320:00130000
#018370:0000002300000000
#0183b1:0000001300000000
#018361:0023
#018320:0013
#018370:0000000000230000
#0183b1:0000000000130000
#019361:23
#019320:1323
#019370:00530000
#020360:00001323
#0203b0:0000000000530000
#0213b0:13
#021360:0023000000000000
#0213b0:00130000
#021360:0000002300000000
#0213b0:00001323
#021360:0000000000530000
#0223b0:13
#022380:0023000000000000
#022350:00130000
#022320:0000002300000000
#0223b0:0013
#022370:0000000000230000
#022360:00000013
#022320:0000000000000023
#0233b0:13
#023360:0023000000000000
#023370:00130000
#023320:0000002300000000
#024370:00001323
#024320:0000000000530000
#025320:13
#025370:0023000000000000
#025320:00130000
#025370:0000002300000000
#025320:00001323
#025370:0000000000530000
#026320:13
#026350:0023000000000000
#026380:00130000
#0263b0:0000002300000000
#026320:0013
#026360:0000000000230000
#026370:00000013
#0263b0:0000000000000023
#027320:13
#027370:0023000000000000
#027360:00130000
#0273b0:0000002300000000
#0283b0:13
#028360:00230000
#028370:0000001300000000
#028320:0000000000230000
#029320:13
#029370:00230000
#029360:0000001300000000
#0293b0:0000000000230000
#030370:12
#0303c0:0022000000000000
#030371:0012000000000000
#030321:00220000
#030360:00130000
#0303b0:0000002300000000
#030371:0000001300000000
#030321:0023
#030360:0014
#0303a0:0000000000240000
#030361:0000000000140000
#030321:00000024
#0303a1:0000000000000014
#031361:24
#031320:14
#031360:0024000000000000
#0313b1:0013000000000000
#031361:00230000
#031320:00130000
#031370:0000002300000000
#0313c1:0000001200000000
#031371:0022
#031320:0012
#031370:0000000000220000
#032370:000000000000000000000000000000000000000000000000000000000000000000000000000000000000000000000000000000000000000000000000000000000000000000000000000000000000000000000000000000000000000000000000000000000000000000000000000000000000000000000000000000000000000000000000000000000000000000000000000000000000000000000000000000000000000000000000000000000000000000000000000000000000000000000000000000000000000000000000000000000000000000000000000000000000000000000000000000000000000000000000000000000000000000000000000000000000000000000000000000000000000000000000000000000000000000000000000000000000000000000000000000000000000000000000000000000000000000000000000000000000000000000000000000000000000000000000000000000000000000000000000000000000000000000000000000000000000000000000000000000000000000000000000000000000000000000000000000000000000000000000000000000000000000000000000000000000000000000000000000000000000000000000000000000000000000000000000000000000000000000000120000000000000000000000000000000000000000000000000000000000000000000000000000000000000000000000000000000000000000000000000000000000000000000000000000000000000000005200000000000000000000000000000000000000000000000000000000000000000000000000520000000000000000000000000000000000000000000000000000000000520000000000005200000000000000000000000000000000000000000000000000000000000000000000000000520000000000000000000000000000000000000000000000000000000000520000000000000000000000000000520000000000000000005200000000000000000000000000000000000000000000000000000000005200000000000000000000000000000000000000520000000000005200000000000000000000000000000000000000000000000000000000000000000000000000520000000000000000000000000000000000000000000000005200000000000000000000000000000000000000520000000000000000000000000000000000000000005200000000000000520000000000000000000000000000000000000000000000000000000000000000000000005200000000000000000000000000000000000000000000520000000000000000000000000000000000000000000000000000000000000000000000005200000000000000000000000000000000000000000000000000000000005200000000000000520000000000000000000000000000000000000000000000000000000000000000000000005200000000000000520000000000000000000000000000000000000000000000000000000000520000000000000000000000000000000000000000000000000000000000520000000000000000000000000000000000000000005200000000000000000000000000000000000000000000000000000000000000000000000000520000000000000000000000000000000000000000005200000000000000000000000000000000000000000000000000000000000000000000000000000000000000005200000000000000000000000000000000000000000000520000000000000000000000000000000000000000000000000000000000520000000000000000000000000000000000000000000000000000000000000000000000000000005200000000000000000000000000000000000000000000000000000000000000000000000000000000000000000000000000000000000000000000000000000000000000000000000000000000000000220000000000000000000000000000000000000000000000000000000000000000000000000000000000000000000000000000000000000000000000000000000000000000000000000000000000000000000000000000000000000000000000000000000000000000000000000000000000000000000000000000000000000000000000000000000000000000000000000000000000000000000000000000000000000000000000000000000000000000000000000000000000000000000000000000000000000000000000000000000000000000000000000000000000000000000000000000000000000000000000000000000000000000000000000000000000000000000000000000000000000000000000000000000000000000000000000000000000000000000000000000000000000000000000000000000000000000000000000000000000000000000000000000000000000000000000000000000000000000000000000000000000000000000000000000000000000000000000000000000000000000000000000000000000000000000000000000000000000000000000000000000000000000000000000000000000000000000000000000000000000000000000000000000000000000000000000000000000000000000000
#0323a0:000000000000000000000000000000000000000000000000000000000000000000000000000000000000000000000000000000000000000000000000000000000000000000000000000000000000000000000000000000000000000000000000000000000000000000000000000000000000000000000000000000000000000000000000000000000000000000000000000000000000000000000000000000000000000000000000000000000000000000000000000000000000000000000000000000000000000000000000000000000000000000000000000000000000000000000000000000000000000000000000000000000000000000000000000000000000000000000000000000000000000000000000000000000000000000000000000000000000000000000000000000000000000000000000000000000000000000000000000000000000000000000000000000000000000000000000000000000000000000000000000000000000000000000000000000000000000000000000000000000000000000000000000000000000000000000000000000000000000000000000000000000000000000000000000000000000000000000000000000000000000000000000000000000000000000000000000000000000000000000000000000000000000000000000000000000000000000000000000000000000520000000000000000000000000000000000000000000000000000000000000000000000000000000000000000000000000000000000000000000000000000000000000000000000000000000000000000000000000000000000000000000000000000000000000000000000000000000000000000000000000000000000000000000000000000000000000000000000000000000000000000000000000000000000000000000000000000000000000000000000000000000000000000000000000000000000000000000000000000000000000000000000000000000000000000000000000000000000000000000000520000000000000000000000000000000000000000000000000000000000000000000000000000000000000000000000000000000000000000000000000000000000000000000000000000000000000000000000000000000000000000000000000000000000000000000000000000000000000000000000000000000000000000000000000000000000000000000000000000000000000000000000000000000000000000000000000000000000000000000000000000000000000000000000000000000000000000000000000000000000000000000000000000000000000000000000000000000000000000000000000000000000000000000000000000000000000000000000000000000000000000000000000000000000000000000000000000000000000000000000000000000000005200000000000000000000000000000000000000000000000000000000000000000000000000000000000000000000000000000000000000000000000000000000000000000000000000000000000000000000000000000000000000000000000000000000000000000000000000000000000000000000000000000000000000000000000000000000000000000000000000000000000000000000000000000000000000000000000000000000000000000000000000000000000000000000000000000000000000000000000000000000000000000000000000000000000000000000000000000000000000000000000000000000000000000000000000000000000000000000000000000000000000000000000000000000000000000000000000000000000000000000000000000000000000000000000000000000000000000000000000000000000000000000000000000000000000000000000000000000000000000000000000000000000000000000000000000000000000000000000000000000000000000000000000000000000000000000000000000000000000000000000000000000000000000000000000000000000000000000000000000000000000000000000000000000000000000000000000000000000000000000000000000000000000000000000000000000000000000000000000000000000000000000000000000000000000000000000000000000000000000000000000000000000000000000000000000000000000000000000000000000000000000000000000000000000000000000000000000000000000000000000000000000000000000000000000000000000000000000000000000000000000000000000000000000000000000000000000000000000000000000000000000000000000000000000000000000000000000000000000000000000000000000000000000000000000000000000000000000000000000000000000000000000000000000000000000000000000000000000000000000000000000000000000000000000000000000000000000000000000000000000000000000000000000000000000000000000000000000000000000000000000000000000000000000000000000000000000000000000000000000000000000000000000000000000000000000000000000000
#032340:000000000000000000000000000000000000000000000000000000000000000000000000000000000000000000000000000000000000000000000000000000000000000000000000000000000000000000000000000000000000000000000000000000000000000000000000000000000000000000000000000000000000000000000000000000000000000000000000000000000000000000000000000000000000000000000000000000000000000000000000000000000000000000000000000000000000000000000000000000000000000000000000000000000000000000000000000000000000000000000000000000000000000000000000000000000000000000000000000000000000000000000000000000000000000000000000000000000000000000000000000000000000000000000000000000000000000000000000000000000000000000000000000000000000000000000000000000000000000000000000000000000000000000000000000000000000000000000000000000000000000000000000000000000000000000000000000000000000000000000000000000000000000000000000000000000000000000000000000000000000000000000000000000000000000000000000000000000000000000000000000000000000000000000000000000000000000000000000000000000000000000000000000000000000000000000000000000000000000000000000520000000000000000000000000000000000000000000000000000000000000000000000000000000000000000000000000000000000000000000000000000000000000000000000000000000000000000000000000000000000000000000000000000000000000000000000000000000000000000000000000000000000000000000000000000000000000000000000000000000000000000000000005200000000000000000000000000000000000000000000000000000000000000000000000000000000000000000000000000000000000000000000000000000000000000000000000000000000000000000000000000000000000000000000000000000000000000005200000000000000000000000000000000000000000000000000000000000000000000000000000000000000000000000000000000000000000000000000000000000000000000000000000000000000000000000000000000000000000000000000000000000000005200000000000000000000000000000000000000000000000000000000000000000000000000000000000000000000000000000000000000000000000000000000000000000000000000000000000000000000000000000000000000000000000000000000000000000000000000000000000000000000000000000000000000000000000000000000000000000000000000000000000000000000000000000000000000000000000000000000000000000000005200000000000000000000000000000000000000000000000000000000000000000000000000000000000000000000000000000000000000000000000000000000000000000000000000000000000000000000000000000000000000000000000000000000000000000000000000000000000000000000000000000000000000000000000000000000000000000000000000000000000000000000000000000000000000000000000000000000000000000000000000000000000000000000000000000000000000000000000000000000000000000000000000000000000000000000000000000000000000000000000000000000000000000000000000000000000000000000000000000000000000000000000000000000000000000000000000000000000000000000000000000000000000000000000000000000000000000000000000000000000000000000000000000000000000000000000000000000000000000000000000000000000000000000000000000000000000000000000000000000000000000000000000000000000000000000000000000000000000000000000000000000000000000000000000000000000000000000000000000000000000000000000000000000000000000000000000000000000000000000000000000000000000000000000000000000000000000000000000000000000000000000000000000000000000000000000000000000000000000000000000000000000000000000000000000000000000000000000000000000000000000000000000000000000000000000000000000000000000000000000000000000000000000000000000000000000000000000000000000000000000000000000000000000000000000000000000000000000000000000000000000000000000000000000000000000000000000000000000000000000000000000000000000000000000000000000000000000000000000000000000000000000000000000000000000000000000000000000000000000000000000000000000000000000000000000000000000000000000000000000000000000000000000000000000000000000000000000000000000000000000000000000000000000000000000000000000000000
#0323c0:0000000000000000000000000000000000000000000000000000000000000000000000000000000000520000000000000000000000000000000000000000000000000000000000000000000000000000000000000000000000000000000000000000000000000000000000000000000000000000000000000000000000000000
#032320:000000000000000000000000000000000000000000000000000000000000000000000000000000000000000000000000000000000000000000000000000000000000000000000000000000000000000000000000000000000000000000000000000000000000000000000000000000000000000000000000000000000000000000000000000000000000000000000000000000000000000000000000000000000000000000000000000000000000000000000000000000000000000000000000000000000000000000000000000000000000000000000000000000000000000000000000000000000000000000000000000000000000000000000000000000000000000000000000000000000000000000000000000000000000000000000000000000000000000000000000000000000000000000000000000000000000000000000000000052000000000000000000000000000000000000000000000000000000000000000000000000000000000000000000000000000000000000000000005200000000000000000000000000000000000000000000000000000000000000000000000000000000000000000000000000000000000000000000000000000000000000000000000000000000000000000000000000000000000000000000000000000000000000000000000000000000000000000000000000000000000000000000000000000000000000000000000000000000000000000000000000000000000000000000000000000000000000000000000000000000000000000000000000000000000000000000000000000000000000000000000000000000000000000000000000000000000000000000000000000000000000000000000000000000000000000000000000000000000000000000000000000000000000000000000000000000000000000000000000000000000000000000000000000000000000000000000000000000000000000000000000000000000000000000000000000000000000000000000000000000000000000000000000000000000000000000000000000000000000000000000000000000000000000000000000000000000000000000000000000000000000000000000000000000000000000000000000000000000000000000000000000000000000000000000000000000000000000000000000000000000000000000000000000000000000000000000000000000000000000000000000000000000000000000000000000000000000000000000000000000000000000000000000000000000000000000000000000000000000000000
#032350:000000000000000000000000000000000000000000000000000000000000000000000000000000000000000000000000000000000000000000000000000000000000000000000000000000000000000000000000000000000000000000000000000000000000000000000000000000000000000000000000000000000000000000000000000000000000000000000000000000000000000000000000000000000000000000000000000000000000000000000000000000000000000000000000000000000000000000000000000000000000000000000000000000000000000000000000000000000000000000000000000000000000000000000000000000000000000000000000000000000000000000000000000000000000000000000000000000000000000000000000000000000000000000000000000000000000000000000000000000000000000000000000000000000000000000000000000000000000000000000000000000000000000000000000000000000000000000000000000000000000000000000000000000000000000000000000000000000000000000000000000000000000000000000000000000000000000000000000000000000000000000000000000000000000000000000000000000000000000000000000000000000000000000000000000000000000000000000000000000000000000000000000000000000000000000000000000000000000000000000000000000000000000000000000000000000000000000000000000000000000000000000000000000000000000000000000000000000000000000000000000000000000000000000000000000000000000000000000000000000000000000000000000000000000000000000000000000000000000000000000000000000000000000000000000000000000000000000000000000000000000000000000000000000000000000000000000000000000000000000000000000000000000000000000000000000000000000000000000000000000000000000000000000000000000000000000000000000000000000000000000000000000000000000000000000000000000000000000000000000000000000000000000000000000000000000000000000000000000000000000000000000000000000000000000000000000000052000000000000000000000000000000000000000000000000000000000000000000000000000000000000000000000000000000000000000000000000000000000000000000000000000000000000000000000000000000000000000000000000000000000000000000000000000000000000000000000000000000000000000000000000000000000000000000000000000000000000000000000000000000000000000000000000000000000000000000000000000000000000000000000000000000000000000000000000000000000000000000000000000000000000000000000000000000000000000000000000000000000000000000000000000000000000000000000000520000000000000000000000000000000000000000000000000000000000000000000000000000000000000000000000000000000000000000000000000000000000000000000000000000000000000000005200000000000000000000000000000000000000000000000000000000000000000000000000000000000000000000000000000000000000000000000000000000000000520000000000000000000000000000000000000000000000000000000000000000000000000000000000000000000000000000000000005200000000000000000000000000000000000000000000000000000000000000000000000000000000000000000000000000000000000000000000000000000000000000000000000000000000000000000000000000000000000000000000000000000000000000000000000000000000000000000000000000000000000000000000000000000000000000000000000000000000000000000000000000000000000000000000000000000000000000000000000000000000000000000000000000000000000000000000000000000000000000000000000000000000000000000000000000000000000000000000000000000000000000000000000000000000000000000000000000000000000000000000000000000000000000000000000000000000000000000000000000000000000000000000000000000000000000000000000000000000000000000000000000000000000000000000000000000000000000000000000000000000000000000000000000000000000000000000000000000000000000000000000000000000000000000000000000000000000000000000000000000000000000000000000000000000000000000000000000000000000000000000000000000000000000000000000000000000000000000000000000000000000000000000000000000000000000000000000000000000000000000000000000000000000000000000000000000000000000000000000000000000000000000000000000000000000000000000000000000000000000000000000000000000000000000000000000
#0323b0:0000000000000000000000000000000000000000000000000000000000000000000000000000000000000000000000000000000000000000000000520000000000000000000000000000000000000000000000000000000000000000000000000000000000000000000000000000000000000000000000000000000000000000
#032380:0000000000000000000000000000000000000000000000000000000000000000000000000000000000000000000000000000000000000000000000000052000000000000000000000000000000000000000000000000000000000000000000000000000000000000000000000000000000000000000000000000000000000000
#032330:000000000000000000000000000000000000000000000000000000000000000000000000000000000000000000000000000000000000000000000000000000000000000000000000000000000000000000000000000000000000000000000000000000000000000000000000000000000000000000000000000000000000000000000000000000000000000000000000000000000000000000000000000000000000000000000000000000000000000000000000000000000000000000000000000000000000000000000000000000000000000000000000000000000000000000000000000000000000000000000000000000000000000000000000000000000000000000000000000000000000000000000000000000000000000000000000000000000000000000000000000000000000000000000000000000000000000000000000000000000000000000000000000000000000000000000000000000000000000000000000000000000000000000000000000000000000000000000000000000000000000000000000000000000000000000000000000000000000000000000000000000000000000000000000000000000000000000000000000000000000000000000000000000000000000000000000000000000000000000000000000000000000000000000052000000000000000000000000000000000000000000000000000000000000000000000000000000000000000000000000000000000000000000000000000000000000000000000000000000000000000000000000000000000000000000000000000000000000000000000000000000000000000000000000000000000000000000000000000000000000000000000000000000000000000000000000000000000000000000000000000000000000000000000000000000000000000000000000000000000000000000000000000000000000000000000000000000000000000000000000000000000000000000000000000000000000000000000000000000000000000000000000000000000000000000000000000000000000000000000000000000000000000000000000000000000000000000000000000000000000000000000000000000000000000000000000000000000000000000000000000000000000000000000000000000000000000000000000000000000000000000000000000000000000000000000000000000000000000000000000000000000000000000000000000000000000000000000000000000000000000000000000000000000000000000000000000000000000000000000000
#032390:000000000000000000000000000000000000000000000000000000000000000000000000000000000000000000000000000000000000000000000000000000000000000000000000000000000000000000000000000000000000000000000000000000000000000000000000000000000000000000000000000000000000000000000000000000000000000000000000000000000000000000000000000000000000000000000000000000000000000000000000000000000000000000000000000000000000000000000000000000000000000000000000000000000000000000000000000000000000000000000000000000000000000000000000000000000000000000000000000000000000000000000000000000000000000000000000000000000000000000000000000000000000000000000000000000000000000000000000000000000000000000000000000000000000000000000000000000000000000000000000000000000000000000000000000000000000000000000000000000000000000000000000000000000000000000000000000000000000000000000000000000000000000000000000000000000000000000000000000000000000000000000000000000000000000000000000000000000000000000000000000000000000000000000000000000000000000000000000000000000000000000000000000000000000000000000000000000000000000000000000000000000000000000000000000000000000000000000000000000000000000000000000000000000000000000000000000000000000000000000000000000000000000000000000000000000000000000000000000000000000000000000000000000000000000000000000000000000000000000000000000000000000000000000000000000000000000000000000000000000000000000000000000000000000000000000000000000000000000000000000000000000000000000000000000000000000000000000000000000000000000000000000000000000000000000000000000000000000000000000000000000000000000000000000000000000000000000000000000000000000000000000000000000000000000000000000000000000000000000000000000000000000000000000000000000000000000000000000000000000000000000000000000000000000000000000000000000000000000000000000000000000000000000000000000000000000000000000000000000000000000000000000000000000000000000000000000000000000000000000000000000000000000000000000000000000000000000000000000000000000000000000000000000000000000000520000000000000000000000000000000000000000000000000000000000000000000000000000000000000000000000000000000000000000000000000000000000000000000000000000000000000000000000000000000000000000000000000000000000000000000000000000000000000000000000000000000000000000000000000000000000000000000000000000000000000000000000000000000000000000000000000000005200000000000000000000000000000000000000000000000000000000000000000000000000000000000000000000000000000000000000000000000000000000000000000000000000000000000000000000520000000000000000000000000000000000000000000000000000000000000000000000000000000000000000000000000000005200000000000000000000000000000000000000000000000000000000000000000000000000000000000000000000000000000000000000000000000000000000000000000000000000000000000000000000000000000000000000000000000000000000000000000000000000000000000000000000000000000000000000000000000000000000000000000000000000000000000000000000000000000000000000000000000000000000000000000000000000000000000000000000000000000000000000000000000000000000000000000000000000000000000000000000000000000000000000000000000000000000000000000000000000000000000000000000000000000000000000000000000000000000000000000000000000000000000000000000000000000000000000000000000000000000000000000000000000000000000000000000000000000000000000000000000000000000000000000000000000000000000000000000000000000000000000000000000000000000000000000000000000000000000000000000000000000000000000000000000000000000000000000000000000000000000000000000000000000000000000000000000000000000000000000000000000000000000000000000000000000000000000000000000000000000000000000000000000000000000000000000000000000000000000000000000000000000000000000000000000000000000000000000000000000000000000000000000000000000000000000000000000000000000000000000000000000000000000000000000000000000000000
#032360:0000000000000000000000000000000000000000000000000000000000000000000000000000000000000000000000000000000000000000000000000000000000000000000000000000000000000000000000000000005200000000000000000000000000000000000000000000000000000000000000000000000000000000
#033360:00130000
#033320:0000002300000000
#033370:00000013
#0333b0:0000000000000023
#0343b0:00130000
#034360:0000002300000000
#034320:00000013
#034370:0000000000000023
#035370:00130000
#035320:0000002300000000
#035360:00000013
#0353b0:0000000000000023
#0363b0:0013000000000000
#036360:00230000
#036320:0000001300000000
#036370:0023
#0363b0:0000000000130000
#036360:00000023
#037320:0013000000000000
#037370:00230000
#0373b0:0000001300000000
#037360:0023
#037320:0000000000130000
#037370:00000023
#038370:12
#038320:0022000000000000
#038371:0012000000000000
#0383c1:00220000
#038370:00130000
#038320:0000002300000000
#038361:0000001300000000
#0383b1:0023
#038360:0014
#038320:0000000000240000
#038361:0000000000140000
#0383a1:00000024
#038321:0000000000000014
#039361:24
#0393a0:14
#039360:0024000000000000
#039321:0013000000000000
#039371:00230000
#0393b0:00130000
#039360:0000002300000000
#039321:0000001200000000
#039371:0022
#0393c0:0012
#039370:0000000000220000
#0403b0:0013000000000000
#040360:00230000
#040320:0000001300000000
#040370:0023
#0403b0:0000000000130000
#040360:00000023
#041320:0013000000000000
#041370:00230000
#0413b0:0000001300000000
#041360:0023
#041320:0000000000130000
#041370:00000023
#042370:12
#0423c0:0022000000000000
#042371:0012000000000000
#042321:00220000
#042360:00130000
#0423b0:0000002300000000
#042371:0000001300000000
#042321:0023
#042360:0014
#0423a0:0000000000240000
#042361:0000000000140000
#042321:00000024
#042341:0000000000000000000000000000000000000000000000000000000013535353
#042361:00000000000000000000000000000000000000000000000000000000000000000000000000000000000000000000000000000000000000000053000000530000
#042321:00000000000000000000000000000000000000000000000000000000000000000000000000000000000000000000000000000000000000000000005300000053
#043341:5353535323000000000000000000000000000000000000000000000000000000
#043361:00530000005300000000000000000000000000000000000000000000000000000000000000000000000000000000000000000000000000000000000000000000
#043321:00000053000000530000000000000000000000000000000000000000000000000000000000000000000000000000000000000000000000000000000000000000
#042390:0000000000000000000000000000000000000000000000000000000013535353
#0423b0:00000000000000000000000000000000000000000000000000000000000000000000000000000000000000000000000000000000000000000053000000530000
#042370:00000000000000000000000000000000000000000000000000000000000000000000000000000000000000000000000000000000000000000000005300000053
#043390:5353535323000000000000000000000000000000000000000000000000000000
#0433b0:00530000005300000000000000000000000000000000000000000000000000000000000000000000000000000000000000000000000000000000000000000000
#043370:00000053000000530000000000000000000000000000000000000000000000000000000000000000000000000000000000000000000000000000000000000000
#043350:00001323
#0433b0:0000000000530000
#043381:00001323
#043321:0000000000530000
#0443b1:00130000
#044361:0000002300000000
#0443b1:00000013
#044361:0000000000000023
#045361:00130000
#0453b1:0000002300000000
#045361:00000013
#0453b1:0000000000000023
#046321:00130000
#046371:0000002300000000
#046321:00000013
#046371:0000000000000023
#047371:00130000
#047321:0000002300000000
#047371:00000013
#047321:0000000000000023
#0483b1:00130000
#048361:0000002300000000
#048321:00000013
#048371:0000000000000023
#0493b1:00130000
#049361:0000002300000000
#049321:00000013
#049371:0000000000000023
#050371:00130000
#050321:0000002300000000
#050361:00000013
#0503b1:0000000000000023
#051371:00130000
#051321:0000002300000000
#051361:00000013
#0513b1:0000000000000023
#052321:0000000012000000000000000000000032000000325200525200000000000000
#052331:00000000000000000000000000000000000000000000000000000000000000000000000000000000005200005200005200000000000000000000000000000000
#052341:00000000000000000000000000000000000000000000000000000000000000000000000000000000000000520052000000000000000000000000000000000000
#053341:3200000032000000000000000000000032000000325200525200000000000000
#053351:00000000000000000000000000000000000000000000000000000000000000000000000000000000005200005200005200000000000000000000000000000000
#053361:00000000000000000000000000000000000000000000000000000000000000000000000000000000000000520052000000000000000000000000000000000000
#054321:32
#056361:22
#0523c0:0000000012520052520000000000000000000000000000000000000000000000
#0523b0:00000000000000000052000052000052000000000000000000000000000000000000000000000000000000000000000000000000000000000000000000000000
#0523a0:00000000000000000000005200520000000000000000000000000000000000003200000000000000320000000000000000000000000000000000000000000000
#0533a0:3200000032520052520000000000000000000000000000000000000000000000
#053390:00000000000000000052000052000052000000000000000000000000000000000000000000000000000000000000000000000000000000000000000000000000
#053380:00000000000000000000005200520000000000000000000000000000000000000000000000000000000000000000000000000000000000000000000000000000
#0533c0:0000000032320000
#0543c0:32
#056380:22
