This file was generated by Ched 2.7.0.0.
#TITLE ""
#ARTIST ""
#DESIGNER ""
#DIFFICULTY 0
#PLAYLEVEL
#SONGID ""
#WAVE ""
#WAVEOFFSET 0
#JACKET ""
#REQUEST "ticks_per_beat 480"
#00002: 4
#BPM01: 140
#00008: 01
#TIL00: ""
#HISPEED 00
#MEASUREHS 00
#0001b:13130000
#00015:00001313
#0011b:13130000
#00115:00001313
#00218:13130000
#00212:00001313
#00318:13130000
#00312:00001313
#0041a:1414
#00414:00140000
#00410:41
#00512:1414
#00518:00140000
#00618:1414
#00614:00140000
#0081a:14
#00814:00140000
#00818:0014
#00912:14
#00918:00140000
#00914:0014
#01018:14
#01014:00140000
#0101a:0014
#01114:14
#01118:00140000
#01112:0014
#01110:41
#0121a:14
#01218:0000140000140000
#01214:0000001400000000
#01212:14
#0121f:11
#01312:14
#0131a:14
#01314:0000140000140000
#01318:0000001400000000
#0141a:14
#01412:14
#01419:0000140000140000
#01413:0000001400000000
#0161a:14
#01612:1400001400000000
#01618:0000140000140000
#01712:14
#0171a:1400001400000000
#01714:0000140000140000
#0181a:1400140000140000
#01812:1400001400000000
#02018:00141400
#02014:0000001400000000
#02012:24000014
#0201a:24000014
#0201f:21
#02118:14141400
#02114:0014001400000000
#02110:41
#0221a:14140000
#02214:14140000
#02218:00001414
#02212:00001414
#0231a:14
#02319:00140000
#02314:14
#02313:00140000
#02318:0014
#02312:0014
#02414:00141400
#02418:0000001400000000
#0241a:24000014
#02412:24000014
#02514:14141400
#02518:0014001400000000
#02612:14140000
#02618:14140000
#02614:00001414
#0261a:00001414
#02712:14
#02713:00140000
#02718:14
#02719:00140000
#02714:0014
#0271a:0014
#02818:1414
#02812:00140014
#0291a:1414
#02914:00140014
#03018:14
#03012:00140000
#0301a:0014
#03114:14
#0311a:00140000
#03112:0014
#0331a:14140000
#03314:00001414
#03310:41
#03418:14140000
#03412:00001414
#03518:14140000
#03514:00001414
#0361a:14
#03614:00140000
#03618:0014
#03612:00000014
#0371a:14
#03714:00140000
#03718:0014
#03712:00000014
#0381a:14
#03812:00140000
#03818:0014
#03912:14
#0391a:00140000
#03914:0014
#04018:14
#04012:00140000
#0401a:0014
#04014:00000014
#04118:14
#04112:00140000
#0411a:0014
#04114:00000014
#04110:41
#04218:14
#04212:14
#04213:00140000
#04219:00140000
#0421a:0014
#04214:0014
#0441a:14
#04412:14
#04418:00140014
#04414:0014
#04512:14
#04518:00140014
#04514:0014
#0461a:14
#04612:14
#04614:00140014
#04618:0014
#0471a:14
#04714:00140014
#04718:0014
#0481a:14140000
#04812:14000014
#04816:0014
#04916:1414
#04912:00140000
#0491a:00000014
#04910:41
#0501a:14000014
#05012:14140000
#05016:0014
#0511a:00140000
#05116:1414
#05112:00000014
#0151a:24
#01516:00240000
#01512:0024
#0321a:24240000
#03212:24240000
#04313:24
#04319:24
#02158:0014
#02554:0014
#0073a0:1400002400000000
#007321:1400002400000000
#019391:1424
#019330:1424
#0323a0:00140000
#032380:00000024
#032321:00140000
#032341:00000024
#043391:1424
#043330:1424
#0523a0:1424
#053320:1424
#054380:14
#056380:24
