This file was generated by Ched 2.7.0.0.
#TITLE ""
#ARTIST ""
#DESIGNER ""
#DIFFICULTY 0
#PLAYLEVEL
#SONGID ""
#WAVE ""
#WAVEOFFSET 0
#JACKET ""
#REQUEST "ticks_per_beat 480"
#00002: 4
#BPM01: 140
#00008: 01
#TIL00: ""
#HISPEED 00
#MEASUREHS 00
#0021a:14
#0031a:14
#00412:14
#00512:14
#00618:14
#00718:14
#00814:14
#00914:14
#0101a:14
#01010:41
#0111a:14
#01214:14
#01314:14
#01418:14
#01518:14
#01612:14
#01712:14
#0181a:14
#01810:41
#01914:14
#0201a:14
#02114:14
#02218:14
#02312:14
#02418:14
#02512:14
#04218:2616
#0421f:21
#04312:1616
#04310:41
#04418:16
#04412:0016
#04518:16
#04512:0016
#04818:16
#04812:0016
#05612:16
#05618:0016
#05012:2616
#05118:1616
#05212:16
#05218:0016
#05312:16
#05318:0016
#06012:1616
#06418:16
#06412:0016
#06518:16
#06512:0016
#06618:14
#06610:41
#06712:14
#0681a:14
#06914:14
#07018:14
#07112:14
#0721a:14
#07314:14
#0261a:14
#02610:41
#02714:14
#02818:14
#02912:14
#0301a:14
#03114:14
#03218:14
#03312:14
#0341f:11
#05710:41
#034380:14
#035380:24
#036340:14
#037340:24
#0383a0:14
#0393a0:24
#040320:14
#041320:24
#046380:1626
#047320:1626
#049380:1626
#054320:1626
#055380:1626
#057320:1626
#058380:16
#059380:0026
#061380:1626
#062320:16
#063320:0026
#0743a0:14
#0793a0:24
