This file was generated by Ched 2.7.0.0.
#TITLE ""
#ARTIST ""
#DESIGNER ""
#DIFFICULTY 0
#PLAYLEVEL
#SONGID ""
#WAVE ""
#WAVEOFFSET 0
#JACKET ""
#REQUEST "ticks_per_beat 480"
#00002: 4
#BPM01: 140
#00008: 01
#TIL00: ""
#HISPEED 00
#MEASUREHS 00
#00218:00130013
#0021b:0000001300000013
#00215:0013
#00212:2400000000130000
#0021a:24
#00315:13000000000000000000130000130000
#00312:0013000013000000
#00318:00000000130000000013000000001300
#0031b:0000001300001300
#00415:00130013
#00412:1300001300000013
#00418:0013
#0041b:1300000000130000
#00518:13000000000000000000130000130000
#0051b:0013000013000000
#00515:00000000130000000013000000001300
#00512:0000001300001300
#00619:00001300000000000000001300000000
#00614:00000013000000000000130000000000
#00617:00130000
#00615:0000001300000000
#00612:2413
#0061b:0013
#00616:00000013
#00618:0000000000000013
#0061a:24
#00714:00001300000000000000001300000000
#00719:00000013000000000000130000000000
#00716:00130000
#00718:0000001300000000
#0071b:0013
#00712:2413
#00717:00000013
#00715:0000000000000013
#0071a:24
#00818:0013000000000013
#00812:24000013000000002400000000000000
#00815:0000001300130000
#0081b:00000000000000000000001300000000
#0081a:2424
#0091c:12120000
#00916:00120000001200000000000000000000
#00918:0012001200000000
#00912:00000012000000120000000000000000
#01015:0013130000131300
#01018:0000001313000013
#01012:2323
#0101b:23230023
#01010:41
#01418:0013000000130000
#01415:0000001300000013
#01412:13230023
#0141b:2323
#01512:0000130013001313
#01518:0013000000130013
#0151b:23131313
#01515:00000000000013000000001300000000
#01615:0013000013000000
#0161b:2300001300000013
#01612:2300000000130000
#01618:00130013
#01812:23131313
#0181b:23000000000000000000131300000000
#01815:0000000000000013
#01818:0000000000000000000000000000000000000000000000000013000000000000
#01810:41
#0191b:13000013
#01915:0013000000000013
#01912:13131313
#01918:00000000001300000000000000001300
#02012:13131313
#02018:0000001300000013
#0201b:0013
#0211b:1313
#02115:00001300001300000000000000000000
#02118:00000013000013000000000000000000
#02112:1300130013001313
#02119:0000000000130013
#02117:00000013
#0251c:12120000
#02512:00120000001200000000130013001300
#02518:0012001200000000
#02516:00000012000000120000000000000000
#02616:00000013000000000000000000000000
#02618:0000130000130013
#02612:2300000000130013
#0261b:00001313
#02615:00000013
#02610:41
#02715:0000130000130013
#0271b:2300000000130013
#02712:13001313
#02717:00000013000000000000000000000000
#02718:00000013
#02812:23000013130000001300000000000000
#0281b:13000000000000002300001313000000
#02816:00000000000000000000001300000000
#02817:00000013000000000000000000000000
#03012:0013
#03019:0000000000130000
#03017:00000013
#03015:0000000000000013
#03014:00000000000000000000001300000000
#03016:00000013000000000000000000000000
#03018:00130000
#0301b:2313
#0291b:13000013000000000000130013001300
#02912:23130000
#02915:0000001300000000
#02918:0000000000000000001300000000000000000000000000000000000000000000
#03417:0000000000130000
#0341a:24141414
#03415:0000000000000013
#03412:00000013
#0341f:11
#03516:0000000000130000
#0351b:00000013
#03517:0000000000000013
#03512:24141414
#03612:0000000000130000
#03617:0000000000130000
#0361a:24141414
#03615:00000013
#03618:0000000000000013
#03715:0013000000000000
#03718:0000001300000000
#03719:00000013
#03714:00000013
#0371a:24242400
#03712:24242400
#0381a:0000000000130000
#03816:00000000000000000000001300001300
#0381b:1313
#03819:00000013
#03817:00000013000000000000000000000000
#03812:24242424
#03913:0000000000130000
#03917:00000000000000000000001300001300
#03914:00000013
#03912:1313
#03916:00000013000000000000000000000000
#0391a:24242424
#04017:00000013
#04019:0000000000000013
#04012:2424242424242424
#04117:0000001300000000
#04116:13
#0411b:13
#04217:13000000000000000000002300000000
#04216:00000013000013001300000000000000
#0421b:0000131323000023
#04212:23000000000000000000001300000000
#0421f:21
#0431b:0013000000000000
#04312:1300130000130013
#04318:00000000001300000000000000000000
#04315:00001300000000130000000013000000
#04310:41
#04416:13000000000000000000002300000000
#04417:00000013000013001300000000000000
#04412:0000131323000023
#0441b:23000000000000000000001300000000
#04512:00001300000000130000000000000000
#0451b:13130000
#04515:00000000001300000000000000000000
#04517:00000000000000130000000000000000
#04518:0013000000000000
#04612:1300001300000000
#04615:00000013000000000000000000001300
#04618:00000000000000130000000000000000
#04616:0013
#04617:00000000000000000000001300000000
#0471b:1300001300000000
#04718:00000013000000000000000000001300
#04715:00000000000000130000000000000000
#04717:0013
#04716:00000000000000000000001300000000
#04815:0013000000000000
#04818:00000000131300000000000000000000
#04812:13000000001300000000000013000013
#0481b:00001300000000130000130000000000
#04819:00000013
#04817:0000000000000013
#04919:00000013
#04916:00000013000000000000000000001300
#04912:0000001300130000
#04917:0000001300130000
#0491b:0000130013000013
#04914:00000013
#05016:13000000000000000000001300000000
#05017:00000013000013001300000000000000
#05012:0000131313000013
#0501b:23000000000000000000001300000000
#05112:0013000000000000
#0511b:1300130000130013
#05115:00000000001300000000000000000000
#05118:00001300000000130000000013000000
#05217:13000000000000000000001300000000
#05216:00000013000013001300000000000000
#0521b:0000131313000013
#05212:23000000000000000000001300000000
#0531b:00001300000000130000000000000000
#05312:13130000
#05318:00000000001300000000000000000000
#05316:00000000000000130000000000000000
#05315:0013000000000000
#05412:13
#0541b:13000013000013000000000000000000
#05415:00001300000000130000000000000000
#05418:00130000000000000000000000001300
#05417:0013
#05416:00000000000000000000001300000000
#0561b:00001300001300000000000023000000
#05619:0000000000130023
#05612:00001300000000130000000023000000
#05615:00130000
#05618:00000013000000000000000000000000
#05616:00000000000000000000001300000000
#05614:0000000000000023
#05719:0013000013000000
#05714:00130000000000000013000000000000
#05713:00000013000000130000000000000000
#0571b:00130000
#05712:00000000001300000000000024002400
#0571a:0000001300002400
#05717:2300000000130000
#05710:41
#0551b:13
#05512:13000013000013000000000000000000
#05518:00001300000000130000000000000000
#05515:00130000000000000000000000001300
#05516:0013
#05517:00000000000000000000001300000000
#05818:13
#05819:00130000
#0581a:0013
#0581b:00000013
#05816:00000014
#0591a:13
#05919:0000130000000013
#05918:0013
#05913:0000000000130000
#05916:00000013
#05914:0000000000000013
#06112:13131300
#06118:15151515151515150000000000000000
#06117:0015000000150000001500000015000000000000000000000000000000000000
#06119:0000001500000015000000150000001500000000000000000000000000000000
#0601b:1300000000000000000000000000000000000013000000000000000000000000
#06019:0000000000000000000000001300000000000000000000000000000000000015
#06014:0000001300000000
#06018:00000000000000000000000000001515
#06012:0000001300000000000000000000000013000000000000000000000000000000
#06017:0000001300000000000000000000000000000000000000000000000000150000
#06013:13
#06016:0000000000000000000000000000000000000013000000000000000000000000
#0601a:0013
#06212:2300001323000000
#06218:00001300130000000000001300000000
#06215:00000013000000000000130013000000
#0621b:2300000023000013
#06318:00001400140000000000001400000000
#06314:00000014000000000000140014000000
#06312:2300001323000000
#0631b:2300000023000013
#06412:23130000
#0641b:23
#0661b:23000013000000001300000000000000
#06615:0000130000000013
#06618:0000001300001300
#06612:23000000000000001300001300000000
#06610:41
#0671b:13000013000000001300000000001300
#06717:00000013
#06712:1300130023232323
#06718:00000000001300130000000000000000
#06719:0000000000130000
#06715:0000001300000000
#06818:0013001300130000
#06815:00000013001300000013000000000000
#0681b:00131313
#06812:00000000000000130000000000000000
#06912:13000000000000000000001300000000
#0691b:00131300
#06915:00000000000000000013000000000000
#06918:0000000000130000
#06914:00000028
#07015:0013001300130013
#0701b:00000013000000130000130000000000
#07018:23000000230000002300000023000013
#07012:23232323
#07118:00000013001300000000001300000000
#07115:0013001300130013
#0711b:00130000000000131300000000130000
#07112:23232323
#07412:1200000000000000000012000000001200000000000000000000000000000000
#07418:0000000000000000000012000000000000000012000000000000000000000000
#07414:0000000000000000000000000000000000000000000000120000000000000000
#0741a:0000000000000000000000000000000000000000000000000000001200000000
#07416:0000000000000000000000000000000000000000000000000000000000000012
#0741c:12
#0751c:0012000000000000
#07512:00000000001200000000000000000000
#07515:0000000000120000
#07618:00120000000000000000000000000000
#0761a:00000000000000000012000000000000
#01712:12120000
#01718:00120000001200000000000000000000
#01716:0012001200000000
#0171c:00000012000000120000000000000000
#02212:23000000000000000000131300000000
#0221b:23131313
#02218:0000001300000013
#02216:0000000000000000000000000000000000000000000000000013000000000000
#02312:13000013
#02318:0013000000000013
#0231b:13131313
#02315:00000000001300000000000000001300
#0241b:13131313
#02415:0000001300000013
#02412:0013
#03114:0000000000130000
#03116:00000013
#03118:0000000000000013
#03119:00000000000000000000001300000000
#0311b:1313
#03117:00000013000000000000000000000000
#03115:00130000
#03112:2313
#03215:00130000000000000000130000000000
#03218:00001300000000000013000000000000
#03212:00000013000013002300000000000000
#0321b:23000000000000000000001300001300
#06519:2500000000152500
#06512:25
#06514:0000002200000000
#07212:00130000000000000013001300130013
#07213:00000013000000000000000000000000
#07214:00000000001300000000000000000000
#07215:00000000000000130000000000000000
#07218:0023
#0721b:2323232300000023
#07219:0000000000230000
#0721a:00000023
#07318:1200120012000012
#07312:00120000001200000012000000000012
#0731c:0012001200120000
#07316:00000012000000120000001200000000
#0731a:00000012
#07314:00000000000000000000000000120000
#01118:1300000000130013
#0111b:0013001313001300
#01115:00000000130000000000001300000000
#01112:2313001300001313
#01218:0013130000131300
#01215:0000001313000013
#01212:23130013
#0121b:2313
#01315:13000000000000000000130000130000
#01312:0013001313000000
#01318:00000000130000000000001300000000
#0131b:1313001300001313
#03318:0000000013131300
#03315:00000000000000000013001300130000
#03312:23000013000000000000000000001300
#0331b:23000013000000000000000000001300
#00252:14
#0025a:14
#0345a:14
#03552:14
#0365a:14
#04157:0000002300000000
#0415b:53000043
#04152:00000013
#04156:53
#0375a:1414
#03752:00140000
#04252:13000000000000000000002300000000
#04256:0053
#04257:53
#0385b:53
#03857:00000053000000000000000000000000
#03852:14
#04456:63
#04457:0063
#0445b:13000000000000000000002300000000
#04552:00005300000000530000000000000000
#04557:00000000000000530000000000000000
#04556:00000013
#0455b:00000013
#0435b:0053000000000000
#04757:0063
#04756:00000000000000000000006300000000
#05056:63000000000000000000003300000000
#05057:0063
#0505b:13000000000000000000002300000000
#05052:0000000033000033
#05152:0063000000000000
#05257:53000000000000000000004300000000
#05256:0053
#05252:13000000000000000000002300000000
#0525b:0000000043000043
#0535b:00006300000000630000000000000000
#05356:00000000000000630000000000000000
#05352:00000013
#05357:00000013
#0575a:00000014
#05752:0000000000000054
#05856:00000024
#0605b:6300000000004300000000000000000000000023000000000000000000000000
#06057:0000002300000000000000000000000000000000000033000000000000250000
#06052:0000002300000000000000000000000053000000000033000000000000000000
#06058:00000000000000000000000000005555
#06059:0000000000000000000000000000000000000000000000000000000000000025
#06053:63
#06056:0000000000004300000000000000000000000023000000000000000000000000
#0605a:0053
#06452:00000033
#0645b:0000000000000043
#06855:0000000000000013
#06958:0013000000000000
#06955:0000001300000000
#06954:00000018
#00452:13
#0045b:13
#0105b:13
#01052:13
#01852:13
#0185b:13000000000000000000005300000000
#01858:0000000000000000000000000000000000000000000000000023000000000000
#0205b:4313
#0195b:00000053
#01958:0000000000000023
#02352:00000063
#02355:0000000000000023
#02452:3313
#02652:13
#02656:00000053000000000000000000000000
#02658:00530000
#0275b:13
#02755:00630000
#02757:00000063000000000000000000000000
#02952:13
#0295b:00000053000000000000000000000000
#02958:0000000000000000002300000000000000000000000000000000000000000000
#0285b:23
#02852:0023
#02857:00000063000000000000000000000000
#02856:00000000000000000000005300000000
#0305b:1300001300000000
#03056:00000053000000000000000000000000
#03058:00530000
#03052:0000001300000000
#03152:1300001300000000
#03157:00000063000000000000000000000000
#03155:00630000
#0315b:0000001300000000
#05652:00000000000000530000000000000000
#0565b:00000000005300000000000000000000
#06158:55555555555555550000000013000000
#06157:0025000000250000002500000025000000000000000000000000000000000000
#06159:0000002500000025000000250000002500000000000000000000000000000000
#06155:00000013
#02252:13000000000000000000006300000000
#02256:0000000000000000000000000000000000000000000000000023000000000000
#0225b:13
#03952:63
#03956:00000063000000000000000000000000
#0395a:14
#06559:00000015
#07452:12
#0745c:12
#01152:0000002300000000
#0115b:0023000000000000
#01155:00530000
#01158:53
#01355:63
#01352:0023000000000000
#01358:00630000
#0135b:0000002300000000
#03355:0000001300000000
#03358:0000001300000000
#03352:13000053000000000000000000000000
#0335b:13000053000000000000000000000000
#05556:0053
#05557:00000000000000000000005300000000
#0145b:13
#04656:0053
#04657:00000000000000000000005300000000
#05457:0063
#05456:00000000000000000000006300000000
#0083b0:00130000
#008380:0000002300000000
#008320:00000013
#008350:0000000000000023
#0093b0:00000000000000001333000033330000
#009380:00000000000000000000333300003333
#0103b0:23
#009321:00000000000000001333000033330000
#009351:00000000000000000000333300003333
#010321:23
#011381:13230000
#0113b1:0033000000000000
#011350:00132300
#011320:0000003300000000
#013350:13230000
#013320:0033000000000000
#013381:00132300
#0133b1:0000003300000000
#0143b1:00130000
#014381:0000002300000000
#014321:0013
#014351:0000000000230000
#0143b1:00000013
#014381:0000000000000023
#015321:13
#015351:0023000000000000
#016351:00130000
#016321:0000002300000000
#016381:0013
#0163b1:0000000000230000
#016351:00000013
#016321:0000000000000023
#017321:00000000000000001333000033330000
#017351:00000000000000000000333300003333
#018321:23
#0173b0:00000000000000001333000033330000
#017380:00000000000000000000333300003333
#0183b0:23
#018370:00130000
#0183b0:0023
#0183b0:00000000000000000000001300002300
#018380:0000000000000000000000000000000000000000000000000053000000000000
#0193b0:00000000000000130000000000000000
#019370:0000000000230000
#0193b0:00000013
#019380:0000000000000033
#0203b0:23
#022360:00130000
#022320:0023
#022320:00000000000000000000001300002300
#022360:0000000000000000000000000000000000000000000000000053000000000000
#023320:00000000000000130000000000000000
#023360:0000000000230000
#023320:00000013
#023350:0000000000000033
#024320:23
#0253b0:0013
#0253a0:00000000000000000033000000000033
#025390:0000000000330033
#025380:00000000000000000000003300330000
#025370:00000033
#0263b0:23
#026360:00000013000000000000000000000000
#026320:0000002300000000
#026381:00130000
#0263b1:0000002300000000
#027371:00000013000000000000000000000000
#0273b1:0000002300000000
#027350:00130000
#027320:0000002300000000
#0283b0:1300002300000000
#028370:00000033000000000000000000000000
#028320:0000000013000023
#028360:00000000000000000000003300000000
#0293b0:00000013000023000000000000000000
#029380:0000000000000000005300000000000000000000000000000000000000000000
#029320:0013
#029340:0000000000330033
#029360:00000033
#030320:23
#030360:00000013000000000000000000000000
#030320:0000002300000000
#030381:00130000
#0303b1:0000002300000000
#031371:00000013000000000000000000000000
#0313b1:0000002300000000
#031350:00130000
#031320:0000002300000000
#032370:00130000
#032380:00000000003300000000000000000000
#032390:0000003300000000
#0323a0:00000000000000330000000000000000
#0323b0:0023
#032360:00000013
#032350:00000000000000000000000000330000
#032340:0000000000000033
#032330:00000000000000000000000000000033
#033320:23
#033320:00000013000000000000000000000000
#033350:0000002300000000
#0333b1:00000013000000000000000000000000
#033381:0000002300000000
#034321:14
#034341:00000034000000000000000000000000
#034361:0000002400000000
#0353a1:14
#035381:00000034000000000000000000000000
#035361:0000002400000000
#036321:14
#036341:00000034000000000000000000000000
#036361:0000002400000000
#0383b1:1300002300000000
#038371:00000033000000000000000000000000
#039321:1300002300000000
#039361:00000033000000000000000000000000
#0403b1:13
#040391:0033000000000000
#040371:00230000
#0403b1:0000001300000000
#040391:0033
#040371:0000000000230000
#041361:13
#041321:0000005300002300
#0413b0:13000023
#041370:0000005300000000
#042370:13
#0423b0:00000023000000000000000000000000
#042360:0000000013000023
#042320:00000000000000000000003300000000
#0433b0:0013000000000000
#043380:00230000
#0433b0:00000000000000130000000033000000
#043370:0000000000330023
#044360:13
#044320:00000023000000000000000000000000
#044370:0000000013000023
#0443b0:00000000000000000000003300000000
#045320:0013000000000000
#045350:00230000
#045320:00000000000000130000000000000000
#045360:00000023
#045371:00000000000000130000000000000000
#0453b1:00000023
#0463b1:00130023000000000000000000000000
#046381:0000132300000000
#046361:0013
#046321:00000000000000000000002300000000
#046370:00000000000000000000001300000000
#0463b0:0000000000000023
#047320:00130023000000000000000000000000
#047350:0000132300000000
#047370:0013
#0473b0:00000000000000000000002300000000
#047361:00000000000000000000001300000000
#047321:0000000000000023
#048361:00000000000000130000000000000000
#048321:0000000000230000
#049371:13
#0493b1:00000023000000000000000000000000
#050361:13
#050321:00000023000000000000000000000000
#050371:0000000013000023
#0503b1:00000000000000000000003300000000
#051321:0013000000000000
#051351:00230000
#051321:00000000000000130000000033000000
#051361:0000000000330023
#052371:13
#0523b1:00000023000000000000000000000000
#052361:0000000013000023
#052321:00000000000000000000003300000000
#0533b1:0013000000000000
#053381:00230000
#0533b1:00000000000000130000000000000000
#053371:00000023
#053360:00000000000000130000000000000000
#053320:00000023
#054350:0000132300000000
#054370:0013
#0543b0:00000000000000000000002300000000
#054361:00000000000000000000001300000000
#054321:0000000000000023
#055381:0000132300000000
#055361:0013
#055321:00000000000000000000002300000000
#055370:00000000000000000000001300000000
#0553b0:0000000000000023
#0563b0:00000000001300000000000000000000
#056370:00000000000000230000000000000000
#056321:00000000000000130000000000000000
#056361:0000000000230000
#057321:0000000000000014
#058361:00000054
#059321:0024
#060331:13
#060321:0000005300000000000000000000000000000000000000000000000000000000
#060361:00000023000000000000000000000000
#0603b0:13000023000000000000000000000000
#060370:0000005300000000000000000000000000000000000000000000000000000000
#0603a0:0013
#0603b0:0000000000000000000000000000000000000053000000000000000000000000
#060370:00000000000000000000002300000000
#060321:00000000000000001300002300000000
#060361:0000000000000000000000000000000000000053000000000000000000000000
#060381:00000000000000000000000000001555
#060371:0000000000000000000000000000000000000000000000000000000000550000
#060391:0000000000000000000000000000000000000000000000000000000000000055
#061381:55555555555555552500000000000000
#061371:0055000000550000005500000055000000000000000000000000000000000000
#061391:0000005500000055000000550000005500000000000000000000000000000000
#061321:0000000000140000
#061351:00000023
#0613a0:0000000000140000
#061380:00000023
#064380:0013230000000000
#0643b0:00000000001300230000000000000000
#064321:00000000000000130000000023000000
#064371:0000000000530000
#0643b0:0000000000130023
#064360:00000053
#065340:000000000000000000000000000000000000000000000000000000000000000000000000000000000000000000000000000000000000000000000000000000000000000000000000000000000000000000000000000000000000000000000000000000000000000000000000000000000000000000000000000000000000000000000000000000000000000000000000000000000000000000000000000000000000000000000000000000000000000000000000120000000000000000000000000000000000000000000000000000000000000000000000000000000000000000000000000000000000000000000000320000000000000000000000000000000000000000000000000000000000000000000000000000000000000000000000000000000000000000000052000000000000000000000000000000000000000000000000000000000000000000000000000000000000000000000000000000000000000000000000000000000000000000000000000000000000000000000000000000000000000000000000000000000000000000000000000000000000000000000000220000000000000000000000000000000000000000000000000000000000000000000000000000000000000000000000000000000000000000000000
#065320:0000000000360000
#068320:00000013
#068350:0000000000000023
#0693b0:13
#069380:0023000000000000
#069320:00130000
#069350:0000002300000000
#0773c0:000000000000000000000000000000000000000000000000000000000000000000000000000000000000000000000000000000000000000000000000000000000000125200000000000000000000000000000000000000000000000000000000000000000000000000000000000000000000000000000000000000000000000000000000000000000000000000000000000000000000000000000000000000000000000000000000000000000000000000000000000000000000000000000000000000000000000000000000000000000000000000000000000000000000000000000000000000000000000000000000000000000000000000000000000000000000000000000000000000000000000000000000000000000000000000000000000000000000000000000000000000000000000000000000000000000000000000000000000000000000000000000000000000000000000000000000000000000000000000000000000000000000000000000000000000000000000000000000
#0773a0:000000000000000000000000000000000000000000000000000000000000000000000000000000000000000000000000000000000000000000000000000000000000000000000000000000000000000000000000000000000000000000000000000000000000000000000000000000000000000000000000000000000000000000000000000000000000000000000000000000000000000000000000000000000000000000000000000000000000000000000000000000000000000000000000000000000000000000000000000000000000000000000000000000000000000000000000000000000000000000000000000000000000000000000000000000000000000000000000000000000000000000000000000000000000000000000000000000000000000000000000000000000000000000000000000000000000000000000000000000000000005400000000000000000000000000000000000000000000000000000000000000000000000000000000000000000000000000000000000000000000000000000000000000000000000000000000000000000000000000000000000000000000000000000000000000000000000000000000000000000000000000000000000000000000000000000000000000000000000000000000000000000000000000000000000000000000000000000000000000000000000000000000000000000000000000000000000000000000000000000000000000000000000000000000000000000000000000000000000000000000000000000000000000000000000000000000000000000000000000000000000000000000000000000000000000000000000000000000000000000000000000000000000000000000000000000000000000000000000000000000000000000000000000000000000000000000000000000000000000000000000000000000000000000000000000000000000000000000000000000000000000000000000000000000000000000000000000000000000000000000000000000000000000000000000000000000000000000000000000000000000000000000000000000000000000000000000000000000000000000000000000000000000000000000000000000000000000000000000000000000000000000000000000000000000000000000000000000000000000000000000000000000000000000000000000000000000000000000000000000000000000000000000000000000000000000000000000000000000000000000000000000000000000000000000000000000000000000000000000000000000000000000000000000000000000000000000000000000000000000000000000000000000000000000000000000000000000000000000000000000000000000000000000000000000000000000000000000000000000000000000000000000000000000000000000000000000000000000000000000000000000000000000000000000000000000000000000000000000000000000000000000000000000000000000000000000000000000000000000000000000000000000000000000000000000000000000000000000000000000000000000000000000000000000000000000000000000000000000000000000000000000000000000000000000000000000000000000000000000000000000000000000000000000000000000000000000000000000000000000000000000000000000000000000000000000000000000000000000000000000000000000000000000000000000000000000000000000000000000000000000000000000000000000000000000000000000000000000000000000000000000000000000000000000000000000000000000000000000000000000000000000000000000000000000000000000000000000000000000000000000000000000000000000000000000000000000000000000000000000000000000000000000000000000000000000000000000000000000000000000000000000000000000000000000000000000000000000000000000000000000000000000000000000000000000000000000000000000000000000000000000000000000000000000000000000000000000000000000000000000000000000000000000000000000000000000000000000000000000000000000000000000000000000000000000000000000000000000000000000000000000000000000000000000000000000000000000000000000000000000000000000000000000000000000000000000000000000000000000000000000000000000000000000000000000000000000000000000000000000000000000000000000000000000000000000000000000000000000000000000000000000000000000000000000000000000000000000000000000000000000000000000000000000000000000000000000000000000000000000000000000000000000000000000000000000000000000000000000000000000000000000000000000000000000000000000000000000000000000000000000000000000000000000000000000000000000000000000000000000000000000000000000000000000000000000000000000000000000000000000
#0793c0:22
