This file was generated by Ched 2.7.0.0.
#TITLE ""
#ARTIST ""
#DESIGNER ""
#DIFFICULTY 0
#PLAYLEVEL
#SONGID ""
#WAVE ""
#WAVEOFFSET 0
#JACKET ""
#REQUEST "ticks_per_beat 480"
#00002: 4
#BPM01: 140
#00008: 01
#TIL00: ""
#HISPEED 00
#MEASUREHS 00
#00215:0000131300000000
#0021b:0000000013130000
#00214:0000000000001313
#0021a:24
#0031b:1313000000000000
#00312:0000131300000000
#00615:00130013
#00618:0000001300000013
#00612:2413
#0061b:0000000000130000
#0061a:24
#00718:00130013
#00715:0000001300000013
#0071b:0013
#00712:2400000000130000
#0071a:24
#00818:0013001300000000
#00815:0000000000130013
#00814:00130000
#00819:00000013
#0081a:2424
#00812:2424
#01915:00000000001300000000000014000000
#01918:00130000
#01912:0013000000000014
#02015:0000001400000000
#0201a:0014
#02012:0000000000000013
#0211b:13
#02115:00001300001300000000000013000000
#02118:00000013000013000000000000001300
#02112:0000000000130000
#0261b:23000013000013000000130000000000
#02618:00000013
#02615:0000000000000013
#02612:00000013000013000000000000000000
#02610:41
#02918:0000000000130000
#02915:00000013
#0291b:23000013000000000000000000001300
#02912:23000013000000000000000000000000
#0341a:2400000000140000
#03414:0000000000000014
#03417:00000014
#03416:00000014000000000000000000000000
#0341f:11
#03712:0014001400000000
#03719:00240014
#03713:00000014
#03718:24
#0371a:0024
#04018:00000013
#04015:0000000000000013
#0401a:24
#04012:0000002400000000
#04115:0000001300000000
#04112:13
#0411b:13
#04118:0000001300000000
#04212:0000001400000000
#0421a:2414
#04216:00000014000000000000001400000000
#0421f:21
#04417:0000001313000000
#04412:0000001300000000
#0441b:1300000000000013
#04416:0000000000000013
#04516:00001300130000130000000000000000
#0451b:00001300001300000000000000000000
#04618:13000013000000000000000000000000
#04615:00130000130000000000000000000000
#0461b:0000001300000000
#0481a:00001400001400000000000000000000
#04815:00140000
#04812:0000000000000014
#04817:0000000000000014
#04813:0000000000340000
#04912:0000001400000000
#04917:1400001400000000
#04915:0000000000000013
#0491b:0000000000130000
#04918:00000013
#05814:00000016
#05816:00360000
#05815:0036
#05915:3600000000130000
#0591b:00000013
#05912:0000000000000013
#05916:00360000
#0601b:0000001300000000
#06016:0000001313000000
#06014:00000000000000000000000000001818
#06013:0000000000000000000000000000000000000000000000000000000000180000
#06015:0000000000000000000000000000000000000000000000000000000000000018
#06017:13
#0611a:0000000000141400
#06112:0000000000141400
#06114:18181818181818180000000000000000
#06113:0018000000180000001800000018000000000000000000000000000000000000
#06115:0000001800000018000000180000001800000000000000000000000000000000
#06612:0013
#06618:0013
#06615:23
#0661b:23
#06610:41
#07118:0000241400140014
#07112:0000000000140014
#0711a:00001414
#07114:2414000024002400
#07512:00000000001200000000000000000000
#07515:0000000000120000
#0751b:0013000000000000
#07618:00120000000000000000000000000000
#0761a:00000000000000000012000000000000
#00412:1400000013130000
#00418:0000131300000000
#00419:0000000000001313
#0281b:13
#02812:0013
#02816:00000000000000000000001300000000
#02817:00000013000000000000000000000000
#0671b:1300000023000023
#06715:13000023
#06718:0000000000230000
#06712:0000000000000023
#03312:23000013000000000000000000000000
#0331b:23000013000000000000000000000000
#01319:0000000000001313
#01314:0000000000001313
#01312:13130000
#01315:0013001300000000
#01814:00130000
#01819:00130000
#0181b:0013
#01817:00000000000000000000001300000000
#01812:23
#01810:41
#02318:00000000001300000000000000000000
#02315:00130000
#0231b:0013000000000000
#02317:00000014
#0231a:0000000000000014
#02219:00130000
#02219:00130000
#02214:00130000
#02212:0013
#02216:00000000000000000000001300000000
#0221b:23
#02712:23000014000014000000130000000000
#02718:00000013
#02715:0000000000000013
#0271a:00000014000014000000000000000000
#01618:00130013
#01615:0013
#01612:00130013
#0161b:2313
#01616:23
#01118:1300001300000000
#0111b:00131313
#01112:2300000000001313
#01119:0000000000000013
#0121b:00130013
#01212:2313
#01215:00130013
#01218:0013
#01217:23
#01015:00130013
#01018:0013
#0101b:23230023
#01012:0023
#01010:41
#01515:1300001300000000
#01514:0000000000000013
#0151b:2300000000001313
#01512:00131313
#01418:00130013
#01415:0013
#01412:13230023
#0141b:1323
#03015:0000000000130000
#03018:00000013000000000000000013000000
#03012:23000013000013000000000000001300
#0301b:0000001300000000
#0311a:24000014000014000000140000000000
#03114:00000014000000000000000014000000
#03118:0000000000000014
#03112:0000001400000000
#03212:13
#03216:00000013000000000000000000000000
#0321b:0013
#03217:00000000000000000000001300000000
#0321a:00000000000000000033000000000000
#03219:0000000000330000
#03213:00330000000000000000000000000000
#03214:0033000000000000
#03512:2400000000140000
#03515:00000014
#03516:00000014000000000000000000000000
#03518:0000000000000014
#0361a:2400000000140000
#03614:0000000000000014
#03617:00000014
#03616:00000014000000000000000000000000
#0381a:1400001400000000
#03818:0000000000140000
#03816:0000000000000014
#03812:24242424
#03912:1400001400000000
#03914:0000000000140000
#03916:0000000000000014
#0391a:24242424
#04714:14000014000000000000000000000000
#04718:00140000140000000000000000000000
#04712:0000001400000000
#05415:1313130000000000
#05418:00130013000000000000000000000000
#05412:0013
#05416:00000000000000000000001300000000
#0541b:0000001300000000
#05518:1414140000000000
#05514:00140014000000000000000000000000
#0551a:0014
#05516:00000000000000000000001400000000
#05512:0000001400000000
#05718:0000001600000026
#05712:2516
#05715:00000000000000000000001600000000
#05719:25
#05710:41
#00512:1313000000000000
#0051b:0000131300000000
#02417:0000001400000000
#02412:0014
#02515:00000013
#02518:0000000000000013
#02512:0000000000130000
#04312:0013000000130000
#04318:0000130000000013
#04315:00000000001300000000000013000000
#0431b:00000000000000130000000000000000
#04310:41
#06512:2500000000160000
#06518:00000026
#06519:25
#07412:0000000000000000000013000000001300000000000000000000000000000000
#07419:0000000000000000000000000000000000000013000000000000000000000000
#07413:0000000000000000000000000000000000000000000000130000000000000000
#0741a:0000000000000000000000000000000000000000000000000000001300000000
#07414:0000000000000000000000000000000000000000000000000000000000000013
#06215:0000000000000000000000000000000000000000000000000000000000000016
#06313:1a1a1a1a
#06315:0000000000000016000000000000001600000000000000160000000000000000
#06912:0000141400000000
#06914:14000028
#06918:0014000000000000
#06812:0000001400000000
#06815:00001434343400343434000000000000
#0681a:0000000000001414
#01718:00000013
#01715:0000000000000013
#0171b:0000000000130000
#05612:00001400001400000000000000000000
#05617:00140000
#05618:00000026
#05615:0000000000000026
#0501a:0000001400000000
#05012:2414
#05016:00000014000000000000001400000000
#05216:0000001313000000
#0521b:0000001300000000
#05212:1300000000000013
#05217:0000000000000013
#05317:00001300130000130000000000000000
#05312:00001300001300000000000000000000
#0511b:0013000000130000
#05115:0000130000000013
#05118:00000000001300000000000013000000
#05112:00000000000000130000000000000000
#0641a:00001400001400000000000000000000
#06415:0000140000000016
#06412:00000016
#07012:00001414
#07014:0000241400140014
#07018:2414000024002400
#0701a:0000000000140014
#07213:00000000001400000000240000000000
#07219:00002400000000000000000000140000
#0721a:24
#07218:00240000
#07217:0000002400000000
#07212:0024
#07214:00000024
#07215:0000000000000024
#0025a:14
#04155:0000002300000000
#0415b:53000043
#04152:53000033
#04158:0000002300000000
#0375a:0014
#03758:14
#03759:00140000
#0425a:1454
#04256:00000000000000000000002400000000
#04556:00000000000000630000000000000000
#04552:00000013
#05758:0000000000000066
#05854:00000026
#00452:14
#0205a:0014
#02055:14
#0285b:23
#02852:0023
#02857:00000063000000000000000000000000
#02856:00000000000000000000005300000000
#06054:00000000000000000000000000005858
#06053:0000000000000000000000000000000000000000000000000000000000280000
#06055:0000000000000000000000000000000000000000000000000000000000000028
#06057:23
#06056:0023
#06154:58585858585858580000000000000000
#06153:0028000000280000002800000028000000000000000000000000000000000000
#06155:0000002800000028000000280000002800000000000000000000000000000000
#06558:00000016
#03355:0000001300000000
#03358:0000001300000000
#03352:00000053000000000000000000000000
#0335b:00000053000000000000000000000000
#0105b:13
#01352:53530000
#01355:0023002300000000
#01158:0000006300000000
#0115b:00636300
#0185b:0053
#01857:00000000000000000000002300000000
#01852:13
#02252:0063
#02256:00000000000000000000002300000000
#0225b:13
#02952:00000063000000000000000000000000
#0295b:00000063000000000000000000000000
#03256:00000053000000000000000000000000
#03257:00000000000000000000006300000000
#0325b:0023
#03252:23
#0445b:63
#04457:0053
#01552:00535300
#01555:0000005300000000
#01955:00000064
#01952:0000000000000024
#02452:0014
#02457:14
#02357:00000054
#0235a:0000000000000024
#02752:13
#03656:00000054000000000000000000000000
#0365a:54
#0265b:13
#03456:00000024000000000000000000000000
#0345a:54
#03556:00000024000000000000000000000000
#03552:64
#04957:54
#0555a:0064
#05556:00000000000000000000002400000000
#05452:0063
#05456:00000000000000000000002300000000
#06353:5a5a5a5a
#06355:0000000000000026000000000000002600000000000000260000000000000000
#06255:0000000000000000000000000000000000000000000000000000000000000026
#07456:13
#0745b:13
#06852:0000002400000000
#06855:0064000000000000
#05052:1464
#05056:00000000000000000000002400000000
#05357:00000000000000530000000000000000
#0535b:00000013
#05252:53
#05256:0063
#06954:00000018
#03052:13
#0315a:14
#0033a0:0013
#003390:00000000000000000033000000000000
#003380:0000000000230000
#003350:00000013
#003340:00000000000000000000000000330000
#003330:0000000000000023
#005330:0013
#005340:00000000000000000033000000000000
#005350:0000000000230000
#005380:00000013
#005390:00000000000000000000000000330000
#0053a0:0000000000000023
#0093b0:1333
#0093a0:00330000000000330033000000000033
#009390:0033003300330033
#009380:00000033003300000000003300330000
#009370:00330033
#0103b0:23
#0113b0:00133300
#011380:0000003300230000
#013320:13332300
#013350:0033003300000000
#015320:00133300
#015350:0000003300230000
#017320:1323
#017330:00330000000000330000000000000000
#017340:0033003300000000
#017350:00000033003300000000000000000000
#017360:00330000
#0183b0:0000000013000023
#018370:00000000000000000000003300000000
#019380:00000000000000130000230000000000
#019350:00000014
#019320:0000000000000034
#020350:24
#022320:0000000013000023
#022360:00000000000000000000003300000000
#023350:00000000000000130000230000000000
#023370:00000014
#0233a0:0000000000000034
#024370:24
#0253b0:1323
#0253a0:00330000000000330000000000000000
#025390:0033003300000000
#025380:00000033003300000000000000000000
#025370:00330000
#0283b0:1300002300000000
#028370:00000033000000000000000000000000
#028320:0000000013000023
#028360:00000000000000000000003300000000
#0293b0:00000013000000000000000000000000
#029380:0000002300000000
#029321:00000013000000000000000000000000
#029351:0000002300000000
#032321:1300002300000000
#032331:00330000000000000000000000000000
#032341:0033000000000000
#032361:00000033000000000000000000000000
#0323b1:0000000013000023
#0323a1:00000000000000000033000000000000
#032391:0000000000330000
#032371:00000000000000000000003300000000
#033321:00000013000000000000000000000000
#033351:0000002300000000
#0333b0:00000013000000000000000000000000
#033380:0000002300000000
#0343a0:1400002400000000
#034360:00000054000000000000000000000000
#035320:1400002400000000
#035360:00000054000000000000000000000000
#0363a0:1400002400000000
#036360:00000054000000000000000000000000
#040360:13
#040340:0033000000000000
#040320:00230000
#0403a1:1434240000000000
#040371:0000001300000000
#040391:0033
#0403b1:0000000000230000
#040320:0000001434240000
#041320:13000023
#041350:0000005300000000
#0413b1:13000023
#041381:0000005300000000
#0423a1:0000000014000024
#042361:00000000000000000000003400000000
#0443b1:13
#044371:00000023000000000000000000000000
#044371:0013
#0443b1:00000000000000000000002300000000
#045361:00000000000000130000000000000000
#045321:00000023
#046321:0000000013000023
#046361:00000000000000000000003300000000
#0473a1:0000000014000024
#047361:00000000000000000000003400000000
#048351:00000000000000140000000000000000
#048331:0000000000340000
#048321:00000024
#049371:14
#0493a1:00000024000000000000000000000000
#050321:0000000014000024
#050361:00000000000000000000003400000000
#052321:13
#052361:00000023000000000000000000000000
#052361:0013
#052321:00000000000000000000002300000000
#053371:00000000000000130000000000000000
#0533b1:00000023
#054321:0000000013000023
#054361:00000000000000000000003300000000
#0553a1:0000000014000024
#055361:00000000000000000000003400000000
#056371:00000000000000140000000000000000
#0563a1:0000000000240000
#057381:0000000000000016
#058361:00360000
#058351:0036
#058341:00000036
#059351:36
#059361:00360000
#059381:0026
#060371:13
#0603b1:00000023000000000000000000000000
#060361:0013
#060321:00000000000000000000002300000000
#060341:00000000000000000000000000001858
#060331:0000000000000000000000000000000000000000000000000000000000580000
#060351:0000000000000000000000000000000000000000000000000000000000000058
#061341:38585858385858582800000000000000
#061331:0058000000580000005800000058000000000000000000000000000000000000
#061351:0000005800000058000000580000005800000000000000000000000000000000
#062391:13
#062371:00270000
#062321:0000001700000000
#062341:0000000000230000
#062351:0000000000000000000000000000000000000000000000001600000000000056
#063331:3a3a3a3a
#063351:0056000000000056005600000000005600560000000000560056000026000000
#064351:00000000000000140000000000000000
#064321:0000000000240000
#066351:00000013000023000000000000000000
#0663b0:00000013000023000000000000000000
#066380:00000000000000000000001300002300
#066321:00000000000000000000001300002300
#067351:00000013000000000000000000000000
#067321:0000002300000000
#0673b0:00000013000000000000000000000000
#067380:0000002300000000
#068350:00001434343400343434240000000000
#068320:0000003400000000
#069340:00000000000000001838383828000000
#0733b0:1333
#0733a0:00330000000000330033000000000033
#073390:0033003300330033
#073380:00000033003300000000003300330000
#073370:00330033
#0743b0:23
#073361:0013
#073351:00000000000000000033000000000033
#073341:0000000000330033
#073331:00000000000000000000003300330000
#073321:00000033
#074361:23
#0773c1:000000000000000000000000000000000000000000000000000000000000000000000000000000000000000000000000000000000000000000000000000000000000125200000000000000000000000000000000000000000000000000000000000000000000000000000000000000000000000000000000000000000000000000000000000000000000000000000000000000000000000000000000000000000000000000000000000000000000000000000000000000000000000000000000000000000000000000000000000000000000000000000000000000000000000000000000000000000000000000000000000000000000000000000000000000000000000000000000000000000000000000000000000000000000000000000000000000000000000000000000000000000000000000000000000000000000000000000000000000000000000000000000000000000000000000000000000000000000000000000000000000000000000000000000000000000000000000000000
#0773a1:000000000000000000000000000000000000000000000000000000000000000000000000000000000000000000000000000000000000000000000000000000000000000000000000000000000000000000000000000000000000000000000000000000000000000000000000000000000000000000000000000000000000000000000000000000000000000000000000000000000000000000000000000000000000000000000000000000000000000000000000000000000000000000000000000000000000000000000000000000000000000000000000000000000000000000000000000000000000000000000000000000000000000000000000000000000000000000000000000000000000000000000000000000000000000000000000000000000000000000000000000000000000000000000000000000000000000000000000000000000000005400000000000000000000000000000000000000000000000000000000000000000000000000000000000000000000000000000000000000000000000000000000000000000000000000000000000000000000000000000000000000000000000000000000000000000000000000000000000000000000000000000000000000000000000000000000000000000000000000000000000000000000000000000000000000000000000000000000000000000000000000000000000000000000000000000000000000000000000000000000000000000000000000000000000000000000000000000000000000000000000000000000000000000000000000000000000000000000000000000000000000000000000000000000000000000000000000000000000000000000000000000000000000000000000000000000000000000000000000000000000000000000000000000000000000000000000000000000000000000000000000000000000000000000000000000000000000000000000000000000000000000000000000000000000000000000000000000000000000000000000000000000000000000000000000000000000000000000000000000000000000000000000000000000000000000000000000000000000000000000000000000000000000000000000000000000000000000000000000000000000000000000000000000000000000000000000000000000000000000000000000000000000000000000000000000000000000000000000000000000000000000000000000000000000000000000000000000000000000000000000000000000000000000000000000000000000000000000000000000000000000000000000000000000000000000000000000000000000000000000000000000000000000000000000000000000000000000000000000000000000000000000000000000000000000000000000000000000000000000000000000000000000000000000000000000000000000000000000000000000000000000000000000000000000000000000000000000000000000000000000000000000000000000000000000000000000000000000000000000000000000000000000000000000000000000000000000000000000000000000000000000000000000000000000000000000000000000000000000000000000000000000000000000000000000000000000000000000000000000000000000000000000000000000000000000000000000000000000000000000000000000000000000000000000000000000000000000000000000000000000000000000000000000000000000000000000000000000000000000000000000000000000000000000000000000000000000000000000000000000000000000000000000000000000000000000000000000000000000000000000000000000000000000000000000000000000000000000000000000000000000000000000000000000000000000000000000000000000000000000000000000000000000000000000000000000000000000000000000000000000000000000000000000000000000000000000000000000000000000000000000000000000000000000000000000000000000000000000000000000000000000000000000000000000000000000000000000000000000000000000000000000000000000000000000000000000000000000000000000000000000000000000000000000000000000000000000000000000000000000000000000000000000000000000000000000000000000000000000000000000000000000000000000000000000000000000000000000000000000000000000000000000000000000000000000000000000000000000000000000000000000000000000000000000000000000000000000000000000000000000000000000000000000000000000000000000000000000000000000000000000000000000000000000000000000000000000000000000000000000000000000000000000000000000000000000000000000000000000000000000000000000000000000000000000000000000000000000000000000000000000000000000000000000000000000000000000000000000000000000000000000000000000000000000000000000000000000000000000000000
#0793c1:22
