This file was generated by Ched 2.7.0.0.
#TITLE ""
#ARTIST ""
#DESIGNER ""
#DIFFICULTY 0
#PLAYLEVEL
#SONGID ""
#WAVE ""
#WAVEOFFSET 0
#JACKET ""
#REQUEST "ticks_per_beat 480"
#00002: 4
#BPM01: 140
#00008: 01
#TIL00: ""
#HISPEED 00
#MEASUREHS 00
#0021b:0000131300001313
#00212:2400000013130000
#00216:0000001200000012
#00218:0000000000120000
#0021a:24
#00312:1313000013000000
#0031b:0000131300001300
#00318:00001200000000001200120000120000
#00316:00000000000012000012000012001200
#00418:0000131300001313
#00412:1300001200000012
#00415:0000000013130000
#0041c:0000000000120000
#0041b:13
#00515:13001300000000001300130000130000
#0051c:0012000012000000
#00518:00000000130013000013000013001300
#00512:0000001200001200
#0091b:12
#00919:00120000120000000000120000000000
#00917:00001200001200000012000000001300
#00915:00000012000012000000000000130000
#00913:00000000000000120000000000000000
#0091c:0012
#00914:00000000000000000000001200000000
#0091a:00000013
#00912:00000000000000000000000000000013
#01418:0013000000000000
#01414:0000001300000000
#01415:0013000000000000
#01412:13241324
#0141b:00130000
#01419:0000000000130000
#01416:0000000000000013
#01417:00000013
#0141a:2424
#01819:0013000000000000
#01812:2600001300001300
#01815:0000000000000013
#01818:0000000000000000000000000000000000000000000000000013000000000000
#01816:00130000
#0181b:00000000000000001300001300000000
#01817:0000000000130000
#01814:0013000000000000
#01810:41
#0191b:13000000130000130000000000000000
#01915:00001300001300001300000013000000
#01918:00000013000000000000000000000000
#01912:1300130000130013
#02015:13000000000000000000001300000000
#0201b:0000001313001300
#02012:00000000000000000013000013000000
#02018:00000000000000000000130000130000
#02017:0013130000000000
#0211b:1300001300131300
#02112:00001212000000001300000013000013
#02115:00000000001212000000130000130000
#02118:0000000013000013
#02119:00130000
#02117:0013000000000000
#02515:00120000120000000000000000000000
#02519:00000012000012000012000000000000
#02517:00001200001200000000000000000000
#0251b:00000000000000120000000000120000
#02512:0000000016161616
#02513:12
#0251a:00000000000000000000001200000000
#0251c:00000000000000000000000000000012
#02612:26001313
#02615:00000000000000000000130000000013
#0261b:00001313
#02618:00001300130000000000001300001300
#02616:00000013000000000000000000000000
#02610:41
#02812:23001313000000001300000000000000
#0281b:13000000000000002300131300000000
#02816:00000000001313000000001300000000
#02817:00000013000000000000000000131300
#02918:0000001300000000001300000000000013000000000013000000000013000000
#0291b:13000013000000000000130000000000
#02915:00000013000000001300000000000013
#02912:2600000000000000001300000000000000000000130000001300000000000000
#03816:00001400000000000000140000140000
#0381a:14000000140000001400001400001400
#03812:24242424
#04016:00140014001400140014001400140014
#04012:0000242400002424
#0401a:2424000024240000
#04112:1400001200000000
#04114:00000000000000000000000000000014
#04117:0000000000000014
#0411c:0000001200000000
#0411a:24
#04217:13000000001300000000002300000000
#04216:0013000013000000
#04212:24000000000013000000001300000000
#0421b:00000013000000002300000000002300
#0421f:21
#0431b:00001300000000130000130000001300
#04312:13000000001300000000000000000000
#04317:13000000001300000000000013000000
#04316:0013000000000000
#04314:00000013000000000000000000000000
#04310:41
#0451b:13000000130000130000000000000000
#04516:0000000000000000000013000000000000000012000000000000000000000000
#04512:00001300000000130000000000000000
#04515:13
#04518:0000000013000000000000000000000000000012000000000000000000000000
#0561b:0013001300002300
#05618:13000013001300000000130000000000
#05615:00001300130000130000001316001600
#05612:1300000000000000000013000000000000130000000000000000000023000000
#05715:16161616000000000000000000000000
#05713:000000001a1a1a1a0000000000002500
#05712:00000000000000001c1c160025000000
#05718:0000000000160000
#05719:00000025
#0571b:23
#05710:41
#0581b:13131313
#0591b:13131300
#05914:0000000000130013
#05912:00000013
#05919:0000000000130013
#05917:00000013
#06016:1400001414000014
#0601a:1400000000000000000000001400000000000014000000000000000000000000
#06018:0000001400000000000000000000000000000000000000000000000000000000
#06012:0000001400000000000000000000000014000000000000000000000014000000
#06014:0000000000000000000000000000000000000014000000000000000000000000
#06215:00000014000016000000120012001600
#06219:0012120000000000
#06217:00000000000000000000001400000000
#06212:2323
#0621b:2323
#06618:00000013000000000000000000000000
#06619:00000000001300000000002500150000
#0661b:0000001313000000
#06612:24000013000000001300250000000000
#06616:0013000000000000
#06615:0000001300000000
#0661a:24
#06610:41
#06712:13001212
#06717:13
#06719:00000000000000120000000000000000
#0671c:0000000000120012
#06716:00000013000000000000000000000000
#0671b:00000013000000000000000000000000
#06715:0000001226262626
#0681b:00000013000000001300130013001300
#06816:00130000
#06818:0013000000000000
#06819:00000000001300000000000000000000
#06814:0000001300000000
#06817:00000000000000130000000000000000
#06812:1213
#06815:00000000000000000013000000000000
#06912:1300130000000000130000132c000000
#0691b:0000131313000000
#06915:00000000000000000013000000000000
#06918:0000000000130000
#0701a:2412240024002400
#07016:00140014001400140000140000001300
#07014:0000001200000000
#07019:00000000000000000000000000000012
#07012:14141414
#0711b:1300130013130013
#07116:00130013000013000000130000001300
#07119:00001200001200120000001200120000
#07112:24242424
#07217:13
#07216:00000000001400141300000000140014
#07212:2424242400130000
#0721b:0013000000000000
#0721a:0000000024242424
#07214:00000000000000000033003300000000
#07215:0000000000000000000000000000000000330000000000000000000000000000
#07218:0033000000000000000000000000000000000000000000000000000000000000
#07219:00330033000000000000000000000000
#03115:00000000000000001300000013000013
#03116:00000013000000000000000000000000
#0311b:1300130000130000
#03118:00001300000000001300001300001300
#03112:2600000000130000
#06519:2500000000152500
#06512:2500000000220000
#06514:0000002200000000
#03218:00130000000000000000130000000000
#03215:00001300000000000013000000000000
#0321b:13000013000013002300000013000000
#03212:23000000130000000000001300001300
#03217:0000000000000013
#03216:0000001300000000
#03219:00000000000000000000000000330033
#03214:00000000003300330000000000000000
#03312:13000013000000001300000000001600
#03318:00130000000000001600000000000000
#03317:00000000000000000016000000000000
#03316:0000000000160000
#03315:00001300000016000000001600000000
#03314:00000016
#03313:00000000000000000000000000160000
#0331b:23000013000000000000000000001300
#04812:1300000000130013
#04818:13000000130000130000000000000000
#0481b:00001300001300001300000013000000
#04815:00001300001300001300000000000000
#04816:00000013
#04817:0000000000130000
#02712:13001313
#02718:26000000000000000000130000000013
#02715:00001300130000000000001300001300
#0271b:00001313
#02717:00000013000000000000000000000000
#00816:0014001200140000
#00818:00000014000000000000000000001200
#00814:00000000000000000000001400000000
#0081a:24242424
#00812:24242424
#00618:00001200000000000000001200001200
#00616:00000012000012000000120000000000
#0061c:22121200
#00612:22001212
#00614:00120000
#0061a:00000012
#00715:00001300000000000000001300000000
#00718:00000013000000000000130000001200
#00716:0000001200000000
#0071b:23131313
#00712:23131313
#01014:0013001300130013
#01019:0013001300130013
#01016:00141414
#0101a:000000000000000000000000000000000000000000000000000000000000000000000000000000000000000000000000000000000000000000000000000000000000000000000000000000000000000000000000000000000000000000000000000000000000000000000000000000000000000000000000002400000000000000000000000000000000000000000000000000000000000000000000000000000000000000000000000000000000000000000000000000000000000000000000000000000000000000000000000000000000000000000000000000000000000000000000000000000000000000000000000000000000000000000000000000000000000000000000000000000000000000000000000000000000000000000000000000000000000000000000000000000000000000000000000000000000000000000000000000000000000000000000000000000000000000000000000000000000000000000000002400000000000000000000000000000000000000000000000000000000000000000000000000000000000000000000000000000000000000000000000000000000000000000000000000000000000000000000000000000000000000000000000000000000000000000000000000000000000000000000
#01012:280000000000000000000000000000000000000000000000000000000000000000000000000000000000000000000000000000000000000000000000000000000000000000000000000000000000000000000000000000000000000000000000000000000000000000000000000000000000000000000000000000000000000000000000000000000000000000000000000000000000000000000000000000000000000000000000000000000000000000000000000000000000000000000000000000000000000000000000000000000000000000000000000000000000000000000000000000000000000000000000002400000000000000000000000000000000000000000000000000000000000000000000000000000000000000000000000000000000000000000000000000000000000000000000000000000000000000000000000000000000000000000000000000000000000000000000000000000000000000000000000000000000000000000000000000000000000000000000000000000000000000000000000000000000000000000000000000000000000000000000000000000000000000000000000000000000000000000000000000000000000000000000000000000000000000000000000000000000000000000000
#01010:41
#0111b:0000001300130000
#01115:00000000000000000000001300001300
#01118:0000000000001313
#01112:24000000140000000000000000130000
#01116:1413001400000000
#01117:0013
#0111a:0014000000000000
#01219:0012001200120012
#01215:0012001200120012
#01216:24141414
#01212:00140014
#0121a:2414
#01517:0013000000000000
#01512:00000000130000001300000000130000
#01515:00000000000013000000001300001300
#01516:13
#0151b:00131313
#01518:0000001300130013
#0151a:24
#01616:0012000000121200
#01618:0012001200000012
#0161c:22121212
#01612:22121200
#03015:00001300000000001300001300001300
#03012:1300130000130000
#03017:00000013000000000000000000000000
#03018:26000000000000001300000000000013
#0301b:0000000000131300
#03916:00001400000000000000140000140000
#03912:14000000140000001400001400001400
#0391a:24242424
#03618:0000001300130014
#03615:00000000001300000000001300000000
#03612:00131313
#03614:0000000000000014
#0361a:24242424
#03414:0000120000001212
#03418:0000001200120012
#03416:00000000001200001200001200000000
#0341f:11
#0341b:23232323
#0351a:0000120000001212
#03516:0000001200120012
#03518:00000000001200001200001200000000
#03512:23232323
#04416:13000000001300000000002300000000
#04417:0013000013000000
#0441b:00000000000013000000001300000000
#04412:00000013000000002300000000002300
#0441a:24
#04912:00130013
#0491b:00000013001300000000000013000000
#04918:00000000000000000000000000000014
#04915:0013000000000000000000000000000013000000000000000000000014000000
#04917:13000000000000000013000000000000
#04919:00130000000000130000130000000000
#04913:0013001300000000
#04914:0000000000130000
#06314:00000018000014000000121812001400
#0631a:2412120024000000
#06318:0000001400000014
#06312:2424
#06416:00130000
#0641b:00000000001300000000000000000000
#06413:0013000000000000
#06419:00000013000000000000000000000000
#0641a:24
#06412:24
#0731b:1213
#07319:00120000120000000013000000000000
#07317:00001200001200000000130000000000
#07315:00000012000012000000001300000000
#07313:00000000000000120000000000000000
#07318:00000013
#07316:00000000000000000000000000130000
#07314:0000000000000013
#07312:00000000000000000000000000000013
#0741a:1400000000000000000000000000000000000000000000000000000000000012
#07412:0000000000000000000012000000001200000000000000000000000000000000
#07414:0000000000000000000000000000000000000012000000000000000000000000
#07416:0000000000000000000000000000000000000000000000120000000000000000
#07418:0000000000000000000012000000000000000000000000000000001200000000
#0751c:0012000000000000
#07515:0000000000120000
#07512:00000000001200000000000000000000
#07618:00120000000000000000000000000000
#0761a:00000000000000000012000000000000
#0131a:14140000
#01316:1400001413000000
#01317:0013000000000000
#01312:0014001300130000
#01318:00000000000000000000001300001300
#01315:0000000000001313
#0131b:00000000000000000000000000130000
#02214:0013000000000000
#0221b:0000001300001300
#02218:2600000000000013
#02215:0000000000000000000000000000000000000000000000000013000000000000
#02217:00130000
#02212:00000000000000001300001300000000
#02216:0000000000130000
#02219:0013000000000000
#02312:13000000130000130000000000000000
#02318:00001300001300001300000013000000
#02315:00000013000000000000000000000000
#0231b:1300130000130013
#02418:13000000000000000000001300000000
#02412:0000001313001300
#0241b:00000000000000000013000013000000
#02415:00000000000000000000130000130000
#02416:0013130000000000
#03718:26262616
#03712:13131300
#03717:0013001300130000
#01713:12000013
#01715:00120000120000000000120000000000
#01717:00001200001200000012000000000000
#01719:00000012000012000000000000000000
#0171b:00000000000000120000000000000013
#01712:0012
#0171a:00000000000000000000001200000000
#01718:00000000000000000000000000130000
#01716:0000000000000013
#05112:00001300000000130000130000001300
#0511b:13000000001300000000000000000000
#05116:13000000001300000000000013000000
#05117:0013000000000000
#05119:00000013000000000000000000000000
#0541c:0000001200000000
#05416:0000000000000000000000000000120000000000000000000013000000000000
#05418:00120000120000000000000000000000
#05412:12000000000000000000001300000000
#05415:0012000000000000
#0541b:00000012000000001300000000001300
#05417:0000000000000000000000000000000000000013000000000000000000000000
#05512:00000013000013001400000000001400
#05517:00000000000000130000000000000000
#0551a:00000000000000000000001400000000
#05516:0000000000000000000000000000000000000014000000000014000000000000
#05515:00130000130000000000000000000000
#0551b:13
#05518:0013000000000000
#06113:00000000000000000000241200000000
#0611b:00000000000000000000001200000000
#0611a:14140000
#06116:2214001400000000
#06119:0000000000240000
#06114:00220000
#06112:0022
#05312:1300000000000000130000000000000000000012000000000000000000000000
#05317:00000000001300000000000000000000
#05315:00001300000000130000000000000000
#05318:13000000000000130000000000000000
#0531b:0013000000000000
#0531c:0000000000000000000000000000000000000012000000000000000000000000
#04618:12120000000000120000000000000000
#0461c:00000012000000000000000000000000
#04616:0000001213000000
#04612:0000000000000000120000000000000000000013000000000000000013000000
#0461b:00000000000000000000001300000000
#04617:0000000000000000000000000000000000000000000000000013000000000000
#04715:13130000000000000000000000000000
#04712:00000013000000000000001400000000
#04716:0000000000000000000000000000130014000000000000000014000000000000
#0471a:0000000000000000000000000000000000000014000000000000000014000000
#0471b:00130000
#04717:0000001300000000
#05012:13000013000000000000000000001300
#05019:0013000000000000
#0501b:0000001313000000
#05017:00000000000000000000001300000000
#05016:00000000001300001300000000000000
#05014:00000000000000000000001300000000
#0501a:24
#0521b:13000013000000000000000000001300
#05214:0013000000000000
#05212:2400001313000000
#05216:00000000000000000000001300000000
#05217:00000000001300001300000000000000
#05219:00000000000000000000001300000000
#00252:14
#0025a:14
#04152:5400002200003400
#0415a:54000044
#0415c:0000002200000000
#04256:0053
#04257:53
#04252:14000000000000000000005300000000
#0385a:54540000
#03856:0054000000000000
#03852:14
#0435b:00005300000000530000000000000000
#04352:00000000005300000000000000000000
#04552:00005300000000530000000032000000
#04556:0000000000000000000000000000000000000022000000000000000000000000
#0455b:00000000000000630000000000000000
#04558:0000000000000000000000000000000000000022000000000000000000000000
#0455c:00000042
#05759:00000015
#0575b:43
#06056:64000044000000005400003400006400
#06058:0000002400000000000000000000000000000000000000000000000000000000
#0605a:6400000000000000000000000000000000000024000034000000000000000000
#06052:0000002400004400000000000000000054000000000000000000000000000000
#06054:0000000000000000000000000000000000000024000000000000000000000000
#06856:0000000000000014
#06956:0014001400000000
#06952:0000001c
#00452:13
#0045b:13
#0205b:1313
#02758:16
#02757:00000063000000000000000000000000
#02755:00630000
#0275b:00000063
#02752:0063
#02952:1600000000000000002300000000000000000000000000006300000000000000
#0295b:53000053000043000000000000000000
#02955:00000063000043000000000000000000
#02958:0000002300000000002300000000000000000000000000000000000000000000
#0285b:23
#02852:0023
#02857:00000063000000000000000000000000
#02856:00000000000000000000005300000000
#05655:00000000000000530000000000000000
#05658:00000000005300000000000000000000
#0565b:0000002300004300
#05652:0000000000000000000000000000000000230000000000000000000033000000
#06559:00000015
#07256:0063
#07257:63
#07252:0000000000230000
#0725b:0023000000000000
#01858:0000000000000000000000000000000000000000000000000023000000000000
#01852:16
#0185b:00000000000000000000005300000000
#0195b:00000000000000530000000000000000
#01452:0053
#0145b:00530000
#0145a:14
#01457:00000063
#02656:00000053000000000000000000000000
#02658:00530000
#02652:16000053
#0265b:0053
#03057:00000063000000000000000000000000
#03052:00630000
#03058:16
#03055:0000001300000000
#0305b:0000001300005300
#03156:00000053000000000000000000000000
#0315b:00530000
#03152:1600001300000000
#03158:0000001300000000
#03155:00000053
#03352:00000053000000000000000000000000
#0335b:43000053000000000000000000000000
#03355:0000001600000000
#03952:64640000
#03956:0064000000000000
#0395a:14
#0365a:14
#0345b:13
#03552:13
#01556:53
#00752:00000063
#0075b:00630000
#0085a:00540000
#00852:00000054
#04456:63
#04457:0063
#0445b:00000000000000000000006300000000
#0445a:14
#04952:00000013
#0495b:00000013
#06659:00000000000000000000000000250000
#06752:53
#0675b:00000063000000000000000000000000
#0745a:14
#0065c:00520000
#00652:00000062
#0325b:00000053
#03252:00530000
#03257:0000000000000023
#03256:0000002300000000
#01656:00000062
#01652:00620000
#0165c:0062
#01052:18
#01152:00540000
#01156:5400002400000000
#0115a:0024000000000000
#0135a:00640000
#01356:6400002400000000
#01352:0024000000000000
#02452:1313
#02255:0000000000000000000000000000000000000000000000000023000000000000
#02252:00000000000000000000006300000000
#02258:16
#02352:00000000000000630000000000000000
#03758:46464600
#03752:63636300
#03757:0023002300230000
#05152:00006300000000630000000000000000
#0515b:00000000006300000000000000000000
#0555a:00000000000000000000005400000000
#05552:0054
#05556:0000000000000000000000000000000000000024000000000024000000000000
#06154:00000012
#06153:00000000000000000000006200000000
#0615b:00000000000000000000005200000000
#0615a:64640012
#06156:0064006400000000
#0485b:00000053
#04857:0000000000530000
#05355:00000000000000630000000000000000
#0535b:0063000000000000
#05352:0000000000000000000000000000000000000022000000000000000000000000
#05358:00000000000000530000000042000000
#0535c:0000000000000000000000000000000000000022000000000000000000000000
#05356:00000032
#06457:00000043
#06456:0000000000000033
#0465b:00000000000000000000005300000000
#04657:0000000000000000000000000000000000000000000000000023000000000000
#04656:0053
#04652:0000000000000000000000000000000000000023000000000000000000000000
#04756:0000000000000000000000000000000064000000000000000024000000000000
#0475a:0000000000000000000000000000000000000024000000000000000000000000
#04752:00000000000000000000006400000000
#05052:5300000000000033
#0505b:0053
#05057:00000000000000000000005300000000
#05056:0033
#05054:00000000000000000000003300000000
#0505a:14
#0525b:6300000000000043
#05252:1463
#05256:00000000000000000000006300000000
#05257:0043
#05259:00000000000000000000004300000000
#05456:0000000000000000000000000000000000000000000000000023000000000000
#05457:0000000000000000000000000000000000000023000000000000000000000000
#0545b:0063
#05452:00000000000000000000006300000000
#0063c0:00120000
#006380:0000002200000000
#006320:00000012
#006360:0000000000000022
#0073b0:00130000
#007380:0000002200000000
#007320:00000013
#007360:0000000000000022
#0083a0:00140000
#008380:0000002200000000
#008320:00000014
#008360:0000000000000022
#011360:14240000
#0113a0:0034000000000000
#011321:00142400
#011361:0000003400000000
#013361:14240000
#013321:0034000000000000
#0133a0:00142400
#013360:0000003400000000
#0143b0:00130000
#014370:0000002300000000
#014320:0013
#014360:0000000000230000
#014370:00000013
#0143b0:0000000000000023
#015360:13
#015320:0023000000000000
#016320:00120000
#016360:0000002200000000
#0163c0:0012
#016380:0000000000220000
#016360:00000012
#016320:0000000000000022
#0183b0:00130000
#018370:0000002300000000
#018360:0013
#018320:0000000000230000
#0183b0:00000000000000000000001300002300
#018380:0000000000000000000000000000000000000000000000000053000000000000
#0193b0:00000000000000130000000000000000
#019370:0000000000230000
#0193b0:000000000000000000000000000000000000000000000000000000000000000000000000000000000000000000000000000000000000000000000000000000000000000000000000000000000000000000000000000000000000000000000000000000000000000000000000000000000000000000000000000000000000000000000000000000000000000000000000130000000000000000000053000000000000000000000000000000000000000000000000005300000000000000000000
#019370:000000000000000000000000000000000000000000000000000000000000000000000000000000000000000000000000000000000000000000000000000000000000000000000000000000000000000000000000000000000000000000000000000000000000000000000000000000000000000000000000000000000000000000000000000000000000000000000000000000000000000000000000000057000053000000000000330000000000005300005700000000000000000000000000
#0203b0:23
#020330:0013230000000000
#020320:000000000000000000000000005300530053005300530053000000000000000000000000000000000000000000000000000000000000000000000000000000000000000000000000000000000000000000000000000000000000000000000000
#020340:000000000000005353535353000000000000000000000000000000000000000000000000000000000000000000000000
#020360:0000001323000000
#020350:000000000000000000000000000000000000000000000000000000000000000000000000005300530053005300530053000000000000000000000000000000000000000000000000000000000000000000000000000000000000000000000000
#020370:000000000000000000000000000000000000005353535353000000000000000000000000000000000000000000000000
#020350:0000000000000013
#021320:23
#022320:00130000
#022360:0000002300000000
#022370:0013
#0223b0:0000000000230000
#022320:00000000000000000000001300002300
#022350:0000000000000000000000000000000000000000000000000053000000000000
#023320:00000000000000130000000000000000
#023360:0000000000230000
#023320:000000000000000000000000000000000000000000000000000000000000000000000000000000000000000000000000000000000000000000000000000000000000000000000000000000000000000000000000000000000000000000000000000000000000000000000000000000000000000000000000000000000000000000000000000000000000000000000000130000000000000000000053000057000000000000000000000000000000000000005700005300000000000000000000
#023360:000000000000000000000000000000000000000000000000000000000000000000000000000000000000000000000000000000000000000000000000000000000000000000000000000000000000000000000000000000000000000000000000000000000000000000000000000000000000000000000000000000000000000000000000000000000000000000000000000000000000000000000000000000000053000000000000330000000000005300000000000000000000000000000000
#024320:23
#0243a0:0013230000000000
#0243b0:000000000000000000000000005300530053005300530053000000000000000000000000000000000000000000000000000000000000000000000000000000000000000000000000000000000000000000000000000000000000000000000000
#024390:000000000000005353535353000000000000000000000000000000000000000000000000000000000000000000000000
#024370:0000001323000000
#024380:000000000000000000000000000000000000000000000000000000000000000000000000005300530053005300530053000000000000000000000000000000000000000000000000000000000000000000000000000000000000000000000000
#024360:000000000000000000000000000000000000005353535353000000000000000000000000000000000000000000000000
#024380:0000000000000013
#0253b0:23
#026360:00000013000000000000000000000000
#026320:0000002300000000
#026381:00130000
#0263b1:0000002300000000
#0263b1:0013
#026381:0000000000230000
#026321:00000013
#026351:0000000000000023
#027371:00000013000000000000000000000000
#0273b1:0000002300000000
#027350:00130000
#027320:0000002300000000
#027320:0013
#027350:0000000000230000
#0273b0:00000013
#027380:0000000000000023
#0283b0:1300002300000000
#028370:00000033000000000000000000000000
#028320:0000000013000023
#028360:00000000000000000000003300000000
#0293b0:13000033000023000000000000000000
#029380:0000005300000000005300000000000000000000000000000000000000000000
#029351:00000013000023000000000000000000
#029321:0000000000000000005300000000000000000000000000000000000000000000
#029321:00000013
#029351:0000000000000023
#030371:00000013000000000000000000000000
#0303b1:0000002300000000
#030320:00130000
#030350:0000002300000000
#0303b0:00000013
#030380:0000000000000023
#031360:00000013000000000000000000000000
#031320:0000002300000000
#0313b1:00130000
#031381:0000002300000000
#031351:00000013
#031321:0000000000000023
#032321:00132300
#032341:00000000003300330000000000000000
#032361:0000003300000000
#0323b1:00000013
#032391:00000000000000000000000000330033
#032371:0000000000000033
#0333b1:23
#033321:00000013000000000000000000000000
#033351:00000000002300000000000000000000
#0333b0:00000013000000000000000000000000
#033380:00000000002300000000000000000000
#034320:12
#034360:00000022000000000000000000000000
#0353c0:12
#035380:00000022000000000000000000000000
#036320:13
#036360:00000023000000000000000000000000
#037320:13333323
#037370:0033003300330000
#0383a0:14340000
#038360:0034002400000000
#039320:14340000
#039360:0034002400000000
#041320:14000024
#0413c0:0000005200000000
#0413a1:14000024
#041321:0000005200000000
#042371:13
#0423b1:0023000000000000
#042361:0013
#042321:0000000000230000
#042321:00000000000000000000001300000000
#042361:0000000000000023
#0433b1:0013000000000000
#043371:00230000
#043321:00000000001300000000000000000000
#043361:00000000000000230000000000000000
#0433b0:00000000000000130000000000000000
#043370:00000000000000000023000000000000
#043360:0000000000130023
#043320:00000033
#044360:13
#044320:0023000000000000
#044370:0013
#0443b0:0000000000230000
#0443b0:00000000000000000000001300000000
#044370:0000000000000023
#045320:0013000000000000
#045360:00230000
#045320:00000000000000130000000022000000
#045360:0000000000000000000000000000000000000052000000000000000000000000
#0453b1:00000000000000130000000000000000
#045381:0000000000000000000000000000000000000052000000000000000000000000
#0453c1:00000022
#046321:00120000000000000000000000000000
#046361:00000022000000000000000000000000
#046381:00120000
#0463c1:0000002200000000
#046361:00000000000000001300002300000000
#046321:0000000000000000000000000000000000000053000000000000000000000000
#0463b0:00000000000000000000001300002300
#046370:0000000000000000000000000000000000000000000000000053000000000000
#0473b0:00130000000000000000000000000000
#047370:00000023000000000000000000000000
#047360:00130000
#047320:0000002300000000
#047360:00000000000000001400002400000000
#0473a0:0000000000000000000000000000000000000054000000000000000000000000
#047321:00000000000000000000001400002400
#047361:0000000000000000000000000000000000000000000000000054000000000000
#048371:0000000000130023
#0483b1:00000033
#050321:13
#050361:0023000000000000
#0503b1:0013
#050371:0000000000230000
#050371:00000000000000000000001300000000
#0503b1:0000000000000023
#051321:0013000000000000
#051361:00230000
#0513b1:00000000001300000000000000000000
#051371:00000000000000230000000000000000
#051320:00000000000000130000000000000000
#051360:00000000000000000023000000000000
#051370:0000000000130023
#0513b0:00000033
#0523b0:13
#052370:0023000000000000
#052320:0013
#052360:0000000000230000
#052360:00000000000000000000001300000000
#052320:0000000000000023
#0533b0:0013000000000000
#053370:00230000
#053350:00000000000000130000000000000000
#053320:0000000000000000000000000000000000000052000000000000000000000000
#053360:00000022
#053381:00000000000000130000000022000000
#0533c1:0000000000000000000000000000000000000052000000000000000000000000
#054321:00120000
#054361:0000002200000000
#0543b1:00000000000000001300002300000000
#054371:0000000000000000000000000000000000000053000000000000000000000000
#054320:00000000000000000000001300002300
#054360:0000000000000000000000000000000000000000000000000053000000000000
#0553b0:00130000
#055370:0000002300000000
#055320:00000000000000001400002400000000
#055360:0000000000000000000000000000000000000054000000000000000000000000
#0553a1:00000000000000000000001400002400
#055361:0000000000000000000000000000000000000000000000000054000000000000
#056381:00000000001300230000000000000000
#0563b1:0000005300000000
#056350:00000000000000130000230000000000
#056320:0000000000000000000000000000000000530000000000000000000000000000
#057330:0000000000000015
#057350:0000000000000000000000000000000000000000000000000000000000570057
#057320:00000000000000000000000000000057
#058320:57575757575757575757575757575757
#058350:0057005700570057005700570057005700570057005700570057005700570057
#059320:57575757575757570000000000000000
#059350:0057005700570000005700570057005700000000000000000000000000000000
#059360:0000000000000056000000000000000000000000000000000000000000000000
#059330:0025
#0603a0:14
#060320:0000005400000000000000000000000000000000000000000000000000000000
#060360:00000024000000000000000000000000
#060361:14
#060381:0000005400000000000000000000000000000000000000000000000000000000
#060321:00000024000000000000000000000000
#060321:0014
#0603a1:0000000000000000000000000000000000000054000000000000000000000000
#060361:00000000000000000000002400000000
#060360:0014
#060340:0000000000000000000000000000000000000054000000000000000000000000
#0603a0:00000000000000000000002400000000
#060360:0000000000000014
#0613a0:54542400
#061360:0054005400000000
#061330:000000000000000000000000000000000000000000000000000000000000000000000000000000000000000000000000000000000000000000000000000000000000000000000000000000000000000000000000000000000000000000000000000000000000000000000000000000000000000000000000000000000000000000000000000000000000000000000000000000000000000000000000000000000000000000000000000000000000000000000000000000000000000000000000000000000000000000000000000000000000000000000000000000000000000000000000000000000000000000000000000000000000000000000000000000000000000000000000000000000000000000000000000000000000000000000000000000000000000000000000140000000000000000000000000000000000000000000000000000000054520000000000000000000000000000000000000000000000000000000000000000000000000000000000000000000000000000000000000000000000000000000000000000000000000000000000000000000000000000000000000000000000000000000000000000000000000000000000000000000000000000000000000000000000000000000000000000000000000000000000
#061340:00000022
#061391:000000000000000000000000000000000000000000000000000000000000000000000000000000000000000000000000000000000000000000000000000000000000000000000000000000000000000000000000000000000000000000000000000000000000000000000000000000000000000000000000000000000000000000000000000000000000000000000000000000000000000000000000000000000000000000000000000000000000000000000000000000000000000000000000000000000000000000000000000000000000000000000000000000000000000000000000000000000000000000000000000000000000000000000000000000000000000000000000000000000000000000000000000000000000000000000000000000000000000000000000140000000000000000000000000000000000000000000000000000000054000000000000000000000000000000000000000000000000000000000000000000000000000000000000000000000000000000000000000000000000000000000000000000000000000000000000000000000000000000000000000000000000000000000000000000000000000000000000000000000000000000000000000000000000000000000000000000000000000000000000
#0613b1:00000000000000000000005200000000
#0613a1:00000022
#064361:00000000001300000000000000000000
#064321:00000000000000230000000000000000
#064360:00000000000000130000000000000000
#0643b0:0000000000530000
#064370:00000023
#064361:0000000000130023
#064321:00000053
#065341:000000000000000000000000000000000000000000000000000000000000000000000000000000000000000000000000000000000000000000000000000000000000000000000000000000000000000000000000000000000000000000000000000000000000000000000000000000000000000000000000000000000000000000000000000000000000000000000000000000000000000000000000000000000000000000000000000000000000000000000000120000000000000000000000000000000000000000000000000000000054000000000000000000000000000000000000000000000000000000000000000000000000000000000000000000000000000000000000000000000000000000000000000000000000000000000000000000000000000000000000000000000000000000000000000000000000000000000000000000000000000000000000000000000000000000000000000000000000000000000000000000000000000000000000000000000000000000000000000000000000000000000000000000000000000000000000000000000000000000000000000000000000000000000000000000000000000000000000000000000000000000000000000000000000000000000000000000000000000000000000
#065351:000000000000000000000000005200000000000000000000000000000000
#065361:0022
#065321:000000000000000000000000000000000000000000000000000000000000000000000000000000000000000000000000000000000000000000000000000000000000000000000000000000000000000000000000000000000000000000000000000000000000000000000000000000000000000000000000000000000000000000000000000000000000000000000000000000000000000000000000000000000000000000000000000000000000000000000000000000000000000000000000000000000000000000000000000000000000000000000000000000000000000000000000000000000000000000000000000000000000000000000000000000000000000000000000000000000000000000000000000000000000000000000000000000000000000000000000120000000000000000000000000000000000000000000000000000000000000000000000000000000000000000000000000000000000000000000000005600000000000000000000000000000000000000000000000000000000000000000000000000000000000000000000000000000000000000000000000000000000000000000000000000000000000000000000000000000000000000000000000000000000000000000000000000000000000000000000
#065341:00000032
#065361:0000000000000022
#066321:0000000000155400
#066331:000000000000000000000000000000000000000000000000000000000000000000000000000000000000000000000000000000000000000000000000000000000000000000000000000000000000000000000000000000000000000000000000000000000000000000000000000000000000000000000000000000000000000000000000000000000000000000000000000000000000000000000000000000000000000000000000000000000000000000000000000000000000000000000000000000000000000000000000000000000000000000000000000000000000000000000000000000000000000000000000000000000000000000000000000000000000000000000000000000000000000000000000000000000000000000000000000000000000000000000000000000000000000000000000000000000000000000000000000000000000000000000000000000000000000000000000000000000000000000000000000000000000000000000000000000000000000000000000000000000000000000000000000000000000000000000000000000000000000000000000000000000000000000000000000000000000000000000000000000000000000000000000000000000000000000000000000000000000000000000000000000000000000000000000000000000000000000000000000000000000000000000000000000000000000000000000000000000000000000000000000000000000000000000000000000000000000000000000000000000000000000000000000000000000000000000000000000000000000000000000005300000000000000000000000000000000000000000000000000000000000000000000000000000000000000000000000000000000000000000000000000000000000000000000000000000000000000000000000000000000000000000000000000000000000000000000000000000000000000005300000000000000000000000000000000000000000000000000000000000000000000000000000000000000000000000000000000000000000000000000230000000000000000000000000000000000000000000000000000000000000000000000000000000000000000000000000000000000000000000000000000000000000000000000000000000000000000000000000000000000000000000000000000000000000000000000000000000000000000000000000000000000000000000000000000000000000000000000000000000000000000000000000000000000000000000000000000000000000000000000
#066390:000000000000000000000000000000000000000000000000000000000000000000000000000000000000000000000000000000000000000000000000000000000000000000000000000000000000000000000000000000000000000000000000000000000000000000000000000000000000000000000000000000000000000000000000000000000000000000000000000000000000000000000000000000000000000000000000000000000000000000000000000000000000000000000000000000000000000000000000000000000000000000000000000000000000000000000000000000000000000000000000000000000000000000000000000000000000000000000000000000000000000000000000000000000000000000000000000000000000000000000000000000000000000000000000000000000000000000000000000000000000150000000000000000000000555200000000000000000000000000000000000000000000000000000000000000000000000000000000000000000000550000000000000000000000000000000000000000000000000000000000000000000000000000000000000000000000000000000000000000000000000000000000000000000000000000000000000000000000000000000000
#0663c0:000000000000000000000000000000000000000000000000000000000000000000000000000000000000000000000000000000000000000000000000000000000000000000000000000000000000000000000000000000000000000000000000000000000000000000000000000000000000000000000000000000000000000000000000000000000000000000000000000000000000000000000000000000000000000000000000000000000000000000000000000000000000000000000000000000000000000000000000000000000000000000000000000000000000000000000000000000000000000000000000000000000000000000000000000000000000000000000000000000000000000000000000000000000000000000000000000000000000000000000000000000000000000000000000000000000000000000000000000000000000000000000000000000000000000000000000000000000000000000000000000000000000000000000000000000000000000000000000000000000052000000000000000000000000000000000000000000000000000000000000000000000000000000000000000000000000000000000000000000000000000000000000000000000000000000000000000000000000000000000000
#0663a0:0000000000000023
#067320:13
#067360:0023000000000000
#0673b0:00000013000000000000000000000000
#067370:00000000002300000000000000000000
#068320:00000014
#068360:0000000000000024
#0693a0:14
#069360:0024000000000000
#069320:00140000
#069360:0000002400000000
#072370:13230000
#072380:0033000000000000000000000000000000000000000000000000000000000000
#072390:00330033000000000000000000000000
#0723b0:0033000000000000
#072360:00001323
#072350:0000000000000000000000000000000000330000000000000000000000000000
#072340:00000000000000000033003300000000
#072320:0000000000330000
#0773c0:000000000000000000000000000000000000000000000000000000000000000000000000000000000000000000000000000000000000000000000000000000000000125200000000000000000000000000000000000000000000000000000000000000000000000000000000000000000000000000000000000000000000000000000000000000000000000000000000000000000000000000000000000000000000000000000000000000000000000000000000000000000000000000000000000000000000000000000000000000000000000000000000000000000000000000000000000000000000000000000000000000000000000000000000000000000000000000000000000000000000000000000000000000000000000000000000000000000000000000000000000000000000000000000000000000000000000000000000000000000000000000000000000000000000000000000000000000000000000000000000000000000000000000000000000000000000000000000000
#0773a0:000000000000000000000000000000000000000000000000000000000000000000000000000000000000000000000000000000000000000000000000000000000000000000000000000000000000000000000000000000000000000000000000000000000000000000000000000000000000000000000000000000000000000000000000000000000000000000000000000000000000000000000000000000000000000000000000000000000000000000000000000000000000000000000000000000000000000000000000000000000000000000000000000000000000000000000000000000000000000000000000000000000000000000000000000000000000000000000000000000000000000000000000000000000000000000000000000000000000000000000000000000000000000000000000000000000000000000000000000000000000005400000000000000000000000000000000000000000000000000000000000000000000000000000000000000000000000000000000000000000000000000000000000000000000000000000000000000000000000000000000000000000000000000000000000000000000000000000000000000000000000000000000000000000000000000000000000000000000000000000000000000000000000000000000000000000000000000000000000000000000000000000000000000000000000000000000000000000000000000000000000000000000000000000000000000000000000000000000000000000000000000000000000000000000000000000000000000000000000000000000000000000000000000000000000000000000000000000000000000000000000000000000000000000000000000000000000000000000000000000000000000000000000000000000000000000000000000000000000000000000000000000000000000000000000000000000000000000000000000000000000000000000000000000000000000000000000000000000000000000000000000000000000000000000000000000000000000000000000000000000000000000000000000000000000000000000000000000000000000000000000000000000000000000000000000000000000000000000000000000000000000000000000000000000000000000000000000000000000000000000000000000000000000000000000000000000000000000000000000000000000000000000000000000000000000000000000000000000000000000000000000000000000000000000000000000000000000000000000000000000000000000000000000000000000000000000000000000000000000000000000000000000000000000000000000000000000000000000000000000000000000000000000000000000000000000000000000000000000000000000000000000000000000000000000000000000000000000000000000000000000000000000000000000000000000000000000000000000000000000000000000000000000000000000000000000000000000000000000000000000000000000000000000000000000000000000000000000000000000000000000000000000000000000000000000000000000000000000000000000000000000000000000000000000000000000000000000000000000000000000000000000000000000000000000000000000000000000000000000000000000000000000000000000000000000000000000000000000000000000000000000000000000000000000000000000000000000000000000000000000000000000000000000000000000000000000000000000000000000000000000000000000000000000000000000000000000000000000000000000000000000000000000000000000000000000000000000000000000000000000000000000000000000000000000000000000000000000000000000000000000000000000000000000000000000000000000000000000000000000000000000000000000000000000000000000000000000000000000000000000000000000000000000000000000000000000000000000000000000000000000000000000000000000000000000000000000000000000000000000000000000000000000000000000000000000000000000000000000000000000000000000000000000000000000000000000000000000000000000000000000000000000000000000000000000000000000000000000000000000000000000000000000000000000000000000000000000000000000000000000000000000000000000000000000000000000000000000000000000000000000000000000000000000000000000000000000000000000000000000000000000000000000000000000000000000000000000000000000000000000000000000000000000000000000000000000000000000000000000000000000000000000000000000000000000000000000000000000000000000000000000000000000000000000000000000000000000000000000000000000000000000000000000000000000000000000000000000000000000000000000000000000000000000000000000000000000000000000000000000000
#0793c0:22
