This file was generated by Ched 2.7.0.0.
#TITLE ""
#ARTIST ""
#DESIGNER ""
#DIFFICULTY 0
#PLAYLEVEL
#SONGID ""
#WAVE ""
#WAVEOFFSET 0
#JACKET ""
#REQUEST "ticks_per_beat 480"
#00002: 4
#BPM01: 140
#00008: 01
#TIL00: ""
#HISPEED 00
#MEASUREHS 00
#00214:0014
#0021a:24
#00314:0014
#0031a:14000014
#00412:14
#00418:0014
#00512:14000014
#00518:0014
#00614:00140000
#0061a:00001414
#00618:24
#00718:00140000
#00712:00001414
#00714:14
#00812:00140000
#00818:00001414
#0081a:14
#01018:00140000
#01014:0014
#0101a:00000014
#01012:24
#01010:41
#01214:00140000
#0121a:14
#01218:0014
#01212:00000014
#0131a:14
#01319:0014
#01313:0014
#01414:14
#01412:0014
#0141a:00140000
#01418:00000014
#01112:14
#01113:0014
#01119:0014
#01514:14
#01519:0014
#01513:0014
#01618:14
#01612:00140000
#0161a:0014
#01614:00000014
#01814:00140000
#01818:0014
#0181a:24
#01810:41
#01912:14
#01918:00140000
#01914:0014
#0201a:1414
#02012:1414
#02212:14
#02218:00140000
#02214:0014
#0231a:14
#02314:00140000
#02318:0014
#02412:1414
#0241a:1414
#02614:00140000
#0261a:0014
#02618:24
#02610:41
#02714:14
#02718:00140000
#02712:0014
#0281a:14
#02814:00140000
#02818:0014
#02812:00000014
#02918:14
#02914:00140000
#0291a:0014
#03014:14
#03018:00140000
#03012:0014
#03118:14
#03114:00140000
#0311a:0014
#03212:14
#03218:00140000
#03214:0014
#0321a:00000014
#03314:14
#03318:00140000
#03312:0014
#03618:14
#0361a:00140000
#04212:00140000
#04218:0014
#0421a:24000014
#04214:0000000000140000
#0421f:21
#04312:14
#0431a:00140000
#04314:0014
#04318:00000014
#04310:41
#04412:14000014
#0441a:00140000
#04414:0014
#04418:0000000000140000
#0451a:14
#04512:00140000
#04518:0014
#04514:00000014
#0481a:14
#04814:00140000
#04818:0014
#04812:00000014
#04918:14
#04915:00140000
#04912:0014
#0491a:0014
#05815:00000016
#05818:26
#05816:0036
#05817:00360000
#06118:1616
#06112:00160016
#06514:00000014
#06518:2614
#06617:00140000
#0661a:24000014
#06610:41
#06715:00140000
#06712:14000014
#06912:14
#06915:00000014
#0681a:14
#06817:00000014
#07012:00140000
#07014:0000000000140000
#07018:00001414
#0701a:24
#0711a:00140000
#07118:0000000000140000
#07114:00001414
#07112:24
#0721a:14001414
#07212:14141400
#07218:00140000
#07214:00000014
#07318:16
#07314:0016
#07317:0036000000000036
#07316:00360036
#07315:0000003600360000
#02118:1414
#02114:00140000
#02514:1414
#02518:00140000
#04012:1414
#04015:00140014
#04112:14
#04115:0000001400000000
#05412:1414
#05415:00140000
#0551a:1414
#05517:00140000
#0501a:00140000
#05014:0014
#05012:24000014
#05018:0000000000140000
#0511a:14
#05112:00140000
#05118:0014
#05114:00000014
#0521a:14000014
#05212:00140000
#05218:0014
#05214:0000000000140000
#05312:14
#0531a:00140000
#05314:0014
#05318:00000014
#05612:14
#05618:00140000
#05614:0014
#0561a:00000014
#05714:14
#05717:00140000
#0571a:0014
#05712:0014
#05710:41
#0341f:11
#03718:2626
#03712:00260000
#06418:2626
#06412:00260026
#05917:00360000
#05916:36
#01052:14
#0365a:00240000
#03658:54
#03758:1616
#03752:00160000
#05855:00000026
#05858:66
#06152:00000016
#06558:16
#0665a:54
#06657:00240000
#06755:00240000
#06752:54
#06952:54
#06955:00000014
#0685a:64
#07358:66
#07354:0026
#07458:16
#04052:5454
#04055:00240024
#04152:54
#04155:0000002400000000
#05452:6464
#05455:00640000
#0555a:6464
#05557:00640000
#009320:14000024
#009330:0034000000340000
#009340:00343400
#009350:0000003400000000
#0173a0:14000024
#017390:0034000000340000
#017380:00343400
#017370:0000003400000000
#034380:14
#034390:00340000
#0343a0:0024
#035320:14
#035330:00340000
#035340:0024
#036380:1424
#0363a0:00340000
#038340:14
#038330:00340000
#038320:0024
#0393a0:14
#039390:00340000
#039380:0024
#040320:1434
#040350:00340034
#041320:34000024
#041350:0000005400000000
#0463a0:1434
#046370:00340024
#047320:1434
#047350:00340024
#054320:1434
#054350:00340024
#0553a0:1434
#055370:00340024
#058380:16
#058370:00360000
#058360:0036
#058350:00000036
#059360:36
#059370:00360000
#059380:0026
#060370:14
#0603a0:00240000
#060350:0014
#060320:00000024
#0623a0:14
#062380:00240000
#062320:0014
#062340:00000024
#063380:14
#0633a0:00240000
#063340:0014
#063320:00000024
#0663a0:1424
#066370:00540000
#067320:1424
#067350:00540000
#0683a0:14
#068370:0024
#069320:14
#069350:0024
#073380:16
#073370:0036000000000036
#073360:00360036
#073350:0000003600360000
#073340:0036
#074380:26
#074320:0000000000000000000015000000003500000035000000350000003500000035
#075320:00003500003500000000000000000000
#075330:000000000000000000000000000000000000000000000000000000000000000000000000000000000000000000000000000000000000000000000000000000000000000000000000000000000000000000000000000000000000000000000000000000000000000000000000000000000000000000000000000000000000000000000000000000000000000000000000000000000000000000000000000000000000000000000000000000000000000000000000000000000000000000000000000000000000000000000000000000000000000000000000000000000000000000000000000000000000000000000000000000000000000000000000000000000000000000000000000000000000000000000000000000000000000000000000000000000000000000000000005400000000000000000000000000000000000000000000000000000000000000000000000000000000000000000000000000000000000000000000000000000000000000000000000000000000000000000000000000000000000000000000000000000000000000000000000000000000000000000000000000000000000000000000000000000000000000000000000000000000000000000000000000000000000000000000000000000000000000000000000000000000000000000000000000000000000000000000000000000000000000000000000000000000000000000000000000000000000000000000000000000000000000000000000000000000000000000000000000000000000000000000000000000000000000000000000000000000000000000054350000000000000000000000000000000000000000000000000000000000000000000000000000000000000000000000000000000000000000000000000000000000000000000000000000000000000000000000000000000000000000000000000000000000000000000000000000000000000000000000000000000000000000000000000000000000000000000000000000000000000000000000000000000000000000000000000000000000000000000000000000000000000000000000000000000000000000000000000000000000000000000000000000000000000000000000000000000000000000000000000000000000000000000000000000000000000000000000000000000000000000000000000000000000000000000000000000000000000000000000000000000000000000000000000000000000000000000000000000000000000000000000000000000000000000000000000000000000000000000000
#075340:000000000000000000000000000000000000000000000000000000000000000000000000000000000000000000000000000000000000000000000000000000000000000000000000000000000000000000000000000000000000000000000000000000000000000000000000000000000000000000000000000000000000000000000000000000000000000000000000000000000000000000000000000000000000000000000000000000000000000000000000000000000000000000000000000000000000000000000000000000000000000000000000000000000000000000000000000000000000000000000000000000000000000000000000000000000000000000000000000000000000000000000000000000000000000000000000000000000000000000000000000000000000000000000000000000000000000000000000000000000000000000000000000000000000000000000000000000000000000000000000000000000000000000000000000000000000000000000000000000000000000000000000000000000000000000000000000000000000000000000000000000000000000000000000000000000000000000000000000000000000000000000000000000000000000000000000000000000000000000000000000000000000000000000000000000000000000000000000000000000000000000000000000000000000000000000000000000000000000000000000000000000000000000000000000000000000000000000000000000000000000000000000000000000000000000000000000000000000000000000000005400000000000000000000000000000000000000000000000000000000000000000000000000000000000000000000000000000000000000000000000000000000000000000000000000000000000000000000000000000000000000000000000000000000000000000000000000000000000000000000000000000000000000000000000000000000000000000000000000000000000000000000000000000000000000000000000000000000000000000000000000000000000000000000000000000000000000000000000000000000000000000000000000000000000000000000000000000000000000000000000000000000000000000000000000000000000000000000000000000000000000000000000000000000000000000000000000000000000000000000000000000000000000000000000000000000000000000000000000000000000000000000000000000000000000000000000000000000000000000000
#076340:000000000000000000000000000000000000000000000000000000000000000000000000000000000000000000000000000000000000000000000054350000000000000000000000000000000000000000000000000000000000000000000000000000000000000000000000000000000000000000000000000000000000000000000000000000000000000000000000000000000000000000000000000000000000000000000000000000000000000000000000000000000000000000000000000000000000000000000000000000000000000000000000000000000000000000000000000000000000000000000000000000000000000000000000000000000000000000000000000000000000000000000000000000000000000000000000000000000000000000000000000000000000000000000000000000000000000000000000000000000000000000000000000000000000000000000000000000000000000000000000000000000000000000000000000000000000000000000000000000000000000000000000000000000000000000000000000000000000000000000000000000000000000000000000000000000000000000000000000000000000000000000000000000000000000000000000000000000000000000000000000000000000000000000000000000000000000000000000000000000000000000000000000000000000000000000000000000000000000000000000000000000000000000000000000000000000000000000000000000000000000000000000000000000000000000000000000000000000000000000000000000000000000000000000000000000000000000000000000000000000000000000000000000000000000000000000000000000000000000000000000000000000000000000000000000000000000000000000000000000000000000000000000000000000000000000000000000000000000000000000000000000000000000000000000000000000000000000000000000000000000000000000000000000000000000000000000000000000000000000000000000000000000000000000000000000000000000000000000000000000000000000000000000000000000000000000000000000000000000000000000000000000000000000000000000000000000000000000000000000000000000000000000000000000000000000000000000000000000000000000000000000000000000000000000000000000000000000000000000000000000000000000000000000000000000000000000000000000000000000000
#076350:000000000000000000000000000000000000000000000000000000000000000000000000000000000000000000000000000000000000000000000000005400000000000000000000000000000000000000000000000000000000000000000000000000000000000000000000000000000000000000000000000000000000000000000000000000000000000000000000000000000000000000000000000000000000000000000000000000000000000000000000000000000000000000000000000000000000000000000000000000000000000000000000000000000000000000000000000000000000000000000000000000000000000000000000000000000000000000000000000000000000000000000000000000000000000000000000000000000000000000000000000000000000000000000000000000000000000000000000000000000000000000000000000000000000000000000000000000000000000000000000000000000000000000000000000000000000000000000000000000000000000000000000000000000000000000000000000000000000000000000000000000000000000000000000000000000000000000000000000000000000000000000000000000000000000000000000000000000000000000000000000000000000000000000000000000000000000000000000000000000000000000000000000000000000000000000000000000000000000000005400350000000000000000000000000000000000000000000000000000000000000000000000000000000000000000000000000000000000000000000000000000000000000000000000000000000000000000000000000000000000000000000000000000000000000000000000000000000000000000000000000000000000000000000000000000000000000000000000000000000000000000000000000000000000000000000000000000000000000000000000000000000000000000000000000000000000000000000000000000000000000000000000000000000000000000000000000000000000000000000000000000000000000000000000000000000000000000000000000000000000000000000000000000000000000000000000000000000000000000000000000000000000000000000000000000000000000000000000000000000000000000000000000000000000000000000000000000000000000000000000000000000000000000000000000000000000000000000000000000000000000000000000000000000000000000000000000000000000000000000000
#076360:000000000000000000000000000000000000000000000000000000000000000000000000000000000000000000000000000000000000000000000000000000000000000000000000000000000000000000000000000000000000000000000000000000000000000000000000000000000000000000000000000000000000000000000000000000000000000000000000000000000000000000000000000000000000000000000000000000000000000000000000000000000000000000000000000000000000000000000000000000000000000000000000000000000000000000000000000000000000000000000000000000000000000000000000000000000000000000000000000000000000005400000000000000000000000000000000000000000000000000000000000000000000000000000000000000000000000000000000000000000000000000000000000000000000000000000000000000000000000000000000000000000000000000000000000000000000000000000000000000000000000000000000000000000000000000000000000000000000000000000000000000000000000000000000000000000000000000000000000000000000000000000000000000000000000000000000000000000000000000000000
#077360:00000000000000000000000000000000000000000000000000000000005400000000000000000000000000000000000000000000000000000000000000000000000000000000000000000000000000000000000000000000000000000000000000000000000000000000000000000000000000000000000000000000000000000000000000000000000000000000000000000000000000000000000000000000
#077350:000000000000000000000000000000000000000000000000000000000000000000000000000000000000000035540000000000000000000000000000000000000000000000000000000000000000000000000000000000000000000000000000000000000000000000000000000000000000000000000000000000000000000000000000000000000000000000000000000000000000000000000000000000000000000000000000000000000000000000000000000000000000000000000000000000000000000000000000000000000000000000000000000000000000000000000000000000000000000000000000
#079350:24
