This file was generated by Ched 2.7.0.0.
#TITLE ""
#ARTIST ""
#DESIGNER ""
#DIFFICULTY 0
#PLAYLEVEL
#SONGID ""
#WAVE ""
#WAVEOFFSET 0
#JACKET ""
#REQUEST "ticks_per_beat 480"
#00002: 4
#BPM01: 124
#00008: 01
#TIL00: ""
#HISPEED 00
#MEASUREHS 00
#00112:14
#00218:14
#00312:14
#00418:14
#00514:14
#0061a:14
#00714:14
#0081a:14
#00912:14
#00910:41
#01018:14
#01112:14
#01218:14
#01714:14
#01710:41
#01818:14
#01912:14
#0201a:14
#02114:14
#0221a:14
#02314:14
#0241a:14
#02914:14
#03014:14
#03118:14
#03218:14
#03714:14
#03812:0016
#03818:26
#04012:16
#04018:0016
#04218:1616
#04210:41
#04312:1616
#04418:16
#04412:0016
#04612:16
#04618:0016
#04918:14
#05014:14
#05518:2616
#0551f:21
#05712:1616
#05918:1616
#06012:1616
#06118:16
#06112:0016
#06312:16
#06318:0016
#0471f:11
#06619:00000024
#06613:00000024
#05610:41
#02510:41
#03310:41
#013340:14
#014340:24
#0153a0:14
#0163a0:24
#025320:14
#026320:24
#027380:14
#028380:24
#033320:14
#034340:24
#0353a0:14
#036380:24
#039380:1626
#041320:1626
#045380:1626
#047320:16
#048320:26
#051380:14
#0523a0:24
#053340:14
#054320:24
#056380:1626
#058320:1626
#062380:1626
#064320:1636
#065320:3636
#066320:26
