This file was generated by Ched 2.7.0.0.
#TITLE ""
#ARTIST ""
#DESIGNER ""
#DIFFICULTY 0
#PLAYLEVEL
#SONGID ""
#WAVE ""
#WAVEOFFSET 0
#JACKET ""
#REQUEST "ticks_per_beat 480"
#00002: 4
#BPM01: 124
#00008: 01
#TIL00: ""
#HISPEED 00
#MEASUREHS 00
#0011b:13000000000000000000001300000000
#00118:0000001313000000
#00112:2300130013000013
#00115:00000000000000000000001300000000
#0021b:0013000000232300
#00219:00130000
#00217:0000001300000000
#00212:13131313
#00215:0000000000130013
#0081b:00131313
#00817:0000000000130013
#00812:1313000000232300
#00814:00130000
#00816:0000001300000000
#00916:13
#0091b:1313130000000000
#00912:0000001313001300
#00915:0000000000000013
#00918:00000013
#00910:41
#01015:0013000000000000
#01012:0000001300000000
#01018:0000000000130000
#0101b:0000000000000013
#01115:00000013
#01112:1313130000000013
#01118:0000000000130000
#01117:13
#0111b:0000001313000000
#01216:13130013
#01212:0013001300130013
#0121b:1313
#01217:0013001300130013
#0131b:13001300000000001300130000000013
#01315:00130013000000000000130000001300
#01318:00000000130013000000000000130000
#01312:00000000001300130000000013000000
#0141b:00000000001300130000000013000000
#01418:00130013000000000000130000130000
#01415:0000131300000013
#01412:13001300000000001300130000000013
#01518:13000000001300000000131300001300
#01515:00001313000013001300000000130000
#0151b:00000000000000130000000000000000
#01612:1300000013130000
#01616:0000131300001313
#01715:00130000
#01718:0013001300000000
#01712:23000000000013000000000000130000
#01716:00000000000000000000001300000000
#01717:0000000000000013
#0171b:2300000013130000
#01710:41
#01818:00000000000000001300130000130000
#01815:13000000000000000013000013001300
#02517:00140014000000000000000000000000
#02512:13001300000000001300000000000013
#02515:00000000140014000000130000130000
#0251b:00000000001300130000000013000000
#02518:00000000000000000013000000001300
#02510:41
#02612:00000000001300130000000013000000
#02615:00140014000000000013000000130000
#02618:0000000000130013
#0261b:13001300000000001300000000000013
#02617:0000141400000000
#02712:13000000000000000033330000000000
#02718:00001313000000130000000000000013
#0271b:00000000001300000000001300130000
#02715:0000001300000013
#02818:0000130000000013
#02815:00000000000013000000000000130000
#0281b:0000000013131300
#02812:00000000000000000013001300000013
#02912:13
#02919:00000013000000000000000000000000
#02916:0000001300000000
#0291b:0000001300130000
#02918:00000013
#02915:0000000000000013
#02917:13
#02914:00000013000000000000000000000000
#03017:13
#03019:00000013000000000000000000000000
#0301b:0000001300130000
#03015:0000000000131300
#03018:00000000000000000000000000130000
#03012:13000000000000000000000000000013
#03014:00000013000000000000000000000000
#03016:0000001300000000
#03115:00001300000000130000000000001300
#0311b:0000000000130000
#03118:0000131300001300
#03112:00130000
#03218:1313000013000000
#03215:0000131300131300
#03212:1313
#0321b:00130013
#03312:1300000000130013
#03316:0000001300001300
#03314:00000013000000000000000000000000
#03317:0000000000130013
#0331b:00000013
#03310:41
#0341b:0000001300130000
#03418:00000013
#03415:0000000000000013
#03417:13
#03419:00000013000000000000000000000000
#03518:13131313
#03515:0013000000130000
#0351b:0000001300000013
#03512:1300130013001313
#03615:0013000000130000
#0361b:0000001300001300
#03618:0013
#03612:00000013
#03718:0000000000130000
#03715:00000013
#03712:00000013001300000000000000001300
#0371b:1313001313000013
#03717:00130000
#03716:00130000000000000000000000000000
#03818:13000013
#03815:00000013000000000000130000000000
#03812:2300001313000013
#0381b:0000000000000013
#0391b:2300001300000000
#03919:0000000013000013
#03917:0000000000131300
#03915:13
#03918:00000013000000000000000000000000
#03912:00001313
#0401b:13001313
#04015:00000013000000000000000000000000
#04012:2300001300000000
#04014:0000000013000013
#04016:0000000000131300
#04117:0000000013130000
#04116:0000000000001313
#04112:1313
#04118:00000013000000000000000000000000
#0411b:2300001300001300
#04217:13
#04218:00000013001300000000000013000013
#04212:1313
#0421b:0000000000000013
#04215:0013130000130000
#04210:41
#04315:1300130000130000
#04318:0013000000001300
#04312:0000001300000013
#0431b:0000001300000013
#04418:00130013
#04412:0000000013000013
#0441b:0000000000000013
#04618:0013000000000013
#0461b:2300130023130000
#04615:0000001300001300
#04612:1300230013230000
#04818:0000000000130013
#0481b:0013
#04815:00000013
#04812:0000000000000013
#04915:1300001300000013
#0491b:13000000000000130000000000000000
#04918:00001300001300000000130000000000
#04912:00130000
#05218:0000000013131313
#05215:1313131300000000
#0521b:13
#05212:0013
#05418:2626261300000000
#05417:0013
#05419:0000000000130000
#05416:00000013
#05414:0000000000000013
#05412:00260026000000002300000000000000
#0541b:00000023
#0551b:13000013000000000000000000000000
#05518:0000000013130000
#05515:0000000000001313
#05512:2300001300000000
#0551f:21
#0571b:13
#05716:00000013000000000000130000000000
#05712:2300001300000000
#05714:0013
#05718:00000013
#0571a:0000000000000013
#06519:00130000
#0651b:0000001300000000
#06514:33
#02117:1313
#02116:00130000
#0211b:00000000000000000000000000130000
#02118:00000000000000000000000000000013
#02112:1300000000000013
#02114:0013000000000000
#02119:0000001300000000
#02115:00000013
#02218:0013000000000000
#0221b:0000001300000000
#02215:0000000000130000
#02212:0000000000000013
#02316:1313
#02317:00130000
#0231b:1300000000000013
#02319:0013000000000000
#02314:0000001300000000
#02318:00000013
#02312:00000013
#02417:13130013
#0241b:0013001300130013
#02412:1313
#02416:0013001300130013
#00312:13000000000000000000001300000000
#00315:0000001313000000
#0031b:2300130013000013
#00318:00000000000000000000001300000000
#0041b:13131313
#00412:0013000000232300
#00414:00130000
#00416:0000001300000000
#00418:0000000000130013
#0051b:1313
#00515:0000000013000013
#00512:23130000
#00518:00000000000013000000001300000000
#0061b:1313000000232300
#00619:00130000
#00617:0000001300000000
#00612:00131313
#00616:0000000000130013
#00718:0000000013000013
#0071b:23130000
#00712:1313
#00715:00000000000013000000001300000000
#01918:00130000
#01915:0013001300000000
#0191b:23000000000013000000000000130000
#01917:00000000000000000000001300000000
#01916:0000000000000013
#01912:2300000013130000
#02015:00000000000000001300130000130000
#02018:13000000000000000013000013001300
#04516:13
#04513:0013000000000000
#04515:00130000
#04512:0000001300000000
#0451b:0013
#04518:0000000000130000
#0451a:00000013
#04517:0000000000000013
#04718:13
#04712:13131313
#04713:0013000000000000
#04714:0000001300000000
#04715:0000000000130000
#04716:0000000000000013
#0471f:11
#05118:13
#05112:1313131300000000
#0511b:0000000013131313
#05115:0013
#05116:00000014001400000000001400140000
#0531b:1300000000130000
#05312:13000000000000000000000000000014
#05313:0013000000000000
#05314:00000000130000000000000000140000
#05315:0000001300000000
#05316:00000000000000001300001400000000
#05317:00000014000000000000000000001300
#05318:00000000001400000000000000000000
#05319:00000000000000140000000013000000
#05612:13000013000000000000000000000000
#05615:0000000013130000
#05618:0000000000001313
#0561b:2300001300000000
#05610:41
#05812:1300000013130000
#05817:00000013000000001300000000000000
#0581b:2300001300001313
#05816:00000013
#05916:13
#05915:00000013001300000000000013000013
#0591b:1313
#05912:0000000000000013
#05918:0013130000130000
#06018:1300130000130000
#06015:0013000000001300
#0601b:0000001300000013
#06012:0000001300000013
#06315:00001300000000000000000000130000
#06312:2300130023130000
#06318:0000001300001313
#0631b:1300230013230000
#06217:13
#0621a:0013000000000000
#06218:00130000
#0621b:0000001300000000
#06212:0013
#06215:0000000000130000
#06213:00000013
#06216:0000000000000013
#0641b:13130000
#06418:0013001300000000
#05018:1300001300000013
#05012:13000000000000130000000000000000
#05015:00001300001300000000130000000000
#0501b:00130000
#06612:0013000000000000
#06615:0000130000130000
#0661b:0013001300000000
#06618:0000000013002222
#06115:00130013
#0611b:0000000013000013
#06112:0000000000000013
#03258:1313
#03255:00130013
#00956:63
#0095b:00630000
#01157:53
#01152:00530000
#0125b:6363
#01257:0023000000230000
#01256:00630063
#01252:0000002300000023
#01558:6300000000000063
#01555:0053
#0155b:00000013000000000000000000000000
#01552:00000000000000000000001300000000
#0165b:13
#01652:13
#02157:53
#02156:00530000
#02152:1313
#0215b:00130000
#02356:63
#02357:00630000
#0235b:1313
#02352:00130000
#02452:5353
#02456:0023000000230000
#02457:00530053
#0245b:0000002300000023
#02752:63
#02755:00000013000000000000000000000000
#0015b:53000000000000000000005300000000
#00158:0053
#00352:63000000000000000000006300000000
#00355:0063
#0055b:53
#00555:0000000063000063
#00558:00000000000000000000006300000000
#00758:0000000053000053
#00755:00000000000000000000005300000000
#00752:63
#01755:00530000
#01752:0000005300000000
#01958:00630000
#0195b:0000006300000000
#03058:00000000000000000000000000530000
#03155:00000000000000630000000000000000
#03655:0053000000000000
#0355b:0000000000000053
#03858:53
#03852:13
#03955:63
#0395b:13
#0405b:53
#04052:13
#04152:63
#0415b:13
#04258:00000000005300000000000000000000
#04352:0000005300000000
#0435b:0000000000000063
#04758:53
#05552:1300001300000000
#0555b:00000013000000000000000000000000
#05652:00000013000000000000000000000000
#0565b:1300001300000000
#05756:00000013000000000000000000000000
#05752:1300001300000000
#05857:00000013000000000000000000000000
#0585b:1300001300000000
#05955:00000000006300000000000000000000
#0605b:0000006300000000
#06052:0000000000000053
#0013b0:13
#001380:00230000
#001380:0000000013000023
#0013b0:00000000000000000000003300000000
#003320:13
#003350:00230000
#003350:0000000013000023
#003320:00000000000000000000003300000000
#0053b0:13
#005380:00230000
#005350:0013
#005320:00000000000000000000002300000000
#005381:00000000000000000000001300000000
#0053b1:0000000000000023
#005350:0000000000000013
#006320:23
#007320:13
#007350:00230000
#007380:0013
#0073b0:00000000000000000000002300000000
#007351:00000000000000000000001300000000
#007321:0000000000000023
#007380:0000000000000013
#0083b0:23
#009360:13
#009320:00230000
#0093b1:00130000
#009371:0023
#0103b1:1323000000000000
#010381:0000132300000000
#010321:0000000013230000
#010351:0000000000001323
#011371:13
#0113b1:00230000
#011320:00130000
#011360:0023
#0123b0:13230000
#012370:0033000000000000
#012361:00132300
#012321:0000003300000000
#0123b0:00001323
#012370:0000000000330000
#012361:00000013
#012321:0000000000000033
#013361:23
#015381:13
#0153b1:00003323000000000000000000000000
#015351:0013
#015321:00000000000000000000332300000000
#015381:0000000000000013
#0163b1:23
#0163b1:0000132300000000
#016371:0000000013230000
#0163b1:0000000000001323
#017351:00132300
#017321:0000003300000000
#0183b1:1323000000000000
#018350:0013230000000000
#018381:0000132300000000
#018320:0000001323000000
#019380:00132300
#0193b0:0000003300000000
#020320:1323000000000000
#020381:0013230000000000
#020350:0000132300000000
#0203b1:0000001323000000
#021371:13
#0213b1:00230000
#021360:00130000
#021320:0023
#022320:1323000000000000
#022350:0000132300000000
#0223b0:0000000013230000
#022380:0000000000001323
#023360:13
#023320:00230000
#023371:00130000
#0233b1:0023
#024321:13230000
#024361:0033000000000000
#024370:00132300
#0243b0:0000003300000000
#024321:00001323
#024361:0000000000330000
#024370:00000013
#0243b0:0000000000000033
#025370:23
#027320:13
#027350:00003323000000000000000000000000
#027320:00000000000000001333330000000000
#027360:00000000000000000000002300000000
#028320:1353535353535353230000000000000000000000000000000000000000000000
#028330:00530053005300530053005300530053000000000000000000000000000000000000000000000000000000000000000000000000000000000000000000000000
#030380:00000000000000000000000000130000
#0303b0:00000000000000000000000000000023
#031350:00000000000000130000000000000000
#031320:0000000000230000
#033370:1323000000000000
#033390:00000013002300000000000000000000
#0333b0:0000001323000000
#034320:1323000000000000
#034340:00000013002300000000000000000000
#034360:0000001323000000
#0353b0:0000000000000013
#036380:0023000000000000
#036351:0013000000000000
#036321:0000002300000000
#038381:13
#0383b1:00000023000000000000000000000000
#039351:13
#039321:00000023000000000000000000000000
#0403b1:13
#040381:00000023000000000000000000000000
#041321:13
#041351:00000023000000000000000000000000
#042381:00000000001300000000000000000000
#0423b1:0023
#043321:0000001300000000
#043351:0023
#0433b1:0000000000000013
#044381:23
#044321:0013000000000000
#044351:00230000
#0443b1:0000001300000000
#044381:0023
#044321:0000000000130000
#044351:00000023
#0453b1:13
#045381:0033000000000000
#0453a1:00330000
#045371:0000002300000000
#045361:0013
#045331:0000000000330000
#045351:00000033
#045321:0000000000000023
#047381:13
#0483b1:23
#048320:13000023000000000000000000000000
#048371:00000013000023000000000000000000
#048340:0000001323000000
#049350:0000000013230000
#049380:0000000000001323
#050380:0000000013230000
#050350:0000000000001323
#052380:00000014240000000000000000000000
#052380:00000000001424000000000000000000
#052340:00000000000000000000001424000000
#052340:00000000000000000000000000142400
#055350:00001323000000000000000000000000
#055380:00000000001323000000000000000000
#055320:0013
#055350:0000000000230000
#0553b0:00000013
#055380:0000000000000023
#056380:00001323000000000000000000000000
#056350:00000000001323000000000000000000
#0563b0:0013
#056380:0000000000230000
#056320:00000013
#056350:0000000000000023
#0573b0:00001323000000000000000000000000
#057370:00000000001323000000000000000000
#058320:00001323000000000000000000000000
#058360:00000000001323000000000000000000
#059350:00000000001300000000000000000000
#059320:0023
#0603b0:0000001300000000
#060380:0023
#060320:0000000000000013
#061350:23
#0613b0:0013000000000000
#061380:00230000
#061320:0000001300000000
#061350:0023
#0613b0:0000000000130000
#061380:00000023
#062320:13
#062350:0033000000000000
#062330:00330000
#062360:0000002300000000
#062370:0013
#0623a0:0000000000330000
#062380:00000033
#0623b0:0000000000000023
#064320:13
#064360:0000000000000033
#065340:33
#065320:0033000000000000
#065350:0000000000000023
#0643b1:00000000000000001300002300000000
#0643b1:0000000000000013
#065371:0023000000000000
#065381:0000000013230000
#0653b1:0000000000001323
