This file was generated by Ched 2.7.0.0.
#TITLE ""
#ARTIST ""
#DESIGNER ""
#DIFFICULTY 0
#PLAYLEVEL
#SONGID ""
#WAVE ""
#WAVEOFFSET 0
#JACKET ""
#REQUEST "ticks_per_beat 480"
#00002: 4
#BPM01: 124
#00008: 01
#TIL00: ""
#HISPEED 00
#MEASUREHS 00
#00118:00131300
#0011b:00000000000000000000001300000000
#00115:0000001300000000
#00112:23
#00212:0013000000000013
#00218:00130013
#00215:0000001300130000
#0021b:0013
#0091b:13
#00915:00000013
#00918:0000130000000013
#00910:41
#01115:00130013
#01118:0000000000000013
#0111b:0000000000130000
#01112:13
#01315:0000000000001313
#01318:00000000000000000000000000130013
#01312:13333333333333330000000000000000
#0131b:0000000000130000
#0141b:00001313
#01415:00000000000000130000000000130000
#01418:0000001300000013
#01412:13333333000000000000130000000013
#01518:1300001300000013
#01515:00000000001300130000000000130000
#0151b:0013
#01615:00130013
#01612:0000001300000000
#01618:0000000013000013
#0161b:0000000000130000
#01712:2313
#01715:00000000130000000000001300000000
#01718:0000001300000000
#0171b:23
#01710:41
#02815:0000130000000013
#02818:0000001300001300
#02812:0000000013130000
#0281b:0000000013130000
#0291b:0000000000130000
#02918:0000001600001300
#02915:00000016000000000000000000001300
#02912:16
#03015:00000016000000000000130000130000
#03018:0000001600001300
#0301b:00000000000000000000000000000013
#03012:16
#03118:0000001300001300
#03115:00000000000000130000000000001300
#03112:00130000
#0311b:00130000
#03218:0013000000130000
#03215:0000001300000000
#03212:1313
#0321b:00130013
#0341b:0000000000130000
#03418:0000001600001300
#03415:00000016000000000000000000001300
#03412:16
#03518:13131313
#03515:0013000000130000
#0351b:0000001300000013
#03512:13
#03618:0013000013000000
#03615:0000000000130000
#03612:00000013
#0361b:00000013
#0371b:0013
#03718:0000000000130000
#03715:0000001300001300
#03712:0000000000000013
#0391b:0000001300000000
#03918:0013
#03915:1300000000130013
#03912:00000013
#0401b:13000013
#04012:0000001300000000
#04015:0013
#04018:0000000000130013
#04118:0000000000130013
#0411b:0000001300001300
#04115:0013
#04112:13
#04218:00000000001300000000000000001300
#04215:13000000000000000000000000000013
#04210:41
#04318:1300130000130013
#04312:0013000000000000
#04315:0000001300001300
#04418:00130013
#0441b:0000000013000013
#04412:0000001300000013
#04415:0013000000130000
#04615:0013001300001300
#0461b:0000000023130000
#04618:2300230000000013
#04612:0000000013230000
#05412:0000001300000000
#0541b:0000000000130000
#05415:0000000023000013
#05419:2424240000000000
#05413:00240024000000000000000000000000
#05418:00000023
#05515:00000013000000001300130000000000
#05518:2300000000001313
#0551b:0000001300000000
#0551f:21
#05718:0000000013000013
#05715:0000000000130000
#0571b:13000013
#05712:0000001300000000
#0121b:1300000000000013
#01218:0013000000000000
#01212:0000001313000000
#01215:0000000000130000
#00618:0013001300000013
#00615:00130013
#00612:0013
#0061b:0000000000130000
#00518:00130000
#0051b:0013
#00515:00000000000013000000001300000000
#00512:23
#04715:13
#0471f:11
#0481b:0013
#04818:0000001300130000
#04815:00000013000000000000000013000000
#04812:0000000000000013
#06318:0013001300001300
#06315:2300230000000013
#06312:0000000023130000
#0631b:0000000013230000
#06612:0013000000000000
#06615:00130023
#06618:0000001300130023
#0661b:0013
#00315:00131300
#00312:00000000000000000000001300000000
#00318:0000001300000000
#0031b:23
#0041b:0013000000000013
#00415:00130013
#00418:0000001300130000
#00412:0013
#00815:0013001300000013
#00818:00130013
#0081b:0013
#00812:0000000000130000
#00715:00130000
#00712:0013
#00718:00000000000013000000001300000000
#0071b:23
#01012:1313
#01018:0013000000000013
#01015:0000130000130000
#0101b:0000001300001300
#0181b:0013000000000000
#01818:0000130000130000
#01815:0000001300000013
#01812:00001313
#0191b:2313
#01918:00000000130000000000001300000000
#01915:0000001300000000
#01912:23
#02012:0013000000000000
#02015:0000130000130000
#02018:0000001300000013
#0201b:00001313
#02112:13
#02118:00000013
#02115:0000130000000013
#02318:0033130000001300
#02315:0000000000000013
#0231b:1300003300000000
#02518:0000000000001313
#02515:00000000000000000000000000130013
#0251b:13333333333333330000000000000000
#02512:0000000000130000
#02510:41
#02612:00000013
#02618:13333333333333330000000000130000
#02615:0000000000130013
#0261b:00000000000000000000000000000013
#02715:1300001300000000
#02718:00000000001300130000000000000000
#0271b:0000000000000033
#02712:00000000000000000033330000000000
#02412:1300000000000013
#02415:0013000000000000
#0241b:0000001313000000
#02418:0000000000130000
#0221b:1313
#02215:0013000000000013
#02218:0000130000130000
#02212:0000001300001300
#0331b:0000000000130000
#03318:0000001600001300
#03315:00000016000000000000000000001300
#03312:16
#03310:41
#03812:0013
#03815:0000000000130000
#03818:2300001300001300
#0381b:0000000000000013
#0491b:13
#04918:00000013000000000000000013000000
#04915:0000000013000013
#05012:1313
#05015:0013001300130000
#05018:00130013
#0501b:0000000000000013
#05112:13
#05115:00000013000000000000000000000000
#05118:0013
#0511b:00000000000000000000001300000000
#05215:13000013
#05212:00000013000000000000000000001300
#0521b:0013
#05218:0000000000130000
#0531b:13
#05318:00000013000000000000000000000000
#05312:0013
#05315:00000000000000000000001300000000
#05618:00000013000000001300130000000000
#05615:2300000000001313
#05612:0000001300000000
#05610:41
#05812:13000013
#05815:0000000013000013
#05818:0000000000130000
#0581b:0000001300000000
#05915:00000000001300000000000000001300
#05918:13000000000000000000000000000013
#06015:1300130000130013
#0601b:0013000000000000
#06018:0000001300001300
#06115:00130013
#06112:0000000013000013
#0611b:0000001300000013
#06118:0013000000130000
#0651a:00330000
#0095b:63
#00958:00530000
#0125b:63
#01258:0023000000000000
#01252:0053
#01255:0000000000230000
#01558:6300000000000063
#0155b:0053
#00158:0053
#0015b:00000000000000000000005300000000
#00555:00000000000000000000005300000000
#03155:00000000000000630000000000000000
#0355b:0000000000000053
#0405b:53
#04258:00000000005300000000000000000000
#04255:53
#04355:0000005300000000
#04358:0000000000000063
#04755:63
#05558:13
#05555:00000013000000000000000000000000
#00355:0063
#00352:00000000000000000000006300000000
#00758:00000000000000000000006300000000
#01152:53
#01155:00630000
#01352:53
#01452:53
#01752:0053
#01755:00000000000000000000005300000000
#0195b:0063
#01958:00000000000000000000006300000000
#02152:53
#02155:00630000
#02755:53
#02452:53
#02455:0023000000000000
#0245b:0063
#02458:0000000000230000
#0235b:63
#02358:00530000
#0255b:63
#02658:63
#0305b:00000000000000000000000000000053
#03658:0053000000000000
#03652:00000053
#0365b:00000063
#03955:63
#03858:53
#04152:63
#0495b:53
#04958:00000053000000000000000000000000
#05152:63
#05155:00000063000000000000000000000000
#05158:0063
#0515b:00000000000000000000006300000000
#05255:53
#05252:00000053000000000000000000000000
#0535b:53
#05358:00000053000000000000000000000000
#05352:0063
#05355:00000000000000000000006300000000
#05658:00000013000000000000000000000000
#05655:13
#0575b:53
#05758:00000013000000000000000000000000
#05852:63
#05855:00000013000000000000000000000000
#05955:00000000006300000000000000000000
#05958:63
#06058:0000006300000000
#06055:0000000000000053
#001380:0000000013000023
#0013b0:00000000000000000000003300000000
#003350:0000000013000023
#003320:00000000000000000000003300000000
#005350:00000000000000000000001300000000
#005320:0000000000000023
#007380:00000000000000000000001300000000
#0073b0:0000000000000023
#0093b0:1323
#009380:00330000
#011320:1323
#011350:00330000
#0123b0:13230000
#012380:0033000000000000
#012320:00001323
#012350:0000000000330000
#013320:13333333333333330000000000000000
#013360:0023
#014320:13333333000000000000000000000000
#014350:00230000
#015380:13
#0153b0:00003323000000000000000000000000
#0153b0:0013
#015380:00000000000000000000332300000000
#015380:0000000000000013
#0163b0:23
#017320:0000000013000023
#017350:00000000000000000000003300000000
#0193b0:0000000013000023
#019380:00000000000000000000003300000000
#021320:1323
#021350:00330000
#0233b0:1300003323000000
#023380:0033330000000000
#024320:13230000
#024350:0033000000000000
#0243b0:00001323
#024380:0000000000330000
#0253b0:13333333333333330000000000000000
#025370:0023
#026380:13333333333333330000000000000000
#0263b0:0023
#027350:13
#027320:00003323000000000000000000000000
#027320:00000000000000001333330000000000
#027350:00000000000000000000002300000000
#0273b0:00000000000000000000000000133300
#027380:00000000000000000000000000000023
#0303b0:00000000000000000000000000000013
#031380:0023000000000000
#031350:00000000000000130000000000000000
#031320:0000000000230000
#0353b0:0000000000000013
#036380:0033000000000000
#0363b0:0000002300000000
#036320:00000013
#037350:23
#0363b1:00000013
#037381:23
#038381:13
#0383b1:00000023000000000000000000000000
#039351:13
#039321:00000023000000000000000000000000
#0403b1:13
#040381:00000023000000000000000000000000
#041321:13
#041351:00000023000000000000000000000000
#042351:13
#042321:00000023000000000000000000000000
#042381:00000000001300000000000000000000
#0423b1:0023
#043351:0000001300000000
#043321:0023
#043381:0000000000000013
#0443b1:23
#0453b1:13330000
#045391:0033002300000000
#045351:00001333
#045331:0000000000330023
#047351:13
#048321:23
#0493b1:1300002300000000
#049381:00000033000000000000000000000000
#051321:1300002300000000
#051351:00000033000000000000000000000000
#051381:0000000013000023
#0513b1:00000000000000000000003300000000
#052351:1300002300000000
#052321:00000033000000000000000000000000
#0533b1:1300002300000000
#053381:00000033000000000000000000000000
#053321:0000000013000023
#053351:00000000000000000000003300000000
#0573b1:13
#057381:00000023000000000000000000000000
#058321:13
#058351:00000023000000000000000000000000
#059381:13
#0593b1:00000023000000000000000000000000
#059351:00000000001300000000000000000000
#059321:0023
#060381:0000001300000000
#0603b1:0023
#060351:0000000000000013
#061321:23
#062321:13330000
#062341:0033002300000000
#062381:00001333
#0623a1:0000000000330023
#0643b1:13
#064371:0000000000000033
#0653b1:0033000000333300
#0653a1:00330000
#065381:0000003333000023
