This file was generated by Ched 2.7.0.0.
#TITLE ""
#ARTIST ""
#DESIGNER ""
#DIFFICULTY 0
#PLAYLEVEL
#SONGID ""
#WAVE ""
#WAVEOFFSET 0
#JACKET ""
#REQUEST "ticks_per_beat 480"
#00002: 4
#BPM01: 124
#00008: 01
#TIL00: ""
#HISPEED 00
#MEASUREHS 00
#0021b:1313000000002300
#00219:00130000
#00217:0000001300000000
#00212:1300001313001300
#00215:00000000000000000013001300001300
#00218:00000000000000000000230000130013
#00216:0013000000000000
#00214:00130000
#00112:14130000
#0011b:0013
#00118:00000000001300000000000000000000
#00115:00000000000013130000001300001300
#00116:0014000000000000
#0011a:24
#00912:13130013
#00918:00000000000000000000000000130000
#0091b:13001300000013001300000000000013
#00917:0013131300000000
#00916:0000000000140000
#00915:0000000000000013
#00910:41
#01315:00001300160000130000130000130000
#01312:00000013001300001300000013000000
#01318:00130000000016000000000000001300
#0131b:13000000000000001300130000000013
#0151b:1313
#01512:00001313001300000000000000000000
#01515:00000000000013000000000000230000
#01518:00000000000000130000000000000000
#01517:00000000000000001300131300000000
#01718:0013001300000000
#0171b:0000130013130000
#01712:00000000130000001300000000130000
#01715:00001300001300130000000000000000
#0171a:24
#01710:41
#01818:0000000000130013
#0181b:00001313
#01815:13000000000000000013000000130016
#01812:00000000000000000000001600000000
#0281b:0000130013130000
#02815:00000000001300000000000000000000
#02812:00000000000000130000000000130013
#02816:00000000000000000014001414001400
#02818:0000001300000000
#02912:13000000000000000000000000140000
#02919:00000013000000000000000000000000
#02916:0000001300000000
#0291b:0000001300130000
#02918:00000000000000000000000013000014
#02915:00000000000000000000001400001300
#02917:13
#02914:00000013000000000000000000000000
#0301b:0000001300130000
#03015:00000000000000000000000013130000
#03018:00000000000000000000000013130000
#03012:1300000000130000
#03019:00000013000000000000000000000000
#03016:0000001300000000
#03017:13
#03014:00000013000000000000000000000000
#03115:00001600001300130000001300001600
#0311b:00000013000000000000130000130013
#03118:0000131300001300
#03112:00130000
#03218:1313000000130000
#03215:0000001300000013
#03212:1313
#0321b:00130013
#03312:1600000000130013
#03316:0000001614141414
#03314:00000016000000000000000000000000
#0331b:00000000001300001300000013000000
#03319:0013000000000000
#03310:41
#0341b:0000000000130000
#03418:00000013
#03415:0000000000000013
#03412:1813
#03414:00001318000000000000000000000000
#03416:00000000001318001400140000000000
#0351b:13000013000013000013000013001300
#03515:00001300001300001300001300001300
#03518:00130000130000130000130000130000
#03512:13000000130000000013000000000000
#03616:0013000000000000
#03618:0013
#03615:0000000000130000
#0361b:00000013
#03612:13130013
#03617:13
#0371b:0000000013000013
#03718:0013000000131300
#03715:00130000000000000000000013000000
#03712:13000013000013001300000000001300
#03716:00000000130000140000000000000000
#0371a:00000000001300000000000000000000
#03817:13000000001313000000000000000000
#03816:00001313000000000000000000000000
#03812:23000000000000000013000000130000
#0381b:0000000000130013
#03818:00001313
#03815:00000000000000000000001300000013
#04117:0000000013130000
#04116:00000000001313000000000013001300
#0411b:23001313000013000000000000130013
#04112:13000000000000000013001300000000
#04217:13
#04216:00000014001400000000000014000014
#04212:1314140014000000
#04214:0000000000140000
#0421a:0000000000000014
#04210:41
#04318:00001300001300001300000013000000
#04315:00000000130000000000130000130000
#04312:1400001300000013
#0431b:0000001300000013
#04418:00000013130000000000001313000000
#04412:00000000000000131300000000001300
#0441b:0000000000000013
#04415:13
#04615:0016001600001300
#0461b:2300130023130000
#04618:0000000000000013
#04612:1300230013230000
#04818:00000013001300000000130000130013
#04812:13001313
#04815:00001300000013000013001300001300
#0481b:00001313
#05418:26002600260013002300130000130013
#05415:00000000000013000013000023001300
#0541b:00000000000000000000001300000000
#05412:00260026000000000000001300000000
#0551b:13000013000000001300000000000013
#05515:00001316000016000013000000001600
#05518:00000000001300000000131600130000
#05512:2300001300001600
#0551f:21
#05712:2300001313000000
#05714:0000000000130000
#05716:00000014
#05719:0000000000000013
#0571b:13000013000000000000000000000000
#05718:00001300000000000013000000000000
#05715:00000016001316000000000000000013
#06518:00130000
#0651b:0000001313000000
#06512:00130013
#06515:0000001300000000
#06517:00000000000000000013001300000000
#06513:0000000000130000
#06516:00000000000000000000000000130013
#0651a:0000000000000013
#02112:13001300160013001300000000130000
#02115:00000000000000000000000013000013
#02118:0000000000000013
#0211b:1300001300130000
#02117:0013000000000000
#02119:00130000
#02116:0000000000130000
#04717:13
#04712:13
#04715:0013
#0471f:11
#0511b:1313130013131300
#05112:13001300000013000000000000000014
#05117:0000000000000013
#05116:00000000000000140000000000000000
#0531b:1300000000130000
#05312:13001400150016001700001800160014
#05317:00000017000000000000000000001700
#05318:00000000001600000000000000000000
#05319:00000000000000150000000015000000
#05912:1300000000000014
#0591b:13
#05916:00000014001400000000000014000014
#0591a:0014140014000000
#05918:0000000000140000
#06315:00001600000016000000000000130013
#06318:0000000000001313
#06312:2300130023130000
#0631b:1300230013230000
#0641b:13000000130000000000001300001300
#06418:00001300000013000013000000130000
#06412:13131313
#06415:0013001300130013
#06612:1313000013000000
#06615:0000131300130000
#0661b:1313131300000000
#06618:0000000013130000
#0661a:0000000000002222
#06614:0000000000002222
#0271b:00001313001300000000001300130000
#02715:00000000000013000013000000000013
#02718:00000000000000130000130000001300
#02712:1313
#00412:1313000000002300
#00414:00130000
#00416:0000001300000000
#0041b:1300001313001300
#00418:00000000000000000013001300001300
#00415:00000000000000000000230000130013
#00417:0013000000000000
#00419:00130000
#0031b:00130000
#00312:2413
#00315:00000000001300000000000000000000
#00318:00000000000013130000001300001300
#0031a:14
#00316:0014000000000000
#0061b:1313000000002300
#00612:1300001313001300
#00616:00000000000000000013001300000000
#00617:00000000000000000000000000130013
#00613:0000000000000013
#0061a:0000000000230000
#00512:14000000130000130000000000001300
#0051a:24000000001300001300000000000000
#00515:00000000000000000000001300000000
#00516:0014001300000000
#00812:1313000000002300
#0081b:1300001313001300
#00817:00000000000000000013001300000000
#00816:00000000000000000000000000130013
#0081a:0000000000000013
#00813:0000000000230000
#0071b:00000000130000130000000000001300
#00713:00000000001300001300000000000000
#00718:00000000000000000000001300000000
#0071a:14
#00717:0000001300000000
#00716:0014000000000000
#00712:24
#0111b:13130013
#01115:00000000000000000000000000130000
#01112:13001300000013001300000000000013
#01116:0013131300140000
#01118:0000000000000013
#01218:16130000
#01215:1316001619160016
#01212:00161319
#0121b:00000013
#01418:00001300000000130000130000130000
#0141b:00000013001300001300000013000000
#01415:00130000160000000000000000001300
#01412:13000000000016001300130000000013
#01612:00001c1719151613
#0161a:0000001300000000
#0161b:00001313
#01619:0000000000130000
#01618:0000000000000013
#01915:0013001300000000
#01912:2400130013130000
#0191b:00000000130000001300000000130000
#01918:00001300001300130000000000000000
#0191a:24
#02015:00000000000000000000130000001316
#02012:00001313
#02018:13000000000000000013001600130000
#0231b:13001300000013001300000000000013
#02318:00000000160000000000000000130000
#02312:1300001300131300
#02316:0013000000000000
#02314:00130000
#02317:0000000000130000
#02315:0000000000000013
#02412:16001913
#02418:13160000
#02415:0016131600161916
#0241b:0013
#02518:00001600130000000000000000130000
#02512:13000016000013000000130000000013
#0251b:00000000001300001300130013000000
#02515:00130000000000160016000000001300
#02510:41
#02612:00001600001300001300130013000000
#02618:00130016000000000000000000001300
#02615:00000000130000160016000000130000
#0261b:13000000000013000000130000000013
#04014:0000000013000013
#04016:0000000000130000
#04012:23001313000013000000000013000000
#04017:00000000001313000000000000000000
#0401b:13
#04516:1313
#04512:0013000000130000
#0451b:00130013
#04517:0000001300000013
#05015:00000013001300000000130000130013
#0501b:13001313
#05018:00001300000013000013001300001300
#05012:00001313
#05212:1313130013131300
#0521b:1313001300000000
#05216:00000000000000140000000000001300
#0521a:00000000000000000000000000000014
#05612:13000013000000001300001600000013
#0561b:2300001300000000
#05618:00001300000000000013000016000000
#05615:00000016001316000000130000131600
#05610:41
#05812:13000013000000000000000000130013
#0581b:23000000000013000013001300000000
#05815:00001316000016000000000000000000
#05818:00000000001300000000000000000000
#05816:0000000013130000
#05817:0000000000001313
#06015:00001300001300001300000013000000
#06018:00000000130000000000130000130000
#0601b:0000001300000013
#06012:00000000000013000013001300001300
#0601a:14
#06115:00000013130000000000001313000000
#0611b:00000000000000131300000000001300
#06112:0000000000000013
#06118:13
#06217:13130000
#0621b:0013001300000000
#06212:00001313
#06216:0000000000130013
#04916:13
#0491b:13
#04918:0013
#02212:0000000000130013
#02217:00000013000000000000000000000000
#02215:00000000000000000000001300000000
#02216:00000000000000130000000000000000
#02213:0000001300000000
#02214:0013000000000000
#01018:13130013
#0101b:0013001300130000
#01012:0013001300000013
#01015:13001313
#03916:13000000001313000000000000000000
#03917:00001313000000000000000000000000
#0391b:23000000000000000013000000130000
#03912:0000000000130013
#03915:00001313
#03918:00000000000000000000001300000013
#03258:1313
#03255:00130013
#03252:5353
#0325b:00530053
#0155b:63
#01557:0053
#01556:00000013000000000000000000000000
#01552:00000000000000000000001300000000
#03058:00000000000000000000000000530000
#03052:13
#03059:00000013000000000000000000000000
#03056:0000001300000000
#03057:13
#03054:00000013000000000000000000000000
#0305b:0000001300000000
#03055:00000000000000000000000000630000
#03155:00000000000000630000000000000000
#03656:0053000000000000
#03657:23
#03652:00230000
#0355b:0000000000000053
#03857:53
#03852:13
#03856:00000053000000000000000000000000
#04256:00000000005400000000000000000000
#04352:0000005300000000
#0435b:0000000000000063
#04757:53
#05552:1300001300000000
#0555b:00000013000000000000000000000000
#00952:53530000
#00957:0023002300000000
#0115b:63630000
#01156:0023002300000000
#01258:56
#01255:0016001659160016
#01252:00660069
#0135b:0000000000530000
#01452:0000000000630000
#0165b:13
#01652:13005c2759255623
#01858:0013000000000000
#01852:00130000
#0185b:0000001300000000
#01855:13
#02058:13
#02055:0013000000000000
#0205b:00130000
#02052:0000001300000000
#02152:13161300
#0215b:5300002300000000
#02159:00530000
#02157:0023000000000000
#0235b:1313
#02358:00160000
#02352:6300002300000000
#02356:0023000000000000
#02354:00630000
#02452:6669
#02458:00560000
#02455:0016001600165916
#02552:0000000000630000
#0265b:0000000000530000
#02752:53
#02757:00000013000000000000000000000000
#02957:13
#02952:13
#02954:00000013000000000000000000000000
#02959:00000013000000000000000000000000
#02956:0000001300000000
#0295b:0000001300000000
#03352:16
#03354:00000016000000000000000000000000
#03356:0000001600000000
#03452:18
#03454:00000018000000000000000000000000
#03456:0000001800000000
#04152:63
#0415b:13
#05652:00000013000000000000000000000000
#0565b:1300001300000000
#05752:13
#05755:00000016000016000000000000000000
#05855:00000016000016000000000000000000
#0585b:13
#05956:00000000006400000000000000000000
#0605b:0000006300000000
#06052:0000000000000053
#0465b:0013
#04652:0000000000130000
#06352:0013
#0635b:0000000000130000
#0645b:0000000000000053
#06455:0000000000000053
#04956:63
#0105b:0000002300000000
#01058:00630053
#01052:0023000000000000
#01055:5353
#04052:13
#0405b:53
#03956:63
#03957:00000063000000000000000000000000
#0395b:13
#001380:00000000000000000000132300000000
#001380:00000000000000000000000000162600
#003350:00000000000000000000132300000000
#003320:00000000000000000000000000162600
#005380:00000000000000000000132300000000
#005350:00000000000000000000000000162600
#006360:0013000000000000
#006340:00230000
#006391:00130000
#006371:0000002300000000
#007351:00000000000000000000132300000000
#007351:00000000000000000000000000162600
#008371:0013000000000000
#008391:00230000
#008340:00130000
#008360:0000002300000000
#009320:13332300
#009370:0053005300000000
#010350:13230000
#010320:0033000000000000
#010381:00132300
#0103b1:0000003300000000
#010350:0013
#010320:0000000000230000
#010380:00000013
#0103b0:0000000000000023
#0113b0:13332300
#011360:0053005300000000
#012380:16
#0123b0:0023000000000000
#012320:0000162300000000
#012350:0019
#0123b0:0000000000230000
#012320:0000000000001923
#0133b0:0000000000130000
#013380:00000023
#014320:0000000000130000
#014350:00000023
#0153b0:13
#015360:00003323000000000000000000000000
#015370:0013
#015320:00000000000000000000332300000000
#015350:000000000000000000000000000000000000000000000000000000000000000000000000000000000000000000000000000000000000000000000000000000000000000000000000000000000000000000000000000000000000000000000000000000000000000000000000000000000000000000000000000000000000000000000000000000000000000000000000000000000000000000000000000000000000000000000000000000000000000000000000000000000000000000000000000000000000000000000000000000000000000000000000000000000000000000000000000000000000000000000000000000000000000000000000000000000000000000000000000000000000000000000000000000000000000000000000000000000000000000000000000000000000000000000000000000000000000000000000000000000000000000000000000000000000000000000000000000000000000000000000000000000000000000000000000000000000000000000000000000000000000000000000000000000000000000000000000000000000000000000000000000000000000000000000000000000000000000000000000000000000000000000000000000000000000000000000000000000000000000000000000000000000000000000000000000000000000000000000000000000000000000000000000000000000000000000000000000000000000000000000000000000000000000000000000000000000000000000000000000000000000000000000000000000000000000000000000000000000000000000000000000000000000000000000000000000000000000000000000000000000000000000000000000000000000000000000000000000000000000000000000000000000000000000000000000000000000000000000000000000000000000000000000000000000000000000000000000000000000000000000000000000000000000000000000000000000000000000000000000000000000000000000000000000000000000000000000000000000000000000000000000000000000000000000000000000000000000000000000000000000000000000000000000000000000000000000000000000000000000000000000000000000000000000000000000000000000000000000000000000000000000000000000000000000000000000000000000000000000000000000000000000000000000000000000000000000000000000000000000000000000000000000000000000000000000000000000000000000000000000000000000000000000000000000000000000000000000000000000000000000000000000000000000000000000000000000000000000000000000000000000000000000000000000000000000000000000000000000000000000000000000000000000000000000000000000000000000000000000000000000000000000000000000000000000000000000000000000000000000000000000000000000000000000000000000000000000000000000000000000000000000000000000000000000000000000000000000000000000000000000000000000000000000000000000000000000000000000000000000000000000000000000000000000000000000000000000000000000000000000000000000000000000000000000000000000000000000000000000000000000000000000000000000000000000000000000000000000000000000000000000000000000000000000000000000000000000000000000000000000000000000000000000000000000000000000000000000000000000000000000000000000000000000000000000000000000000000000000000000000000000000000000000000000000000000000000000000000000000000000000000000000000000000000000000000000000000000000000000000000000000000000000000000000000000000000000000000000000000000000000000000000000000000000000000000000000000000000000000000000000000000000000000000000000000000000000000000000000000000000000000000000000000000000000000000000000000000000000000000000000130000000000000000000000000000000000000000000000000000000000000000000000000000000000000000000000000000000000000000000000000000000000000000000000000000000000000000000000000000000053590000000000000000000000000000000000000000000000000000000000390000000000000000000000000000000000000000000000000000000000590000000000000000000000000000000000000000000000000000000000000000000000000000000000000000000000000000000000000000000000000000000000000000000000000000000000000000000000000000000000000000000000000000000000000000000000000000000000000000000000000000000000000000000000000000000000000000000000000000000000000000000000000000000000000000000000000000000000000000000000000000000000000000000000000000000000000000000000000000000000
#0153b0:000000000000000000000000000000000000000000000000000000000000000000000000000000000000000000000000000000000000000000000000000000000000000000000000000000000000000000000000000000000000000000000000000000000000000000000000000000000000000000000000000000000000000000000000000000000000000000000000000000000000000000000000000000000000000000000000000000000000000000000000000000000000000000000000000000000000000000000000000000000000000000000000000000000000000000000000000000000000000000000000000000000000000000000000000000000000000000000000000000000000000000000000000000000000000000000000000000000000000000000000000000000000000000000000000000000000000000000000000000000000000000000000000000000000000000000000000000000000000000000000000000000000000000000000000000000000000000000000000000000000000000000000000000000000000000000000000000000000000000000000000000000000000000000000000000000000000000000000000000000000000000000000000000000000000000000000000000000000000000000000000000000000000000000000000000000000000000000000000000000000000000000000000000000000000000000000000000000000000000000000000000000000000000000000000000000000000000000000000000000000000000000000000000000000000000000000000000000000000000000000000000000000000000000000000000000000000000000000000000000000000000000000000000000000000000000000000000000000000000000000000000000000000000000000000000000000000000000000000000000000000000000000000000000000000000000000000000000000000000000000000000000000000000000000000000000000000000000000000000000000000000000000000000000000000000000000000000000000000000000000000000000000000000000000000000000000000000000000000000000000000000000000000000000000000000000000000000000000000000000000000000000000000000000000000000000000000000000000000000000000000000000000000000000000000000000000000000000000000000000000000000000000000000000000000000000000000000000000000000000000000000000000000000000000000000000000000000000000000000000000000000000000000000000000000000000000000000000000000000000000000000000000000000000000000000000000000000000000000000000000000000000000000000000000000000000000000000000000000000000000000000000000000000000000000000000000000000000000000000000000000000000000000000000000000000000000000000000000000000000000000000000000000000000000000000000000000000000000000000000000000000000000000000000000000000000000000000000000000000000000000000000000000000000000000000000000000000000000000000000000000000000000000000000000000000000000000000000000000000000000000000000000000000000000000000000000000000000000000000000000000000000000000000000000000000000000000000000000000000000000000000000000000000000000000000000000000000000000000000000000000000000000000000000000000000000000000000000000000000000000000000000000000000000000000000000000000000000000000000000000000000000000000000000000000000000000000000000000000000000000000000000000000000000000000000000000000000000000000000000000000000000000000000000000000000000000000000000000000000000000000000000000000000000000000000000000000000000000000000000000000000000000000000000000000000000000000000000000000000000000000000000000000000000000000000000000000000000000000000000000000000000000000000000000000000000000000000000000000000000000000000000000000000000000000000000000000000000000000000000000000000000000000000000000000000000000000000000000000000000000000000000000000000000000000000000000000000000000000000000000000000000000000000000000000000000000000000000000000000000000005300000000000000000000000000000000000000000000000000000000000000000000000000000000000000000000000000000000000000000000000000000000000000000000000000000000000000000000000000000000000000000000000000000000000000000000000000000000000000000000000000000000000000000000000000000000000000000000000000000000000000000000000000000000000000000000000000000000000000000000000000000000000000000000000000000000000000000000000000000000
#0163b0:23
#015381:00000000000000000000000000000000000000000000000000000000000000000000000000000000000000000000000000000000000000000000000000000000000000000000000000000000000000000000000000000000000000000000000000000000000000000000000000000000000000000000000000000000000000000000000000000000000000000000000000000000000000000000000000000000000000000000000000000000000000000000000000000000000000000000000000000000000000000000000000000000000000000000000000000000000000000000000000000000000000000000000000000000000000000000000000000000000000000000000000000000000000000000000000000000000000000000000000000000000000000000000000000000000000000000000000000000000000000000000000000000000000000000000000000000000000000000000000000000000000000000000000000000000000000000000000000000000000000000000000000000000000000000000000000000000000000000000000000000000000000000000000000000000000000000000000000000000000000000000000000000000000000000000000000000000000000000000000000000000000000000000000000000000000000000000000000000000000000000000000000000000000000000000000000000130000000000000000000000000000000000000000000000000000000053000000000000000000000000000000000000000000000000000000000000000000000000000000000000000000000000000000000000000000000000000000000000000000000000000000000000000000000000000000000000
#015321:000000000000000000000000000000000000000000000000000000000000000000000000000000000000000000000000000000000000000000000000000000000000000000000000000000000000000000000000000000000000000000000000000000000000000000000000000000000000000000000000000000000000000000000000000000000000000000000000000000000000000000000000000000000000000000000000000000000000000000000000000000000000000000000000000000000000000000000000000000000000000000000000000000000000000000000000000000000000000000000000000000000000000000000000000000000000000000000000000000000000000000000000000000000000000000000000000000000000000000000000000000000000000000000000000000000000000000000000000000000000000000000000000000000000000000000000000000000000000000000000000000000000000000000000000000000000000000000000000000000000000000000000000000000000000000000000000000000000000000000000000000000000000000000000000000000000000000000000000000000000000000000000000000000000000000000000000000000000000000000000000000000000000000000000000000000000000000000000000000000000000000000000000000000000000000000000000000000000000000000000000000000000000000000000000000000000000000000000000000000000000000000000000000000000000000000000000000000000000000000000000000000000000000000000000000000000000000000000000000000000000000000000000000000000000000000000000000000000000000000000000000000000000000000000000000000000000000000000000000000000000000000000000000000000000000000000000000000000000000000000000000000000000000000000000000000000000000000000000000000000000000000000000000000000000000000000000000000000000000000000000000000000000000000000000000000000000000000000000000000000000000000000000000000000000000000000000000000000000000000000000000000000000000000000000000000000000000000000000000000000000000000000000000000000000000000000000000000000000000000000000000000000000000000000000000000000000000000000000000000000000000000000000000000000000000000000000000000000000000000000000000000000000000000000000000000000000000000000000000000000000000000000000000000000000000000000000000000000000000000000000000000000000000000000000000000000000000000000000000000000000000000000000000000000000000000000000000000000000000000000000000000000000000000000000000000000000000000000000000000000000000000000000000000000000000000000000000000000000000000000000000000000000000000000000000000000000000000000000000000000000000000000000000000000000000000000000000000000000000000000000000000000000000000000000000000000000000000000000000000000000000000000000000000000000000000000000000000000000000000000000000000000000000000000000000000000000000000000000000000000000000000000000000000000000000000000000000000000000000000000000000000000000000000000000000000000000000000000000000000000000000000000000000000000000000000000000000000000000000000000000000000000000000000000000000000000000000000000000000000000000000000000000000000000000000000000000000000000000000000000000000000000000000000000000000000000000000000000000000000000000000000000000000000000000000000000000000000000000000000000000000000000000000000000000000000000000000000000000000000000000000000000000000000000000000000000000000000000000000000000000000000000000000000000000000000000000000000000000000000000000000000000000000000000000000000000000000000000000000000000000000000000000000000000000000000000000000000000000000000000005900000000000000000000000000000000000000000000000000000039000000000000000000000000000000000000000000000000000000005900000053000000000000000000000000000000000000000000000000000000000000000000000000000000000000000000000000000000000000000000000000000000000000000000000000000000000000000000000000000000000000000000000000000000000000000000000000000000000000000000000000000000000000000000000000000000000000000000000000000000000000000000000000000000000000000000000000000000000000000000000000000000000000000000000000000000000000000000000000000000
#016321:23
#016321:00001c5739553653
#017321:24
#017361:00000000000000000000142400000000
#017361:00000000000000000000000000142400
#0183b1:13
#018381:0053000023000000000000000000000000000000000000000000000000000000
#018350:0013000000000000
#018320:0000000000530000230000000000000000000000000000000000000000000000
#018381:00130000
#0183b1:0000000000000000005300002300000000000000000000000000000000000000
#018320:0000001300000000
#018350:0000000000000000000000000053000023000000000000000000000000000000
#019360:00000000000000000000142400000000
#019360:00000000000000000000000000142400
#020320:13
#020350:0053000023000000000000000000000000000000000000000000000000000000
#020381:0013000000000000
#0203b1:0000000000530000230000000000000000000000000000000000000000000000
#020350:00130000
#020320:0000000000000000005300002300000000000000000000000000000000000000
#0203b1:0000001300000000
#020381:0000000000000000000000000053000023000000000000000000000000000000
#0213b1:1300005300000000
#021371:0053000023000000
#021391:00330000
#0223b1:1323000000000000
#0223a1:0000132300000000
#022391:0000000013230000
#022381:0000000000001323
#023321:1300005300000000
#023361:0053000023000000
#023341:00330000
#024321:1623000000000000
#024381:00160000
#0243b1:0000002300000000
#024321:0000000019230000
#024351:00000019
#0243b1:0000000000000023
#025321:0000000000130000
#025351:00000023
#0263b1:0000000000130000
#026381:00000023
#027321:13
#027371:00003323000000000000000000000000
#028321:1656565656565656260000000000000000000000000000000000000000000000
#028331:00560056005600560056005600560056000000000000000000000000000000000000000000000000000000000000000000000000000000000000000000000000
#030381:00000000000000000000000000130000
#0303b1:00000000000000000000000000000023
#030350:00000000000000000000000000130000
#030320:00000000000000000000000000000023
#031350:00000000000000130000000000000000
#031320:0000000000230000
#032320:13
#032350:00230000
#0323b1:00130000
#032381:0023
#032320:0013
#032350:00000023
#0323b1:00000013
#033381:23
#0353b1:0000000000000013
#036371:53
#0363b1:0033002300000000
#036360:0013002300000000
#036320:00530000
#038370:13
#0383b0:00000023000000000000000000000000
#038361:00000013000000000000000000000000
#038321:0000002300000000
#039361:13
#039321:00000023000000000000000000000000
#039370:00000013000000000000000000000000
#0393b0:0000002300000000
#0403b0:13
#040370:00000023000000000000000000000000
#0403b0:0000000013230000
#040380:0000000000001323
#041320:13
#041360:00000023000000000000000000000000
#042360:00000000001400000000000000000000
#0423a0:0024
#043320:0000001300000000
#043350:0023
#0433b0:0000000000000013
#044380:23
#044350:0013230000000000
#0443b0:0000001323000000
#044350:0000000000132300
#0453b0:13
#045360:0023000000000000
#045370:00130000
#045320:0000002300000000
#0453b0:0013
#045360:0000000000230000
#045370:00000013
#045320:0000000000000023
#047370:13
#0473b0:00000053
#0483b0:23
#047321:0013000000000000
#047351:00000023000000000000000000000000
#047351:00000000001300000000000000000000
#047321:0000002300000000
#047351:0000000000130000
#047321:00000000000000000000002300000000
#047321:00000000000000000000000000130000
#047351:0000000000000023
#049360:13
#049320:00000053
#050320:23
#0493b1:0013000000000000
#049381:00000023000000000000000000000000
#049381:00000000001300000000000000000000
#0493b1:0000002300000000
#049381:0000000000130000
#0493b1:00000000000000000000002300000000
#0493b1:00000000000000000000000000130000
#049381:0000000000000023
#051360:00000013230000000000000000000000
#051370:00000000001323000000000000000000
#051360:00000000000000000000001424000000
#051320:00000000000000000000000000142400
#052370:00000013230000000000000000000000
#052360:00000000001323000000000000000000
#052360:00000000000000000000001424000000
#0523a0:00000000000000000000000000142400
#059360:00000000001400000000000000000000
#059320:0024
#0603b0:0000001300000000
#060380:0023
#060320:0000000000000013
#061350:23
#061380:0013230000000000
#061320:0000001323000000
#061380:0000000000132300
#062320:13
#062370:0023000000000000
#062320:00130000
#062370:0000002300000000
#062360:0013
#0623b0:0000000000230000
#062360:00000013
#0623b0:0000000000000023
#064350:0000000000000013
#065320:0023000000000000
#0643b1:0000000000000013
#065381:0023000000000000
